Начать новую тему Ответить на тему
Статистика раздачи
Размер: 216.82 МБ | Добавлен: 01 янв 2020, 22:59 | Скачали: 0
Сидеров: 0  [0 байт/сек]    Личеров: 0  [0 байт/сек]
Пред. тема | След. тема 

Автор
Сообщение

СообщениеДобавлено: 01 янв 2020, 22:59 

Ответить с цитатой 

Edith Piaf / Die grossen Erfolge - Die grossen Chansons
Жанр: Pop, Chanson
Носитель: CD
Страна-производитель диска (релиза): Germany
Год издания: 1992
Издатель (лейбл): EMI Electrola
Номер по каталогу: 799 324 2
Страна исполнителя (группы): France
Аудиокодек: FLAC (*.flac)
Тип рипа: image+.cue
Битрейт аудио: lossless
Продолжительность: 01:00:14
Источник (релизер): alexpika
Наличие сканов в содержимом раздачи: да
Треклист:
01. Milord
02. La Vie En Rose
03. Padam... Padam
04. Les Trois Cloches - featuring Les Compagnons de Chanson
05. C'est L'amour
06. Sous Le Ciel De Paris
07. Mon Dieu
08. Jerusalem
09. Exodus
10. Bravo Pour Le Clown
11. L'accordeoniste
12. Jezebel
13. C'est À Hambourg
14. La Foule
15. Hymne À L'Amour
16. Non, Je Ne Regrette Rien
17. Un Grand Amour Qui S'acheve
18. La Goualante Du Pauvre Jean
Код:
Exact Audio Copy V1.0 beta 3 from 29. August 2011
EAC extraction logfile from 21. April 2017, 5:47
Edith Piaf / Die grossen Erfolge
Used drive  : TSSTcorpCDDVDW SH-216DB   Adapter: 0  ID: 0
Read mode               : Secure
Utilize accurate stream : Yes
Defeat audio cache      : Yes
Make use of C2 pointers : No
Read offset correction                      : 6
Overread into Lead-In and Lead-Out          : No
Fill up missing offset samples with silence : Yes
Delete leading and trailing silent blocks   : No
Null samples used in CRC calculations       : Yes
Used interface                              : Native Win32 interface for Win NT & 2000
Used output format              : User Defined Encoder
Selected bitrate                : 1024 kBit/s
Quality                         : High
Add ID3 tag                     : No
Command line compressor         : C:\Program Files (x86)\Exact Audio Copy\Flac\flac.exe
Additional command line options : -V -8 -T "Date=%year%" -T "Genre=%genre%" %source%
TOC of the extracted CD
     Track |   Start  |  Length  | Start sector | End sector
    ---------------------------------------------------------
        1  |  0:00.00 |  4:33.50 |         0    |    20524
        2  |  4:33.50 |  3:07.03 |     20525    |    34552
        3  |  7:40.53 |  3:20.70 |     34553    |    49622
        4  | 11:01.48 |  4:11.02 |     49623    |    68449
        5  | 15:12.50 |  3:01.73 |     68450    |    82097
        6  | 18:14.48 |  3:26.00 |     82098    |    97547
        7  | 21:40.48 |  3:25.02 |     97548    |   112924
        8  | 25:05.50 |  4:00.70 |    112925    |   130994
        9  | 29:06.45 |  3:33.05 |    130995    |   146974
       10  | 32:39.50 |  3:09.00 |    146975    |   161149
       11  | 35:48.50 |  3:39.73 |    161150    |   177647
       12  | 39:28.48 |  3:10.00 |    177648    |   191897
       13  | 42:38.48 |  3:01.02 |    191898    |   205474
       14  | 45:39.50 |  2:58.70 |    205475    |   218894
       15  | 48:38.45 |  3:29.05 |    218895    |   234574
       16  | 52:07.50 |  2:23.00 |    234575    |   245299
       17  | 54:30.50 |  3:42.00 |    245300    |   261949
       18  | 58:12.50 |  2:02.13 |    261950    |   271112
Range status and errors
Selected range
     Filename L:\Private\My Audio Ripps\ CD - RIPS\Edith Piaf - Die grossen Erfolge\Edith Piaf - Die grossen Erfolge.wav
     Peak level 97.6 %
     Extraction speed 7.3 X
     Range quality 99.9 %
     Test CRC 833003AF
     Copy CRC 833003AF
     Copy OK
No errors occurred
AccurateRip summary
Track  1  accurately ripped (confidence 22)  [73558CFB]  (AR v2)
Track  2  accurately ripped (confidence 22)  [A1FAC865]  (AR v2)
Track  3  accurately ripped (confidence 22)  [01719257]  (AR v2)
Track  4  accurately ripped (confidence 21)  [28E0DCB7]  (AR v2)
Track  5  accurately ripped (confidence 22)  [ACD8E94C]  (AR v2)
Track  6  accurately ripped (confidence 22)  [33177728]  (AR v2)
Track  7  accurately ripped (confidence 22)  [E01A1078]  (AR v2)
Track  8  accurately ripped (confidence 21)  [150C0328]  (AR v2)
Track  9  accurately ripped (confidence 22)  [202F6C5B]  (AR v2)
Track 10  accurately ripped (confidence 22)  [8E9D0FD5]  (AR v2)
Track 11  accurately ripped (confidence 21)  [C48CE208]  (AR v2)
Track 12  accurately ripped (confidence 22)  [6227A4CE]  (AR v2)
Track 13  accurately ripped (confidence 22)  [EE50E96D]  (AR v2)
Track 14  accurately ripped (confidence 22)  [5F4622C3]  (AR v2)
Track 15  accurately ripped (confidence 22)  [051FE0E4]  (AR v2)
Track 16  accurately ripped (confidence 22)  [D9F58BB9]  (AR v2)
Track 17  accurately ripped (confidence 22)  [162D90E4]  (AR v2)
Track 18  accurately ripped (confidence 22)  [A82FD15C]  (AR v2)
All tracks accurately ripped
End of status report
==== Log checksum E0BFC7B32B1CBC41F25D9DEB231CE019AAB863225A758F11ECF995B87716210E ====
Код:
REM GENRE Chanson
REM DATE 1992
REM DISCID EE0E1E12
REM COMMENT "ExactAudioCopy v1.0b3"
PERFORMER "Edith Piaf"
TITLE "Die grossen Erfolge"
FILE "Edith Piaf - Die grossen Erfolge.flac" WAVE
  TRACK 01 AUDIO
    TITLE "Milord"
    PERFORMER "Edith Piaf"
    INDEX 01 00:00:00
  TRACK 02 AUDIO
    TITLE "La vie en rose"
    PERFORMER "Edith Piaf"
    INDEX 00 04:31:05
    INDEX 01 04:33:50
  TRACK 03 AUDIO
    TITLE "Padam...Padam"
    PERFORMER "Edith Piaf"
    INDEX 00 07:38:23
    INDEX 01 07:40:53
  TRACK 04 AUDIO
    TITLE "Les trois cloches"
    PERFORMER "Edith Piaf"
    INDEX 00 10:58:50
    INDEX 01 11:01:48
  TRACK 05 AUDIO
    TITLE "C' est l'amour"
    PERFORMER "Edith Piaf"
    INDEX 00 15:09:53
    INDEX 01 15:12:50
  TRACK 06 AUDIO
    TITLE "Sous le ciel de Paris"
    PERFORMER "Edith Piaf"
    INDEX 00 18:11:68
    INDEX 01 18:14:48
  TRACK 07 AUDIO
    TITLE "Mon dieu"
    PERFORMER "Edith Piaf"
    INDEX 00 21:38:25
    INDEX 01 21:40:48
  TRACK 08 AUDIO
    TITLE "Jerusalem"
    PERFORMER "Edith Piaf"
    INDEX 00 25:03:38
    INDEX 01 25:05:50
  TRACK 09 AUDIO
    TITLE "Exodus"
    PERFORMER "Edith Piaf"
    INDEX 00 29:04:28
    INDEX 01 29:06:45
  TRACK 10 AUDIO
    TITLE "Bravo pour le clown"
    PERFORMER "Edith Piaf"
    INDEX 00 32:37:10
    INDEX 01 32:39:50
  TRACK 11 AUDIO
    TITLE "L' accord.oniste"
    PERFORMER "Edith Piaf"
    INDEX 00 35:45:70
    INDEX 01 35:48:50
  TRACK 12 AUDIO
    TITLE "Jezebel"
    PERFORMER "Edith Piaf"
    INDEX 00 39:25:50
    INDEX 01 39:28:48
  TRACK 13 AUDIO
    TITLE "C' est a Hambourg"
    PERFORMER "Edith Piaf"
    INDEX 00 42:35:40
    INDEX 01 42:38:48
  TRACK 14 AUDIO
    TITLE "La Foule"
    PERFORMER "Edith Piaf"
    INDEX 00 45:37:45
    INDEX 01 45:39:50
  TRACK 15 AUDIO
    TITLE "Hymne a l'amour"
    PERFORMER "Edith Piaf"
    INDEX 00 48:36:20
    INDEX 01 48:38:45
  TRACK 16 AUDIO
    TITLE "Non, je ne regrette rien"
    PERFORMER "Edith Piaf"
    INDEX 00 52:04:53
    INDEX 01 52:07:50
  TRACK 17 AUDIO
    TITLE "Un grand amour qui s'scheye"
    PERFORMER "Edith Piaf"
    INDEX 00 54:28:30
    INDEX 01 54:30:50
  TRACK 18 AUDIO
    TITLE "La goualante du pauvre Jean"
    PERFORMER "Edith Piaf"
    INDEX 00 58:09:70
    INDEX 01 58:12:50
Код:
foobar2000 1.1.10 / Dynamic Range Meter 1.1.1
log date: 2017-05-05 07:14:52
--------------------------------------------------------------------------------
Analyzed: Edith Piaf / Die grossen Erfolge
--------------------------------------------------------------------------------
DR         Peak         RMS     Duration Track
--------------------------------------------------------------------------------
DR10      -0.70 dB   -14.51 dB      4:34 ?-Milord
DR10      -1.97 dB   -14.48 dB      3:07 ?-La vie en rose
DR12      -1.81 dB   -16.54 dB      3:21 ?-Padam...Padam
DR11      -1.30 dB   -15.80 dB      4:11 ?-Les trois cloches
DR13      -0.21 dB   -17.25 dB      3:02 ?-C' est l'amour
DR12      -1.03 dB   -15.85 dB      3:26 ?-Sous le ciel de Paris
DR10      -0.21 dB   -14.49 dB      3:25 ?-Mon dieu
DR12      -0.21 dB   -16.43 dB      4:01 ?-Jerusalem
DR11      -0.21 dB   -15.49 dB      3:33 ?-Exodus
DR11      -0.40 dB   -14.67 dB      3:09 ?-Bravo pour le clown
DR12      -0.76 dB   -16.68 dB      3:40 ?-L' accord.oniste
DR9       -1.08 dB   -14.21 dB      3:10 ?-Jezebel
DR11      -1.37 dB   -15.39 dB      3:01 ?-C' est a Hambourg
DR11      -1.05 dB   -14.52 dB      2:59 ?-La Foule
DR10      -1.02 dB   -13.86 dB      3:29 ?-Hymne a l'amour
DR10      -0.21 dB   -13.43 dB      2:23 ?-Non, je ne regrette rien
DR12      -1.02 dB   -16.85 dB      3:42 ?-Un grand amour qui s'scheye
DR12      -1.62 dB   -15.94 dB      2:02 ?-La goualante du pauvre Jean
--------------------------------------------------------------------------------
Number of tracks:  18
Official DR value: DR11
Samplerate:        44100 Hz
Channels:          2
Bits per sample:   16
Bitrate:           491 kbps
Codec:             FLAC
================================================================================
Правила, инструкции, FAQ!!!
Торрент  Добавлен [01 янв 2020, 22:59] Скачать торрент Магнет ссылка
Скачать торрент
[ Размер 17.9 КБ / Просмотров 0 ]

Статус
Проверен 
 
Размер  216.82 МБ
Приватный: Нет (DHT включён)
.torrent скачан  0
 


     Отправить личное сообщение
   
Страница 1 из 1
Показать сообщения за:  Поле сортировки  
Начать новую тему Ответить на тему


Сейчас этот форум просматривают: нет зарегистрированных пользователей и гости: 0


Вы не можете начинать темы
Вы не можете отвечать на сообщения
Вы не можете редактировать свои сообщения
Вы не можете удалять свои сообщения
Вы не можете добавлять вложения

Перейти:  
cron