Начать новую тему Ответить на тему
Статистика раздачи
Размер: 812.54 МБ | Добавлен: 01 янв 2020, 23:07 | Скачали: 0
Сидеров: 0  [0 байт/сек]    Личеров: 0  [0 байт/сек]
Пред. тема | След. тема 

Автор
Сообщение

СообщениеДобавлено: 01 янв 2020, 23:07 

Ответить с цитатой 

Claude Nougaro / Sa Majesté le Jazz
Жанр: Pop, Chanson
Носитель: CD
Год издания: 2009
Издатель (лейбл): Mercury
Страна исполнителя (группы): Франция
Аудиокодек: FLAC (*.flac)
Тип рипа: tracks+.cue
Битрейт аудио: lossless
Продолжительность: 01:02:47 + 01:11:05 = 02:13:52
Источник (релизер): Louks
Наличие сканов в содержимом раздачи: нет
CD1:
01. Le Jazz Et La Java (2:28)
02. Le Cinéma (3:00)
03. Ouh ! (Allez-Y Les Bergères) (2:43)
04. Le Rouge Et Le Noir (Enseigne Au Nйon) (2:17)
05. Le Paradis (2:39)
06. A La Mode (2:41)
07. L'Eglise (3:36)
08. Regarde-Moi (3:14)
09. Sensuel (3:34)
10. Mon Assassin (3:13)
11. Les Mains D'une Femme Dans La Farine (Gravy Waltz) (2:00)
12. Armstrong (Let My People Go) (3:20)
13. A Bout De Souffle (Blue Rondo A La Turk) (3:03)
14. Côte D'Azur (3:03)
15. Tu Dormiras Longtemps (2:41)
16. Sing Sing Song (Work Song) (2:42)
17. Une Bouteille A La Mer (2:43)
18. La Mutation (2:43)
19. A Tes Seins (Saint Thomas) (2:05)
20. Quatre Boules De Cuir (2:49)
21. La Maоtresse (2:46)
22. La Pluie Fait Des Claquettes (3:27)
CD2:
23. C'est Eddy (3:03)
24. Mater (3:13)
25. Soeur Ame (Sister Salvation) (3:45)
26. Dansez Sur Moi (Girl Talk) (3:23)
27. Gloria (4:38)
28. Comme Une Piaf (Beauty And The Beast) (3:52)
29. Autour De Minuit (Round Midnight) (3:17)
30. E Pericoloso Sporgersi (3:33)
31. Hymne (Con Alma) (2:45)
32. Bilboquet (2:57)
33. Des Gouts Et Des Couleurs (3:50)
34. Ca Fait Mal (I Got It Bad And That Ain't Good) (5:27)
35. Le Chat (The Cat) (2:20)
36. Femme Orchestre (3:24)
37. Bleu Blanc Blues (2:08)
38. Sa Majeste Le Jazz (4:04)
39. Harlem (Sur Les Motifs De Fables Of Faubus) (3:54)
40. Prisonnier Des Nuages (3:51)
41. Faзon Chaplin (3:38)
42. Avec Les Anges (4:03)
Код:
Exact Audio Copy V1.0 beta 3 from 29. August 2011
EAC extraction logfile from 8. April 2016, 16:13
Claude Nougaro / Sa majeste le jazz
Used drive  : ASUS    DRW-2014L1T   Adapter: 3  ID: 0
Read mode               : Secure
Utilize accurate stream : Yes
Defeat audio cache      : Yes
Make use of C2 pointers : No
Read offset correction                      : 6
Overread into Lead-In and Lead-Out          : No
Fill up missing offset samples with silence : Yes
Delete leading and trailing silent blocks   : No
Null samples used in CRC calculations       : Yes
Used interface                              : Native Win32 interface for Win NT & 2000
Gap handling                                : Appended to previous track
Used output format              : User Defined Encoder
Selected bitrate                : 1024 kBit/s
Quality                         : High
Add ID3 tag                     : No
Command line compressor         : C:\Program Files (x86)\Exact Audio Copy\Flac\flac.exe
Additional command line options : -8 -V -T "ARTIST=%artist%" -T "TITLE=%title%" -T "ALBUM=%albumtitle%" -T "DATE=%year%" -T "TRACKNUMBER=%tracknr%" -T "GENRE=%genre%" -T "PERFORMER=%albuminterpret%" -T "COMPOSER=%composer%" %haslyrics%--tag-from-file=LYRICS="%lyricsfile%"%haslyrics% -T "ALBUMARTIST=%albumartist%" -T "DISCNUMBER=%cdnumber%" -T "TOTALDISCS=%totalcds%" -T "TOTALTRACKS=%numtracks%" -T "COMMENT=%comment%" %source% -o %dest%
TOC of the extracted CD
     Track |   Start  |  Length  | Start sector | End sector
    ---------------------------------------------------------
        1  |  0:00.00 |  2:28.47 |         0    |    11146
        2  |  2:28.47 |  3:00.48 |     11147    |    24694
        3  |  5:29.20 |  2:43.53 |     24695    |    36972
        4  |  8:12.73 |  2:17.32 |     36973    |    47279
        5  | 10:30.30 |  2:39.08 |     47280    |    59212
        6  | 13:09.38 |  2:41.21 |     59213    |    71308
        7  | 15:50.59 |  3:36.53 |     71309    |    87561
        8  | 19:27.37 |  3:14.39 |     87562    |   102150
        9  | 22:42.01 |  3:34.43 |    102151    |   118243
       10  | 26:16.44 |  3:13.32 |    118244    |   132750
       11  | 29:30.01 |  2:00.42 |    132751    |   141792
       12  | 31:30.43 |  3:20.05 |    141793    |   156797
       13  | 34:50.48 |  3:03.22 |    156798    |   170544
       14  | 37:53.70 |  3:03.21 |    170545    |   184290
       15  | 40:57.16 |  2:41.71 |    184291    |   196436
       16  | 43:39.12 |  2:42.68 |    196437    |   208654
       17  | 46:22.05 |  2:43.68 |    208655    |   220947
       18  | 49:05.73 |  2:43.22 |    220948    |   233194
       19  | 51:49.20 |  2:05.66 |    233195    |   242635
       20  | 53:55.11 |  2:49.00 |    242636    |   255310
       21  | 56:44.11 |  2:46.30 |    255311    |   267790
       22  | 59:30.41 |  3:27.32 |    267791    |   283347
Track  1
     Filename D:\Telechargements\CDRip Lucas\Claude Nougaro - Sa majeste le jazz (2009) [FLAC]\01 - Le jazz et la java.wav
     Pre-gap length  0:00:02.00
     Peak level 84.0 %
     Extraction speed 4.5 X
     Track quality 100.0 %
     Test CRC 32E15582
     Copy CRC 32E15582
     Accurately ripped (confidence 4)  [D0FC499E]  (AR v2)
     Copy OK
Track  2
     Filename D:\Telechargements\CDRip Lucas\Claude Nougaro - Sa majeste le jazz (2009) [FLAC]\02 - Le cinéma.wav
     Pre-gap length  0:00:02.94
     Peak level 84.0 %
     Extraction speed 5.1 X
     Track quality 100.0 %
     Test CRC CC4CD3E7
     Copy CRC CC4CD3E7
     Accurately ripped (confidence 4)  [E0B1CB9A]  (AR v2)
     Copy OK
Track  3
     Filename D:\Telechargements\CDRip Lucas\Claude Nougaro - Sa majeste le jazz (2009) [FLAC]\03 - Ouh! (Allez-y les bergeres).wav
     Pre-gap length  0:00:02.94
     Peak level 99.8 %
     Extraction speed 5.3 X
     Track quality 100.0 %
     Test CRC 6774D268
     Copy CRC 6774D268
     Accurately ripped (confidence 4)  [65642F75]  (AR v2)
     Copy OK
Track  4
     Filename D:\Telechargements\CDRip Lucas\Claude Nougaro - Sa majeste le jazz (2009) [FLAC]\04 - Le rouge et le noir (Enseigne au néon).wav
     Pre-gap length  0:00:02.94
     Peak level 99.9 %
     Extraction speed 3.8 X
     Track quality 99.9 %
     Test CRC B3135E78
     Copy CRC B3135E78
     Accurately ripped (confidence 4)  [BF08F4EB]  (AR v2)
     Copy OK
Track  5
     Filename D:\Telechargements\CDRip Lucas\Claude Nougaro - Sa majeste le jazz (2009) [FLAC]\05 - Le paradis.wav
     Pre-gap length  0:00:02.96
     Peak level 100.0 %
     Extraction speed 5.9 X
     Track quality 100.0 %
     Test CRC EA644856
     Copy CRC EA644856
     Accurately ripped (confidence 4)  [6BC8D361]  (AR v2)
     Copy OK
Track  6
     Filename D:\Telechargements\CDRip Lucas\Claude Nougaro - Sa majeste le jazz (2009) [FLAC]\06 - A la mode.wav
     Pre-gap length  0:00:02.94
     Peak level 100.0 %
     Extraction speed 6.1 X
     Track quality 100.0 %
     Test CRC 992F5C73
     Copy CRC 992F5C73
     Accurately ripped (confidence 4)  [661D16AD]  (AR v2)
     Copy OK
Track  7
     Filename D:\Telechargements\CDRip Lucas\Claude Nougaro - Sa majeste le jazz (2009) [FLAC]\07 - A l'église.wav
     Pre-gap length  0:00:02.96
     Peak level 100.0 %
     Extraction speed 6.7 X
     Track quality 100.0 %
     Test CRC 37105E98
     Copy CRC 37105E98
     Accurately ripped (confidence 4)  [FE1819CA]  (AR v2)
     Copy OK
Track  8
     Filename D:\Telechargements\CDRip Lucas\Claude Nougaro - Sa majeste le jazz (2009) [FLAC]\08 - Regarde-moi.wav
     Pre-gap length  0:00:02.96
     Peak level 100.0 %
     Extraction speed 4.1 X
     Track quality 99.9 %
     Test CRC E62A0BA7
     Copy CRC E62A0BA7
     Accurately ripped (confidence 4)  [D9C0BE33]  (AR v2)
     Copy OK
Track  9
     Filename D:\Telechargements\CDRip Lucas\Claude Nougaro - Sa majeste le jazz (2009) [FLAC]\09 - Sensuel.wav
     Pre-gap length  0:00:02.94
     Peak level 100.0 %
     Extraction speed 7.3 X
     Track quality 100.0 %
     Test CRC 84E94C5A
     Copy CRC 84E94C5A
     Accurately ripped (confidence 4)  [F5452409]  (AR v2)
     Copy OK
Track 10
     Filename D:\Telechargements\CDRip Lucas\Claude Nougaro - Sa majeste le jazz (2009) [FLAC]\10 - Mon assassin.wav
     Pre-gap length  0:00:02.96
     Peak level 100.0 %
     Extraction speed 7.2 X
     Track quality 100.0 %
     Test CRC 51DBB86D
     Copy CRC 51DBB86D
     Accurately ripped (confidence 4)  [A26951C6]  (AR v2)
     Copy OK
Track 11
     Filename D:\Telechargements\CDRip Lucas\Claude Nougaro - Sa majeste le jazz (2009) [FLAC]\11 - Les mains d'une femme dans la farine (Gravy waltz).wav
     Pre-gap length  0:00:02.96
     Peak level 99.9 %
     Extraction speed 6.5 X
     Track quality 100.0 %
     Test CRC 3574AB12
     Copy CRC 3574AB12
     Accurately ripped (confidence 4)  [DE414651]  (AR v2)
     Copy OK
Track 12
     Filename D:\Telechargements\CDRip Lucas\Claude Nougaro - Sa majeste le jazz (2009) [FLAC]\12 - Armstrong (Let my people go).wav
     Pre-gap length  0:00:02.94
     Peak level 89.0 %
     Extraction speed 7.6 X
     Track quality 100.0 %
     Test CRC 5FE36A6F
     Copy CRC 5FE36A6F
     Accurately ripped (confidence 4)  [903C0F51]  (AR v2)
     Copy OK
Track 13
     Filename D:\Telechargements\CDRip Lucas\Claude Nougaro - Sa majeste le jazz (2009) [FLAC]\13 - A bout de souffle (Blue rondo à la turk).wav
     Pre-gap length  0:00:02.96
     Peak level 100.0 %
     Extraction speed 7.5 X
     Track quality 100.0 %
     Test CRC BBDE5821
     Copy CRC BBDE5821
     Accurately ripped (confidence 4)  [437FF437]  (AR v2)
     Copy OK
Track 14
     Filename D:\Telechargements\CDRip Lucas\Claude Nougaro - Sa majeste le jazz (2009) [FLAC]\14 - Côte d'azur.wav
     Pre-gap length  0:00:02.96
     Peak level 99.9 %
     Extraction speed 5.9 X
     Track quality 99.9 %
     Test CRC C7D34826
     Copy CRC C7D34826
     Accurately ripped (confidence 4)  [BB443E71]  (AR v2)
     Copy OK
Track 15
     Filename D:\Telechargements\CDRip Lucas\Claude Nougaro - Sa majeste le jazz (2009) [FLAC]\15 - Tu dormiras longtemps.wav
     Pre-gap length  0:00:02.96
     Peak level 100.0 %
     Extraction speed 6.5 X
     Track quality 100.0 %
     Test CRC 3CC23CDA
     Copy CRC 3CC23CDA
     Accurately ripped (confidence 4)  [91C5CA94]  (AR v2)
     Copy OK
Track 16
     Filename D:\Telechargements\CDRip Lucas\Claude Nougaro - Sa majeste le jazz (2009) [FLAC]\16 - Sing sing song (Work song).wav
     Pre-gap length  0:00:02.96
     Peak level 100.0 %
     Extraction speed 5.3 X
     Track quality 100.0 %
     Test CRC E7A86FEB
     Copy CRC E7A86FEB
     Accurately ripped (confidence 4)  [EE4E780A]  (AR v2)
     Copy OK
Track 17
     Filename D:\Telechargements\CDRip Lucas\Claude Nougaro - Sa majeste le jazz (2009) [FLAC]\17 - Une bouteille a la mer.wav
     Pre-gap length  0:00:02.96
     Peak level 62.5 %
     Extraction speed 5.7 X
     Track quality 100.0 %
     Test CRC F9062AE6
     Copy CRC F9062AE6
     Accurately ripped (confidence 4)  [ACB54B57]  (AR v2)
     Copy OK
Track 18
     Filename D:\Telechargements\CDRip Lucas\Claude Nougaro - Sa majeste le jazz (2009) [FLAC]\18 - La mutation.wav
     Pre-gap length  0:00:02.96
     Peak level 93.6 %
     Extraction speed 4.9 X
     Track quality 100.0 %
     Test CRC 8EE9A172
     Copy CRC 8EE9A172
     Accurately ripped (confidence 4)  [0E802905]  (AR v2)
     Copy OK
Track 19
     Filename D:\Telechargements\CDRip Lucas\Claude Nougaro - Sa majeste le jazz (2009) [FLAC]\19 - A tes seins (Saint Thomas).wav
     Pre-gap length  0:00:02.96
     Peak level 94.3 %
     Extraction speed 4.4 X
     Track quality 100.0 %
     Test CRC B7F7CD51
     Copy CRC B7F7CD51
     Accurately ripped (confidence 4)  [49DCC36F]  (AR v2)
     Copy OK
Track 20
     Filename D:\Telechargements\CDRip Lucas\Claude Nougaro - Sa majeste le jazz (2009) [FLAC]\20 - Quatre boules de cuir.wav
     Pre-gap length  0:00:02.96
     Peak level 100.0 %
     Extraction speed 4.5 X
     Track quality 99.9 %
     Test CRC 13850F05
     Copy CRC 13850F05
     Accurately ripped (confidence 4)  [9A71A6AA]  (AR v2)
     Copy OK
Track 21
     Filename D:\Telechargements\CDRip Lucas\Claude Nougaro - Sa majeste le jazz (2009) [FLAC]\21 - La maîtresse.wav
     Pre-gap length  0:00:02.96
     Peak level 79.3 %
     Extraction speed 6.2 X
     Track quality 100.0 %
     Test CRC E0D8BDA6
     Copy CRC E0D8BDA6
     Accurately ripped (confidence 4)  [8933F872]  (AR v2)
     Copy OK
Track 22
     Filename D:\Telechargements\CDRip Lucas\Claude Nougaro - Sa majeste le jazz (2009) [FLAC]\22 - La pluie fait des claquettes.wav
     Pre-gap length  0:00:02.94
     Peak level 93.7 %
     Extraction speed 6.3 X
     Track quality 100.0 %
     Test CRC D5AE80E3
     Copy CRC D5AE80E3
     Accurately ripped (confidence 4)  [C4A01CEB]  (AR v2)
     Copy OK
All tracks accurately ripped
No errors occurred
End of status report
---- CUETools DB Plugin V2.1.3
[CTDB TOCID: .b4mAlnHR_ibIjJxX2yIxY5hg4Q-] found, Submit result: .b4mAlnHR_ibIjJxX2yIxY5hg4Q- has been confirmed
[16097b3a] (4/5) Accurately ripped
[8ae69f5b] (1/5) No match
==== Log checksum 11E8E4EB259855F98CBA0F20FE228F66B1E5559371744EB1E820106884760073 ====
Код:
Exact Audio Copy V1.0 beta 3 from 29. August 2011
EAC extraction logfile from 8. April 2016, 17:00
Claude Nougaro / Sa majeste le jazz (CD2)
Used drive  : ASUS    DRW-2014L1T   Adapter: 3  ID: 0
Read mode               : Secure
Utilize accurate stream : Yes
Defeat audio cache      : Yes
Make use of C2 pointers : No
Read offset correction                      : 6
Overread into Lead-In and Lead-Out          : No
Fill up missing offset samples with silence : Yes
Delete leading and trailing silent blocks   : No
Null samples used in CRC calculations       : Yes
Used interface                              : Native Win32 interface for Win NT & 2000
Gap handling                                : Appended to previous track
Used output format              : User Defined Encoder
Selected bitrate                : 1024 kBit/s
Quality                         : High
Add ID3 tag                     : No
Command line compressor         : C:\Program Files (x86)\Exact Audio Copy\Flac\flac.exe
Additional command line options : -8 -V -T "ARTIST=%artist%" -T "TITLE=%title%" -T "ALBUM=%albumtitle%" -T "DATE=%year%" -T "TRACKNUMBER=%tracknr%" -T "GENRE=%genre%" -T "PERFORMER=%albuminterpret%" -T "COMPOSER=%composer%" %haslyrics%--tag-from-file=LYRICS="%lyricsfile%"%haslyrics% -T "ALBUMARTIST=%albumartist%" -T "DISCNUMBER=%cdnumber%" -T "TOTALDISCS=%totalcds%" -T "TOTALTRACKS=%numtracks%" -T "COMMENT=%comment%" %source% -o %dest%
TOC of the extracted CD
     Track |   Start  |  Length  | Start sector | End sector
    ---------------------------------------------------------
        1  |  0:00.00 |  3:03.27 |         0    |    13751
        2  |  3:03.27 |  3:13.08 |     13752    |    28234
        3  |  6:16.35 |  3:45.73 |     28235    |    45182
        4  | 10:02.33 |  3:23.57 |     45183    |    60464
        5  | 13:26.15 |  4:38.19 |     60465    |    81333
        6  | 18:04.34 |  3:52.68 |     81334    |    98801
        7  | 21:57.27 |  3:17.60 |     98802    |   113636
        8  | 25:15.12 |  3:33.11 |    113637    |   129622
        9  | 28:48.23 |  2:45.15 |    129623    |   142012
       10  | 31:33.38 |  2:57.58 |    142013    |   155345
       11  | 34:31.21 |  3:50.19 |    155346    |   172614
       12  | 38:21.40 |  5:27.58 |    172615    |   197197
       13  | 43:49.23 |  2:20.61 |    197198    |   207758
       14  | 46:10.09 |  3:24.02 |    207759    |   223060
       15  | 49:34.11 |  2:08.12 |    223061    |   232672
       16  | 51:42.23 |  4:04.35 |    232673    |   251007
       17  | 55:46.58 |  3:54.15 |    251008    |   268572
       18  | 59:40.73 |  3:51.48 |    268573    |   285945
       19  | 63:32.46 |  3:38.69 |    285946    |   302364
       20  | 67:11.40 |  4:03.49 |    302365    |   320638
Track  1
     Filename D:\Telechargements\CDRip Lucas\Claude Nougaro - Sa majeste le jazz (2009) [FLAC]\CD2\01 - C'est Eddy.wav
     Pre-gap length  0:00:02.00
     Peak level 99.9 %
     Extraction speed 3.3 X
     Track quality 100.0 %
     Test CRC D48C7F9E
     Copy CRC D48C7F9E
     Accurately ripped (confidence 4)  [20906DDB]  (AR v2)
     Copy OK
Track  2
     Filename D:\Telechargements\CDRip Lucas\Claude Nougaro - Sa majeste le jazz (2009) [FLAC]\CD2\02 - Mater.wav
     Pre-gap length  0:00:02.96
     Peak level 100.0 %
     Extraction speed 3.5 X
     Track quality 100.0 %
     Test CRC F70A9569
     Copy CRC F70A9569
     Accurately ripped (confidence 4)  [861D5070]  (AR v2)
     Copy OK
Track  3
     Filename D:\Telechargements\CDRip Lucas\Claude Nougaro - Sa majeste le jazz (2009) [FLAC]\CD2\03 - Soeur âme (Sister salvation).wav
     Pre-gap length  0:00:02.96
     Peak level 93.8 %
     Extraction speed 4.0 X
     Track quality 100.0 %
     Test CRC 64FAE243
     Copy CRC 64FAE243
     Accurately ripped (confidence 4)  [80FDAD29]  (AR v2)
     Copy OK
Track  4
     Filename D:\Telechargements\CDRip Lucas\Claude Nougaro - Sa majeste le jazz (2009) [FLAC]\CD2\04 - Dansez sur moi (Girl talk).wav
     Pre-gap length  0:00:02.78
     Peak level 84.0 %
     Extraction speed 4.1 X
     Track quality 100.0 %
     Test CRC 56375420
     Copy CRC 56375420
     Accurately ripped (confidence 4)  [2F334BFD]  (AR v2)
     Copy OK
Track  5
     Filename D:\Telechargements\CDRip Lucas\Claude Nougaro - Sa majeste le jazz (2009) [FLAC]\CD2\05 - Gloria.wav
     Pre-gap length  0:00:02.96
     Peak level 99.9 %
     Extraction speed 4.5 X
     Track quality 100.0 %
     Test CRC 1C79BE4E
     Copy CRC 1C79BE4E
     Accurately ripped (confidence 4)  [B364D6E4]  (AR v2)
     Copy OK
Track  6
     Filename D:\Telechargements\CDRip Lucas\Claude Nougaro - Sa majeste le jazz (2009) [FLAC]\CD2\06 - Comme une piaf (Beauty and the beast).wav
     Pre-gap length  0:00:02.94
     Peak level 100.0 %
     Extraction speed 4.7 X
     Track quality 100.0 %
     Test CRC E5494225
     Copy CRC E5494225
     Accurately ripped (confidence 4)  [682169EE]  (AR v2)
     Copy OK
Track  7
     Filename D:\Telechargements\CDRip Lucas\Claude Nougaro - Sa majeste le jazz (2009) [FLAC]\CD2\07 - Autour de minuit (Round midnight).wav
     Pre-gap length  0:00:02.94
     Peak level 94.3 %
     Extraction speed 4.8 X
     Track quality 100.0 %
     Test CRC 89EB6980
     Copy CRC 89EB6980
     Accurately ripped (confidence 4)  [F5A4EE68]  (AR v2)
     Copy OK
Track  8
     Filename D:\Telechargements\CDRip Lucas\Claude Nougaro - Sa majeste le jazz (2009) [FLAC]\CD2\08 - E pericoloso sporgersi.wav
     Pre-gap length  0:00:02.96
     Peak level 99.9 %
     Extraction speed 3.3 X
     Track quality 99.9 %
     Test CRC 8C29A727
     Copy CRC 8C29A727
     Accurately ripped (confidence 4)  [0EB8D004]  (AR v2)
     Copy OK
Track  9
     Filename D:\Telechargements\CDRip Lucas\Claude Nougaro - Sa majeste le jazz (2009) [FLAC]\CD2\09 - Hymne (Con alma).wav
     Pre-gap length  0:00:02.96
     Peak level 89.0 %
     Extraction speed 5.0 X
     Track quality 100.0 %
     Test CRC 74A76E8C
     Copy CRC 74A76E8C
     Accurately ripped (confidence 4)  [8E36696E]  (AR v2)
     Copy OK
Track 10
     Filename D:\Telechargements\CDRip Lucas\Claude Nougaro - Sa majeste le jazz (2009) [FLAC]\CD2\10 - Bilboquet.wav
     Pre-gap length  0:00:02.96
     Peak level 84.0 %
     Extraction speed 5.2 X
     Track quality 100.0 %
     Test CRC A7AB2210
     Copy CRC A7AB2210
     Accurately ripped (confidence 4)  [B46C5CCF]  (AR v2)
     Copy OK
Track 11
     Filename D:\Telechargements\CDRip Lucas\Claude Nougaro - Sa majeste le jazz (2009) [FLAC]\CD2\11 - Des goûts et des couleurs.wav
     Pre-gap length  0:00:02.96
     Peak level 100.0 %
     Extraction speed 5.6 X
     Track quality 100.0 %
     Test CRC 3E602B8C
     Copy CRC 3E602B8C
     Accurately ripped (confidence 4)  [1A37C7D0]  (AR v2)
     Copy OK
Track 12
     Filename D:\Telechargements\CDRip Lucas\Claude Nougaro - Sa majeste le jazz (2009) [FLAC]\CD2\12 - Ca fait mal (I got it bad and that ain't good).wav
     Pre-gap length  0:00:02.96
     Peak level 89.0 %
     Extraction speed 6.1 X
     Track quality 100.0 %
     Test CRC B08D7B4F
     Copy CRC B08D7B4F
     Accurately ripped (confidence 4)  [33B2905C]  (AR v2)
     Copy OK
Track 13
     Filename D:\Telechargements\CDRip Lucas\Claude Nougaro - Sa majeste le jazz (2009) [FLAC]\CD2\13 - Le chat (The cat).wav
     Pre-gap length  0:00:02.96
     Peak level 94.3 %
     Extraction speed 5.5 X
     Track quality 100.0 %
     Test CRC C6581F8C
     Copy CRC C6581F8C
     Accurately ripped (confidence 4)  [400E3177]  (AR v2)
     Copy OK
Track 14
     Filename D:\Telechargements\CDRip Lucas\Claude Nougaro - Sa majeste le jazz (2009) [FLAC]\CD2\14 - Femme orchestre.wav
     Pre-gap length  0:00:02.96
     Peak level 99.0 %
     Extraction speed 6.0 X
     Track quality 100.0 %
     Test CRC 59F5CF2C
     Copy CRC 59F5CF2C
     Accurately ripped (confidence 4)  [39F4EA4B]  (AR v2)
     Copy OK
Track 15
     Filename D:\Telechargements\CDRip Lucas\Claude Nougaro - Sa majeste le jazz (2009) [FLAC]\CD2\15 - Bleu blanc blues.wav
     Pre-gap length  0:00:02.96
     Peak level 94.3 %
     Extraction speed 3.5 X
     Track quality 99.9 %
     Test CRC 0C0EBA02
     Copy CRC 0C0EBA02
     Accurately ripped (confidence 4)  [A84CEAFB]  (AR v2)
     Copy OK
Track 16
     Filename D:\Telechargements\CDRip Lucas\Claude Nougaro - Sa majeste le jazz (2009) [FLAC]\CD2\16 - Sa majesté le jazz.wav
     Pre-gap length  0:00:02.96
     Peak level 89.0 %
     Extraction speed 6.5 X
     Track quality 100.0 %
     Test CRC 422165C7
     Copy CRC 422165C7
     Accurately ripped (confidence 4)  [830289B2]  (AR v2)
     Copy OK
Track 17
     Filename D:\Telechargements\CDRip Lucas\Claude Nougaro - Sa majeste le jazz (2009) [FLAC]\CD2\17 - Harlem (sur les motifs de 'fables of faubus').wav
     Pre-gap length  0:00:02.18
     Peak level 89.0 %
     Extraction speed 6.5 X
     Track quality 100.0 %
     Test CRC F5CB55D9
     Copy CRC F5CB55D9
     Accurately ripped (confidence 4)  [C4B6A9FB]  (AR v2)
     Copy OK
Track 18
     Filename D:\Telechargements\CDRip Lucas\Claude Nougaro - Sa majeste le jazz (2009) [FLAC]\CD2\18 - Prisonnier des nuages.wav
     Pre-gap length  0:00:01.56
     Peak level 99.9 %
     Extraction speed 6.6 X
     Track quality 100.0 %
     Test CRC 0136A4F8
     Copy CRC 0136A4F8
     Accurately ripped (confidence 4)  [D4862B57]  (AR v2)
     Copy OK
Track 19
     Filename D:\Telechargements\CDRip Lucas\Claude Nougaro - Sa majeste le jazz (2009) [FLAC]\CD2\19 - Facon Chaplin.wav
     Pre-gap length  0:00:02.96
     Peak level 100.0 %
     Extraction speed 6.7 X
     Track quality 100.0 %
     Test CRC 6A7C92E2
     Copy CRC 6A7C92E2
     Accurately ripped (confidence 4)  [517DE809]  (AR v2)
     Copy OK
Track 20
     Filename D:\Telechargements\CDRip Lucas\Claude Nougaro - Sa majeste le jazz (2009) [FLAC]\CD2\20 - Avec les anges.wav
     Pre-gap length  0:00:02.96
     Peak level 100.0 %
     Extraction speed 6.2 X
     Track quality 100.0 %
     Test CRC 789E7EA4
     Copy CRC 789E7EA4
     Accurately ripped (confidence 4)  [D810FE69]  (AR v2)
     Copy OK
All tracks accurately ripped
No errors occurred
End of status report
---- CUETools DB Plugin V2.1.3
[CTDB TOCID: h5ENHO4Gyz59mEg0NOvBP5yr3cc-] found, Submit result: h5ENHO4Gyz59mEg0NOvBP5yr3cc- has been confirmed
[082ce9c7] (4/5) Accurately ripped
[25c8f44a] (1/5) No match
==== Log checksum 28AC006471EBDAD9354B2271471E58DD69294912DF5A3DADC714F2E6B8088622 ====
Код:
[color=#009933]REM GENRE[/color] Jazz
[color=#009933]REM DATE[/color] 2009
[color=#009933]REM DISCID[/color] 400EC116
[color=#009933]REM COMMENT[/color] "ExactAudioCopy v1.0b3"
[color=#3300CC]PERFORMER[/color] "Claude Nougaro"
[color=#3300CC]TITLE[/color] "Sa majeste le jazz"
[color=#FF0066]FILE[/color] "01 - Le jazz et la java.[color=#0000FF]wav[/color]" [color=#FF0066]WAVE[/color]
  [color=#990099]TRACK[/color] [color=#FF0000]01[/color] [color=#990099]AUDIO[/color]
    [color=#3300CC]TITLE[/color] "Le jazz et la java"
    [color=#3300CC]PERFORMER[/color] "Claude Nougaro"
    [color=#FF8040]INDEX[/color] [color=#FF0000]01[/color] 00:00:00
  [color=#990099]TRACK[/color] [color=#FF0000]02[/color] [color=#990099]AUDIO[/color]
    [color=#3300CC]TITLE[/color] "Le cinéma"
    [color=#3300CC]PERFORMER[/color] "Claude Nougaro"
    [color=#FF8040]INDEX[/color] [color=#FF0000]00[/color] 02:25:51
[color=#FF0066]FILE[/color] "02 - Le cinéma.[color=#0000FF]wav[/color]" [color=#FF0066]WAVE[/color]
    [color=#FF8040]INDEX[/color] [color=#FF0000]01[/color] 00:00:00
  [color=#990099]TRACK[/color] [color=#FF0000]03[/color] [color=#990099]AUDIO[/color]
    [color=#3300CC]TITLE[/color] "Ouh! (Allez-y les bergeres)"
    [color=#3300CC]PERFORMER[/color] "Claude Nougaro"
    [color=#FF8040]INDEX[/color] [color=#FF0000]00[/color] 02:57:52
[color=#FF0066]FILE[/color] "03 - Ouh! (Allez-y les bergeres).[color=#0000FF]wav[/color]" [color=#FF0066]WAVE[/color]
    [color=#FF8040]INDEX[/color] [color=#FF0000]01[/color] 00:00:00
  [color=#990099]TRACK[/color] [color=#FF0000]04[/color] [color=#990099]AUDIO[/color]
    [color=#3300CC]TITLE[/color] "Le rouge et le noir (Enseigne au néon)"
    [color=#3300CC]PERFORMER[/color] "Claude Nougaro"
    [color=#FF8040]INDEX[/color] [color=#FF0000]00[/color] 02:40:57
[color=#FF0066]FILE[/color] "04 - Le rouge et le noir (Enseigne au néon).[color=#0000FF]wav[/color]" [color=#FF0066]WAVE[/color]
    [color=#FF8040]INDEX[/color] [color=#FF0000]01[/color] 00:00:00
  [color=#990099]TRACK[/color] [color=#FF0000]05[/color] [color=#990099]AUDIO[/color]
    [color=#3300CC]TITLE[/color] "Le paradis"
    [color=#3300CC]PERFORMER[/color] "Claude Nougaro"
    [color=#FF8040]INDEX[/color] [color=#FF0000]00[/color] 02:14:35
[color=#FF0066]FILE[/color] "05 - Le paradis.[color=#0000FF]wav[/color]" [color=#FF0066]WAVE[/color]
    [color=#FF8040]INDEX[/color] [color=#FF0000]01[/color] 00:00:00
  [color=#990099]TRACK[/color] [color=#FF0000]06[/color] [color=#990099]AUDIO[/color]
    [color=#3300CC]TITLE[/color] "A la mode"
    [color=#3300CC]PERFORMER[/color] "Claude Nougaro"
    [color=#FF8040]INDEX[/color] [color=#FF0000]00[/color] 02:36:12
[color=#FF0066]FILE[/color] "06 - A la mode.[color=#0000FF]wav[/color]" [color=#FF0066]WAVE[/color]
    [color=#FF8040]INDEX[/color] [color=#FF0000]01[/color] 00:00:00
  [color=#990099]TRACK[/color] [color=#FF0000]07[/color] [color=#990099]AUDIO[/color]
    [color=#3300CC]TITLE[/color] "A l'église"
    [color=#3300CC]PERFORMER[/color] "Claude Nougaro"
    [color=#FF8040]INDEX[/color] [color=#FF0000]00[/color] 02:38:24
[color=#FF0066]FILE[/color] "07 - A l'église.[color=#0000FF]wav[/color]" [color=#FF0066]WAVE[/color]
    [color=#FF8040]INDEX[/color] [color=#FF0000]01[/color] 00:00:00
  [color=#990099]TRACK[/color] [color=#FF0000]08[/color] [color=#990099]AUDIO[/color]
    [color=#3300CC]TITLE[/color] "Regarde-moi"
    [color=#3300CC]PERFORMER[/color] "Claude Nougaro"
    [color=#FF8040]INDEX[/color] [color=#FF0000]00[/color] 03:33:56
[color=#FF0066]FILE[/color] "08 - Regarde-moi.[color=#0000FF]wav[/color]" [color=#FF0066]WAVE[/color]
    [color=#FF8040]INDEX[/color] [color=#FF0000]01[/color] 00:00:00
  [color=#990099]TRACK[/color] [color=#FF0000]09[/color] [color=#990099]AUDIO[/color]
    [color=#3300CC]TITLE[/color] "Sensuel"
    [color=#3300CC]PERFORMER[/color] "Claude Nougaro"
    [color=#FF8040]INDEX[/color] [color=#FF0000]00[/color] 03:11:43
[color=#FF0066]FILE[/color] "09 - Sensuel.[color=#0000FF]wav[/color]" [color=#FF0066]WAVE[/color]
    [color=#FF8040]INDEX[/color] [color=#FF0000]01[/color] 00:00:00
  [color=#990099]TRACK[/color] [color=#FF0000]10[/color] [color=#990099]AUDIO[/color]
    [color=#3300CC]TITLE[/color] "Mon assassin"
    [color=#3300CC]PERFORMER[/color] "Claude Nougaro"
    [color=#FF8040]INDEX[/color] [color=#FF0000]00[/color] 03:31:46
[color=#FF0066]FILE[/color] "10 - Mon assassin.[color=#0000FF]wav[/color]" [color=#FF0066]WAVE[/color]
    [color=#FF8040]INDEX[/color] [color=#FF0000]01[/color] 00:00:00
  [color=#990099]TRACK[/color] [color=#FF0000]11[/color] [color=#990099]AUDIO[/color]
    [color=#3300CC]TITLE[/color] "Les mains d'une femme dans la farine (Gravy waltz)"
    [color=#3300CC]PERFORMER[/color] "Claude Nougaro"
    [color=#FF8040]INDEX[/color] [color=#FF0000]00[/color] 03:10:35
[color=#FF0066]FILE[/color] "11 - Les mains d'une femme dans la farine (Gravy waltz).[color=#0000FF]wav[/color]" [color=#FF0066]WAVE[/color]
    [color=#FF8040]INDEX[/color] [color=#FF0000]01[/color] 00:00:00
  [color=#990099]TRACK[/color] [color=#FF0000]12[/color] [color=#990099]AUDIO[/color]
    [color=#3300CC]TITLE[/color] "Armstrong (Let my people go)"
    [color=#3300CC]PERFORMER[/color] "Claude Nougaro"
    [color=#FF8040]INDEX[/color] [color=#FF0000]00[/color] 01:57:46
[color=#FF0066]FILE[/color] "12 - Armstrong (Let my people go).[color=#0000FF]wav[/color]" [color=#FF0066]WAVE[/color]
    [color=#FF8040]INDEX[/color] [color=#FF0000]01[/color] 00:00:00
  [color=#990099]TRACK[/color] [color=#FF0000]13[/color] [color=#990099]AUDIO[/color]
    [color=#3300CC]TITLE[/color] "A bout de souffle (Blue rondo à la turk)"
    [color=#3300CC]PERFORMER[/color] "Claude Nougaro"
    [color=#FF8040]INDEX[/color] [color=#FF0000]00[/color] 03:17:08
[color=#FF0066]FILE[/color] "13 - A bout de souffle (Blue rondo à la turk).[color=#0000FF]wav[/color]" [color=#FF0066]WAVE[/color]
    [color=#FF8040]INDEX[/color] [color=#FF0000]01[/color] 00:00:00
  [color=#990099]TRACK[/color] [color=#FF0000]14[/color] [color=#990099]AUDIO[/color]
    [color=#3300CC]TITLE[/color] "Côte d'azur"
    [color=#3300CC]PERFORMER[/color] "Claude Nougaro"
    [color=#FF8040]INDEX[/color] [color=#FF0000]00[/color] 03:00:25
[color=#FF0066]FILE[/color] "14 - Côte d'azur.[color=#0000FF]wav[/color]" [color=#FF0066]WAVE[/color]
    [color=#FF8040]INDEX[/color] [color=#FF0000]01[/color] 00:00:00
  [color=#990099]TRACK[/color] [color=#FF0000]15[/color] [color=#990099]AUDIO[/color]
    [color=#3300CC]TITLE[/color] "Tu dormiras longtemps"
    [color=#3300CC]PERFORMER[/color] "Claude Nougaro"
    [color=#FF8040]INDEX[/color] [color=#FF0000]00[/color] 03:00:24
[color=#FF0066]FILE[/color] "15 - Tu dormiras longtemps.[color=#0000FF]wav[/color]" [color=#FF0066]WAVE[/color]
    [color=#FF8040]INDEX[/color] [color=#FF0000]01[/color] 00:00:00
  [color=#990099]TRACK[/color] [color=#FF0000]16[/color] [color=#990099]AUDIO[/color]
    [color=#3300CC]TITLE[/color] "Sing sing song (Work song)"
    [color=#3300CC]PERFORMER[/color] "Claude Nougaro"
    [color=#FF8040]INDEX[/color] [color=#FF0000]00[/color] 02:38:74
[color=#FF0066]FILE[/color] "16 - Sing sing song (Work song).[color=#0000FF]wav[/color]" [color=#FF0066]WAVE[/color]
    [color=#FF8040]INDEX[/color] [color=#FF0000]01[/color] 00:00:00
  [color=#990099]TRACK[/color] [color=#FF0000]17[/color] [color=#990099]AUDIO[/color]
    [color=#3300CC]TITLE[/color] "Une bouteille a la mer"
    [color=#3300CC]PERFORMER[/color] "Claude Nougaro"
    [color=#FF8040]INDEX[/color] [color=#FF0000]00[/color] 02:39:71
[color=#FF0066]FILE[/color] "17 - Une bouteille a la mer.[color=#0000FF]wav[/color]" [color=#FF0066]WAVE[/color]
    [color=#FF8040]INDEX[/color] [color=#FF0000]01[/color] 00:00:00
  [color=#990099]TRACK[/color] [color=#FF0000]18[/color] [color=#990099]AUDIO[/color]
    [color=#3300CC]TITLE[/color] "La mutation"
    [color=#3300CC]PERFORMER[/color] "Claude Nougaro"
    [color=#FF8040]INDEX[/color] [color=#FF0000]00[/color] 02:40:71
[color=#FF0066]FILE[/color] "18 - La mutation.[color=#0000FF]wav[/color]" [color=#FF0066]WAVE[/color]
    [color=#FF8040]INDEX[/color] [color=#FF0000]01[/color] 00:00:00
  [color=#990099]TRACK[/color] [color=#FF0000]19[/color] [color=#990099]AUDIO[/color]
    [color=#3300CC]TITLE[/color] "A tes seins (Saint Thomas)"
    [color=#3300CC]PERFORMER[/color] "Claude Nougaro"
    [color=#FF8040]INDEX[/color] [color=#FF0000]00[/color] 02:40:25
[color=#FF0066]FILE[/color] "19 - A tes seins (Saint Thomas).[color=#0000FF]wav[/color]" [color=#FF0066]WAVE[/color]
    [color=#FF8040]INDEX[/color] [color=#FF0000]01[/color] 00:00:00
  [color=#990099]TRACK[/color] [color=#FF0000]20[/color] [color=#990099]AUDIO[/color]
    [color=#3300CC]TITLE[/color] "Quatre boules de cuir"
    [color=#3300CC]PERFORMER[/color] "Claude Nougaro"
    [color=#FF8040]INDEX[/color] [color=#FF0000]00[/color] 02:02:69
[color=#FF0066]FILE[/color] "20 - Quatre boules de cuir.[color=#0000FF]wav[/color]" [color=#FF0066]WAVE[/color]
    [color=#FF8040]INDEX[/color] [color=#FF0000]01[/color] 00:00:00
  [color=#990099]TRACK[/color] [color=#FF0000]21[/color] [color=#990099]AUDIO[/color]
    [color=#3300CC]TITLE[/color] "La maîtresse"
    [color=#3300CC]PERFORMER[/color] "Claude Nougaro"
    [color=#FF8040]INDEX[/color] [color=#FF0000]00[/color] 02:46:03
[color=#FF0066]FILE[/color] "21 - La maîtresse.[color=#0000FF]wav[/color]" [color=#FF0066]WAVE[/color]
    [color=#FF8040]INDEX[/color] [color=#FF0000]01[/color] 00:00:00
  [color=#990099]TRACK[/color] [color=#FF0000]22[/color] [color=#990099]AUDIO[/color]
    [color=#3300CC]TITLE[/color] "La pluie fait des claquettes"
    [color=#3300CC]PERFORMER[/color] "Claude Nougaro"
    [color=#FF8040]INDEX[/color] [color=#FF0000]00[/color] 02:43:34
[color=#FF0066]FILE[/color] "22 - La pluie fait des claquettes.[color=#0000FF]wav[/color]" [color=#FF0066]WAVE[/color]
    [color=#FF8040]INDEX[/color] [color=#FF0000]01[/color] 00:00:00
Код:
[color=#009933]REM GENRE[/color] Jazz
[color=#009933]REM DATE[/color] 2009
[color=#009933]REM DISCID[/color] 1A10B314
[color=#009933]REM COMMENT[/color] "ExactAudioCopy v1.0b3"
[color=#3300CC]PERFORMER[/color] "Claude Nougaro"
[color=#3300CC]TITLE[/color] "Sa majeste le jazz (CD2)"
[color=#FF0066]FILE[/color] "01 - C'est Eddy.[color=#0000FF]wav[/color]" [color=#FF0066]WAVE[/color]
  [color=#990099]TRACK[/color] [color=#FF0000]01[/color] [color=#990099]AUDIO[/color]
    [color=#3300CC]TITLE[/color] "C'est Eddy"
    [color=#3300CC]PERFORMER[/color] "Claude Nougaro"
    [color=#FF8040]INDEX[/color] [color=#FF0000]01[/color] 00:00:00
  [color=#990099]TRACK[/color] [color=#FF0000]02[/color] [color=#990099]AUDIO[/color]
    [color=#3300CC]TITLE[/color] "Mater"
    [color=#3300CC]PERFORMER[/color] "Claude Nougaro"
    [color=#FF8040]INDEX[/color] [color=#FF0000]00[/color] 03:00:30
[color=#FF0066]FILE[/color] "02 - Mater.[color=#0000FF]wav[/color]" [color=#FF0066]WAVE[/color]
    [color=#FF8040]INDEX[/color] [color=#FF0000]01[/color] 00:00:00
  [color=#990099]TRACK[/color] [color=#FF0000]03[/color] [color=#990099]AUDIO[/color]
    [color=#3300CC]TITLE[/color] "Soeur âme (Sister salvation)"
    [color=#3300CC]PERFORMER[/color] "Claude Nougaro"
    [color=#FF8040]INDEX[/color] [color=#FF0000]00[/color] 03:10:11
[color=#FF0066]FILE[/color] "03 - Soeur âme (Sister salvation).[color=#0000FF]wav[/color]" [color=#FF0066]WAVE[/color]
    [color=#FF8040]INDEX[/color] [color=#FF0000]01[/color] 00:00:00
  [color=#990099]TRACK[/color] [color=#FF0000]04[/color] [color=#990099]AUDIO[/color]
    [color=#3300CC]TITLE[/color] "Dansez sur moi (Girl talk)"
    [color=#3300CC]PERFORMER[/color] "Claude Nougaro"
    [color=#FF8040]INDEX[/color] [color=#FF0000]00[/color] 03:43:14
[color=#FF0066]FILE[/color] "04 - Dansez sur moi (Girl talk).[color=#0000FF]wav[/color]" [color=#FF0066]WAVE[/color]
    [color=#FF8040]INDEX[/color] [color=#FF0000]01[/color] 00:00:00
  [color=#990099]TRACK[/color] [color=#FF0000]05[/color] [color=#990099]AUDIO[/color]
    [color=#3300CC]TITLE[/color] "Gloria"
    [color=#3300CC]PERFORMER[/color] "Claude Nougaro"
    [color=#FF8040]INDEX[/color] [color=#FF0000]00[/color] 03:20:60
[color=#FF0066]FILE[/color] "05 - Gloria.[color=#0000FF]wav[/color]" [color=#FF0066]WAVE[/color]
    [color=#FF8040]INDEX[/color] [color=#FF0000]01[/color] 00:00:00
  [color=#990099]TRACK[/color] [color=#FF0000]06[/color] [color=#990099]AUDIO[/color]
    [color=#3300CC]TITLE[/color] "Comme une piaf (Beauty and the beast)"
    [color=#3300CC]PERFORMER[/color] "Claude Nougaro"
    [color=#FF8040]INDEX[/color] [color=#FF0000]00[/color] 04:35:23
[color=#FF0066]FILE[/color] "06 - Comme une piaf (Beauty and the beast).[color=#0000FF]wav[/color]" [color=#FF0066]WAVE[/color]
    [color=#FF8040]INDEX[/color] [color=#FF0000]01[/color] 00:00:00
  [color=#990099]TRACK[/color] [color=#FF0000]07[/color] [color=#990099]AUDIO[/color]
    [color=#3300CC]TITLE[/color] "Autour de minuit (Round midnight)"
    [color=#3300CC]PERFORMER[/color] "Claude Nougaro"
    [color=#FF8040]INDEX[/color] [color=#FF0000]00[/color] 03:49:72
[color=#FF0066]FILE[/color] "07 - Autour de minuit (Round midnight).[color=#0000FF]wav[/color]" [color=#FF0066]WAVE[/color]
    [color=#FF8040]INDEX[/color] [color=#FF0000]01[/color] 00:00:00
  [color=#990099]TRACK[/color] [color=#FF0000]08[/color] [color=#990099]AUDIO[/color]
    [color=#3300CC]TITLE[/color] "E pericoloso sporgersi"
    [color=#3300CC]PERFORMER[/color] "Claude Nougaro"
    [color=#FF8040]INDEX[/color] [color=#FF0000]00[/color] 03:14:63
[color=#FF0066]FILE[/color] "08 - E pericoloso sporgersi.[color=#0000FF]wav[/color]" [color=#FF0066]WAVE[/color]
    [color=#FF8040]INDEX[/color] [color=#FF0000]01[/color] 00:00:00
  [color=#990099]TRACK[/color] [color=#FF0000]09[/color] [color=#990099]AUDIO[/color]
    [color=#3300CC]TITLE[/color] "Hymne (Con alma)"
    [color=#3300CC]PERFORMER[/color] "Claude Nougaro"
    [color=#FF8040]INDEX[/color] [color=#FF0000]00[/color] 03:30:14
[color=#FF0066]FILE[/color] "09 - Hymne (Con alma).[color=#0000FF]wav[/color]" [color=#FF0066]WAVE[/color]
    [color=#FF8040]INDEX[/color] [color=#FF0000]01[/color] 00:00:00
  [color=#990099]TRACK[/color] [color=#FF0000]10[/color] [color=#990099]AUDIO[/color]
    [color=#3300CC]TITLE[/color] "Bilboquet"
    [color=#3300CC]PERFORMER[/color] "Claude Nougaro"
    [color=#FF8040]INDEX[/color] [color=#FF0000]00[/color] 02:42:18
[color=#FF0066]FILE[/color] "10 - Bilboquet.[color=#0000FF]wav[/color]" [color=#FF0066]WAVE[/color]
    [color=#FF8040]INDEX[/color] [color=#FF0000]01[/color] 00:00:00
  [color=#990099]TRACK[/color] [color=#FF0000]11[/color] [color=#990099]AUDIO[/color]
    [color=#3300CC]TITLE[/color] "Des goûts et des couleurs"
    [color=#3300CC]PERFORMER[/color] "Claude Nougaro"
    [color=#FF8040]INDEX[/color] [color=#FF0000]00[/color] 02:54:61
[color=#FF0066]FILE[/color] "11 - Des goûts et des couleurs.[color=#0000FF]wav[/color]" [color=#FF0066]WAVE[/color]
    [color=#FF8040]INDEX[/color] [color=#FF0000]01[/color] 00:00:00
  [color=#990099]TRACK[/color] [color=#FF0000]12[/color] [color=#990099]AUDIO[/color]
    [color=#3300CC]TITLE[/color] "Ca fait mal (I got it bad and that ain't good)"
    [color=#3300CC]PERFORMER[/color] "Claude Nougaro"
    [color=#FF8040]INDEX[/color] [color=#FF0000]00[/color] 03:47:22
[color=#FF0066]FILE[/color] "12 - Ca fait mal (I got it bad and that ain't good).[color=#0000FF]wav[/color]" [color=#FF0066]WAVE[/color]
    [color=#FF8040]INDEX[/color] [color=#FF0000]01[/color] 00:00:00
  [color=#990099]TRACK[/color] [color=#FF0000]13[/color] [color=#990099]AUDIO[/color]
    [color=#3300CC]TITLE[/color] "Le chat (The cat)"
    [color=#3300CC]PERFORMER[/color] "Claude Nougaro"
    [color=#FF8040]INDEX[/color] [color=#FF0000]00[/color] 05:24:61
[color=#FF0066]FILE[/color] "13 - Le chat (The cat).[color=#0000FF]wav[/color]" [color=#FF0066]WAVE[/color]
    [color=#FF8040]INDEX[/color] [color=#FF0000]01[/color] 00:00:00
  [color=#990099]TRACK[/color] [color=#FF0000]14[/color] [color=#990099]AUDIO[/color]
    [color=#3300CC]TITLE[/color] "Femme orchestre"
    [color=#3300CC]PERFORMER[/color] "Claude Nougaro"
    [color=#FF8040]INDEX[/color] [color=#FF0000]00[/color] 02:17:64
[color=#FF0066]FILE[/color] "14 - Femme orchestre.[color=#0000FF]wav[/color]" [color=#FF0066]WAVE[/color]
    [color=#FF8040]INDEX[/color] [color=#FF0000]01[/color] 00:00:00
  [color=#990099]TRACK[/color] [color=#FF0000]15[/color] [color=#990099]AUDIO[/color]
    [color=#3300CC]TITLE[/color] "Bleu blanc blues"
    [color=#3300CC]PERFORMER[/color] "Claude Nougaro"
    [color=#FF8040]INDEX[/color] [color=#FF0000]00[/color] 03:21:05
[color=#FF0066]FILE[/color] "15 - Bleu blanc blues.[color=#0000FF]wav[/color]" [color=#FF0066]WAVE[/color]
    [color=#FF8040]INDEX[/color] [color=#FF0000]01[/color] 00:00:00
  [color=#990099]TRACK[/color] [color=#FF0000]16[/color] [color=#990099]AUDIO[/color]
    [color=#3300CC]TITLE[/color] "Sa majesté le jazz"
    [color=#3300CC]PERFORMER[/color] "Claude Nougaro"
    [color=#FF8040]INDEX[/color] [color=#FF0000]00[/color] 02:05:15
[color=#FF0066]FILE[/color] "16 - Sa majesté le jazz.[color=#0000FF]wav[/color]" [color=#FF0066]WAVE[/color]
    [color=#FF8040]INDEX[/color] [color=#FF0000]01[/color] 00:00:00
  [color=#990099]TRACK[/color] [color=#FF0000]17[/color] [color=#990099]AUDIO[/color]
    [color=#3300CC]TITLE[/color] "Harlem (sur les motifs de 'fables of faubus')"
    [color=#3300CC]PERFORMER[/color] "Claude Nougaro"
    [color=#FF8040]INDEX[/color] [color=#FF0000]00[/color] 04:02:21
[color=#FF0066]FILE[/color] "17 - Harlem (sur les motifs de 'fables of faubus').[color=#0000FF]wav[/color]" [color=#FF0066]WAVE[/color]
    [color=#FF8040]INDEX[/color] [color=#FF0000]01[/color] 00:00:00
  [color=#990099]TRACK[/color] [color=#FF0000]18[/color] [color=#990099]AUDIO[/color]
    [color=#3300CC]TITLE[/color] "Prisonnier des nuages"
    [color=#3300CC]PERFORMER[/color] "Claude Nougaro"
    [color=#FF8040]INDEX[/color] [color=#FF0000]00[/color] 03:52:48
[color=#FF0066]FILE[/color] "18 - Prisonnier des nuages.[color=#0000FF]wav[/color]" [color=#FF0066]WAVE[/color]
    [color=#FF8040]INDEX[/color] [color=#FF0000]01[/color] 00:00:00
  [color=#990099]TRACK[/color] [color=#FF0000]19[/color] [color=#990099]AUDIO[/color]
    [color=#3300CC]TITLE[/color] "Facon Chaplin"
    [color=#3300CC]PERFORMER[/color] "Claude Nougaro"
    [color=#FF8040]INDEX[/color] [color=#FF0000]00[/color] 03:48:51
[color=#FF0066]FILE[/color] "19 - Facon Chaplin.[color=#0000FF]wav[/color]" [color=#FF0066]WAVE[/color]
    [color=#FF8040]INDEX[/color] [color=#FF0000]01[/color] 00:00:00
  [color=#990099]TRACK[/color] [color=#FF0000]20[/color] [color=#990099]AUDIO[/color]
    [color=#3300CC]TITLE[/color] "Avec les anges"
    [color=#3300CC]PERFORMER[/color] "Claude Nougaro"
    [color=#FF8040]INDEX[/color] [color=#FF0000]00[/color] 03:35:72
[color=#FF0066]FILE[/color] "20 - Avec les anges.[color=#0000FF]wav[/color]" [color=#FF0066]WAVE[/color]
    [color=#FF8040]INDEX[/color] [color=#FF0000]01[/color] 00:00:00
Клод Нугаро появился на свет в Тулузе, 9 сентября 1929 года, в семье певца и пианистки, с детства прививших мальчику любовь к классической музыке. Позже его вниманием завладел французский шансон и американский джаз. В 1947 году юноша начал сотрудничать с двумя изданиями в качестве журналиста («Journal des Curistes» в Виши и алжирским журналом «l'Echo d'Alger»), а после службы в армии переехал в Париж. В начале 50х- Клод пишет тексты к песням других исполнителей, с 1955 года начинает выступать и сам- в кабаре «Le Lapin agile», самом сердце богемного Монмартра. В 1959 году выходит дебютный альбом Нугаро, вслед за релизом которого он отправляется в совместный тур с Далидой. Над второй пластинкой «Une petite fille» Нугаро работал вместе с пианистом и композитором Мишелем Леграном, изданная в 1962 году, она сразу же нашла своего слушателя и очень хорошо продавалась во Франции. В следующих работах музыканта заметно сильное влияние бразильской музыки и американского джаза, миньоны выходили один за другим, в 1968 году был выпущен и первый концертный альбом «Une soirée avec Claude Nougaro» , записанный во время двухнедельных выступлений в «Олимпии» в мае того же года. В первой половине 70-х Нугаро активно гастролировал, как сольно, так и с другими артистами, включая туры с бразильскими музыкантами- гитаристом Баденом Пауэллом и певицей Таньей Марией. Тогда же была основана его собственная продюсерская компания Chiffre Neuf . В 1976 году вышел альбом «Femmes et famine», три года спустя - «Assez». В 80-е певец продолжает много выступать, в том числе с акустическими концертами в небольших залах, записывает пластинки- «Chansons nettes» (81), «Bleu Blanc Blues» (85) , «Nougaro sur scène» (86) и фанк-роковый «Nougayork» (87), работа над которым велась в Нью-Йорке с американскими музыкантами. Диск оказался неожиданно успешным: еще до официального релиза заказы на него сделали 100 тысяч человек. В следующем году Нугаро получил две «Виктории» - как лучший артист года и за лучший альбом. И в 90-е гг. Клод Нугаро не знал покоя, продолжая гастролировать с большими группами и акустическим трио, записывать разноплановые альбомы («Une voix Dix doigts» (91), «Chansong» (93), концертный «Hombre et lumiere» (99)). В 2000 году был издан «Embarquement immédiat», над которым работал аранжировщик Иван Кассар и в котором представлен затейливый микс джаза, кельтской и африканской музыки. После выхода пластинки Нугаро и Кассар с группой музыкантов отправились в турне по Франции, ставшее для ветерана последним, из-за ухудшегося состояния здоровья, он вынужден был прекратить активную гастрольную деятельность и отказаться от многих приглашений. 4 марта 2004 года Клод Нугаро скончался.
Правила, инструкции, FAQ!!!
Торрент  Добавлен [01 янв 2020, 23:07] Скачать торрент Магнет ссылка
Скачать торрент
[ Размер 4.66 КБ / Просмотров 4 ]

Статус
Проверен 
 
Размер  812.54 МБ
Приватный: Нет (DHT включён)
.torrent скачан  0
 


     Отправить личное сообщение
   
Страница 1 из 1
Показать сообщения за:  Поле сортировки  
Начать новую тему Ответить на тему


Сейчас этот форум просматривают: нет зарегистрированных пользователей и гости: 0


Вы не можете начинать темы
Вы не можете отвечать на сообщения
Вы не можете редактировать свои сообщения
Вы не можете удалять свои сообщения
Вы не можете добавлять вложения

Перейти:  
cron