Начать новую тему Ответить на тему
Статистика раздачи
Размер: 225.32 МБ | Добавлен: 01 янв 2020, 22:50 | Скачали: 0
Сидеров: 0  [0 байт/сек]    Личеров: 0  [0 байт/сек]
Пред. тема | След. тема 

Автор
Сообщение

СообщениеДобавлено: 01 янв 2020, 22:50 

Ответить с цитатой 

Charles Aznavour / Entre deux rêves
Жанр: Pop, Chanson
Носитель: WEB
Год издания: 1967/2017
Издатель (лейбл): Universal Music B.V
Страна исполнителя (группы): France
Аудиокодек: FLAC (*.flac)
Тип рипа: tracks
Битрейт аудио: lossless
Продолжительность: 00:33:27
Источник (релизер): 7digital
Наличие сканов в содержимом раздачи: Front
Треклист:
01. Emmenez-moi
02. Eteins la lumière
03. Adieu
04. Un jour
05. Les vertes années
06. Je reviens Fanny
07. Yerushalaim
08. Entre nous
09. J'aimerais
10. Il te faudra bien revenir
11. Au voleur
12. Tout s'en va
Код:
foobar2000 1.1.10 / Dynamic Range Meter 1.1.1
log date: 2018-02-10 18:58:35
--------------------------------------------------------------------------------
Analyzed: Charles Aznavour / Entre deux rêves
--------------------------------------------------------------------------------
DR         Peak         RMS     Duration Track
--------------------------------------------------------------------------------
DR8        0.00 dB    -9.78 dB      3:33 ?-Emmenez-moi
DR9        0.00 dB   -10.61 dB      2:56 ?-Eteins la lumière
DR8        0.00 dB   -10.16 dB      3:34 ?-Adieu
DR9        0.00 dB   -10.57 dB      2:25 ?-Un jour
DR9        0.00 dB   -10.81 dB      2:19 ?-Les vertes années
DR9        0.00 dB    -9.76 dB      2:38 ?-Je reviens Fanny
DR8        0.00 dB    -9.91 dB      2:14 ?-Yerushalaim
DR8        0.00 dB    -9.86 dB      2:36 ?-Entre nous
DR7        0.00 dB    -9.16 dB      2:12 ?-J'aimerais
DR9        0.00 dB   -10.26 dB      2:38 ?-Il te faudra bien revenir
DR8        0.00 dB    -9.24 dB      2:57 ?-Au voleur
DR8        0.00 dB    -9.49 dB      3:25 ?-Tout s'en va
--------------------------------------------------------------------------------
Number of tracks:  12
Official DR value: DR8
Samplerate:        44100 Hz
Channels:          2
Bits per sample:   16
Bitrate:           944 kbps
Codec:             FLAC
================================================================================
Код:
-----------------------
DON'T MODIFY THIS FILE
-----------------------
PERFORMER: auCDtect Task Manager, ver. 1.5.1RC4 build 1.5.1.5
Copyright (c) 2008-2010 y-soft. All rights reserved
[url=http://y-soft.org]http://y-soft.org[/url]
ANALYZER: auCDtect: CD records authenticity detector, version 0.8.2
Copyright (c) 2004 Oleg Berngardt. All rights reserved.
Copyright (c) 2004 Alexander Djourik. All rights reserved.
FILE: 12. Tout s'en va.flac
  Size: 24387168 Hash: BFF8D247D7AB72204F9F1081F79A9F6F Accuracy: -m0
  Conclusion: CDDA 100%
  Signature: CEC581135F0379D7F5EBA549AF40D27FB10CF39D
FILE: 11. Au voleur.flac
  Size: 21450781 Hash: 3BFA2E3A157084ECEA56C653C948FDF0 Accuracy: -m0
  Conclusion: CDDA 100%
  Signature: FA2DA7C20231E276C62C67B7C12A0085CBDD202F
FILE: 10. Il te faudra bien revenir.flac
  Size: 17901585 Hash: EAEAC511B9B202DCDE88F9396432474C Accuracy: -m0
  Conclusion: CDDA 100%
  Signature: 46AE66EF8CD62E2A34A85644E4BBBF218921A560
FILE: 09. J'aimerais.flac
  Size: 16744466 Hash: B7F32121C6D9CC88CB1C6608E06018CE Accuracy: -m0
  Conclusion: CDDA 99%
  Signature: FC2CE6B72D6EC306C4B3C1F723E5C42D4D6F0B7A
FILE: 08. Entre nous.flac
  Size: 18411605 Hash: 84C3E49CA700D878F6B305FEC3E00A10 Accuracy: -m0
  Conclusion: CDDA 100%
  Signature: 982107E90C527F0321AC4430F9FBC4EBD097B1AD
FILE: 07. Yerushalaim.flac
  Size: 15781529 Hash: 38DE366D56BB25324CA38823984858AC Accuracy: -m0
  Conclusion: CDDA 100%
  Signature: F7B42559D5D7958934AFAD636ED56FFF5681CB0C
FILE: 06. Je reviens Fanny.flac
  Size: 19441277 Hash: 2C276FC1D09D31F30DF72912393B4080 Accuracy: -m0
  Conclusion: CDDA 100%
  Signature: FDD5F1ADC1FB1643938D044DC3B87EAF7A8C1CBF
FILE: 05. Les vertes années.flac
  Size: 14923677 Hash: 0B87B2A39EFFC4EEDD02EA1941902918 Accuracy: -m0
  Conclusion: CDDA 100%
  Signature: E2C51BCDA55CADD0AB04F9ACF90FEB29CAD296BA
FILE: 04. Un jour.flac
  Size: 18064267 Hash: FA2C2A8B2A53FDBC1391D1B33D8A3943 Accuracy: -m0
  Conclusion: CDDA 100%
  Signature: C83473413DEEA76E19DDED0F8ADC360F76818496
FILE: 03. Adieu.flac
  Size: 23896358 Hash: 81CEEAAFF1144F8755A6500D80EA03D1 Accuracy: -m0
  Conclusion: CDDA 100%
  Signature: F27DA9ECCBE12C93667519634F882D404DAF96D0
FILE: 02. Eteins la lumière.flac
  Size: 20696326 Hash: 520103A206657BBB97962AAB5BEF834F Accuracy: -m0
  Conclusion: CDDA 100%
  Signature: 7DEB4B8833D78DB8ECDA77A48E81A7B85437F645
FILE: 01. Emmenez-moi.flac
  Size: 24358442 Hash: 52067BF1522AC574E35C1411EE72AD5A Accuracy: -m0
  Conclusion: CDDA 100%
  Signature: CBA53D50E87AC44EADCA636623251B1D9257254D
Правила, инструкции, FAQ!!!
Торрент  Добавлен [01 янв 2020, 22:50] Скачать торрент Магнет ссылка
Скачать торрент
[ Размер 18.8 КБ / Просмотров 3 ]

Статус
Проверен 
 
Размер  225.32 МБ
Приватный: Нет (DHT включён)
.torrent скачан  0
 


     Отправить личное сообщение
   
Страница 1 из 1
Показать сообщения за:  Поле сортировки  
Начать новую тему Ответить на тему


Сейчас этот форум просматривают: нет зарегистрированных пользователей и гости: 0


Вы не можете начинать темы
Вы не можете отвечать на сообщения
Вы не можете редактировать свои сообщения
Вы не можете удалять свои сообщения
Вы не можете добавлять вложения

Перейти:  
cron