Начать новую тему Ответить на тему
Статистика раздачи
Размер: 250.97 МБ | Добавлен: 01 янв 2020, 22:58 | Скачали: 0
Сидеров: 2  [0 байт/сек]    Личеров: 1  [0 байт/сек]
Пред. тема | След. тема 

Автор
Сообщение

СообщениеДобавлено: 01 янв 2020, 22:58 

Ответить с цитатой 

Bertrand Belin
Parcs
Жанр: Pop / Chanson
Носитель: CD
Страна-производитель диска: France
Год издания: 2013
Издатель (лейбл): Cinq7 / Wagram Music
Страна: France
Аудиокодек: FLAC (*.flac)
Тип рипа: tracks
Битрейт аудио: lossless
Продолжительность: 44:01
Источник (релизер): WEB
Наличие сканов в содержимом раздачи: нет
Треклист:
01-01. Comment ça se danse
01-02. Ruine
01-03. Aller sans but
01-04. Un déluge
01-05. Ça va ça va ça va ça va
01-06. Plonge
01-07. Pour un oui pour un non
01-08. Requin
01-09. Peggy
01-10. Sous les pas
01-11. Pauvre grue
01-12. Capucine
Код:
REM GENRE "Pop"
REM DATE 2013
REM COMMENT "=Cinq7 / Wagram Music=                                                                               http://fr.wikipedia.org/wiki/Bertrand_Belin"
PERFORMER "Bertrand Belin"
TITLE "Parcs"
FILE "01-01. Comment ça se danse.flac" WAVE
  TRACK 01 AUDIO
  PERFORMER "Bertrand Belin"
  TITLE "Comment ça se danse"
  INDEX 01 00:00:00
FILE "01-02. Ruine.flac" WAVE
  TRACK 02 AUDIO
  PERFORMER "Bertrand Belin"
  TITLE "Ruine"
  INDEX 01 00:00:00
FILE "01-03. Aller sans but.flac" WAVE
  TRACK 03 AUDIO
  PERFORMER "Bertrand Belin"
  TITLE "Aller sans but"
  INDEX 01 00:00:00
FILE "01-04. Un déluge.flac" WAVE
  TRACK 04 AUDIO
  PERFORMER "Bertrand Belin"
  TITLE "Un déluge"
  INDEX 01 00:00:00
FILE "01-05. Ça va ça va ça va ça va.flac" WAVE
  TRACK 05 AUDIO
  PERFORMER "Bertrand Belin"
  TITLE "Ça va ça va ça va ça va"
  INDEX 01 00:00:00
FILE "01-06. Plonge.flac" WAVE
  TRACK 06 AUDIO
  PERFORMER "Bertrand Belin"
  TITLE "Plonge"
  INDEX 01 00:00:00
FILE "01-07. Pour un oui pour un non.flac" WAVE
  TRACK 07 AUDIO
  PERFORMER "Bertrand Belin"
  TITLE "Pour un oui pour un non"
  INDEX 01 00:00:00
FILE "01-08. Requin.flac" WAVE
  TRACK 08 AUDIO
  PERFORMER "Bertrand Belin"
  TITLE "Requin"
  INDEX 01 00:00:00
FILE "01-09. Peggy.flac" WAVE
  TRACK 09 AUDIO
  PERFORMER "Bertrand Belin"
  TITLE "Peggy"
  INDEX 01 00:00:00
FILE "01-10. Sous les pas.flac" WAVE
  TRACK 10 AUDIO
  PERFORMER "Bertrand Belin"
  TITLE "Sous les pas"
  INDEX 01 00:00:00
FILE "01-11. Pauvre grue.flac" WAVE
  TRACK 11 AUDIO
  PERFORMER "Bertrand Belin"
  TITLE "Pauvre grue"
  INDEX 01 00:00:00
FILE "01-12. Capucine.flac" WAVE
  TRACK 12 AUDIO
  PERFORMER "Bertrand Belin"
  TITLE "Capucine"
  INDEX 01 00:00:00
Код:
AUDIOCHECKER v2.0 beta (build 457) - by Dester - opdester@freemail.hu
~~~~~~~~~~~~~~~~~~~~~~~~~~~~~~~~~~
-=== DO NOT EDIT THIS FILE! ===-
Path: ...\AC
01 -=- 01-01. Comment ca se danse.flac -=- CDDA (100%)
02 -=- 01-02. Ruine.flac -=- CDDA (100%)
03 -=- 01-03. Aller sans but.flac -=- CDDA (100%)
04 -=- 01-04. Un deluge.flac -=- CDDA (100%)
05 -=- 01-05. Ca va ca va ca va ca va.flac -=- CDDA (100%)
06 -=- 01-06. Plonge.flac -=- CDDA (100%)
07 -=- 01-07. Pour un oui pour un non.flac -=- CDDA (100%)
08 -=- 01-08. Requin.flac -=- CDDA (100%)
09 -=- 01-09. Peggy.flac -=- CDDA (99%)
10 -=- 01-10. Sous les pas.flac -=- CDDA (100%)
11 -=- 01-11. Pauvre grue.flac -=- CDDA (100%)
12 -=- 01-12. Capucine.flac -=- CDDA (100%)
Summary 99,92% CDDA
79886948

http://fr.wikipedia.org/wiki/Bertrand_Belin


Правила, инструкции, FAQ!!!
Торрент  Добавлен [01 янв 2020, 22:58] Скачать торрент Магнет ссылка
Скачать торрент
[ Размер 21.13 КБ / Просмотров 4 ]

Статус
Проверен 
 
Размер  250.97 МБ
Приватный: Нет (DHT включён)
.torrent скачан  0
 


     Отправить личное сообщение
   
Страница 1 из 1
Показать сообщения за:  Поле сортировки  
Начать новую тему Ответить на тему


Сейчас этот форум просматривают: нет зарегистрированных пользователей и гости: 0


Вы не можете начинать темы
Вы не можете отвечать на сообщения
Вы не можете редактировать свои сообщения
Вы не можете удалять свои сообщения
Вы не можете добавлять вложения

Перейти:  
cron