Начать новую тему Ответить на тему
Статистика раздачи
Размер: 105.31 МБ | Добавлен: 01 янв 2020, 23:06 | Скачали: 0
Сидеров: 0  [0 байт/сек]    Личеров: 0  [0 байт/сек]
Пред. тема | След. тема 

Автор
Сообщение

СообщениеДобавлено: 01 янв 2020, 23:06 

Ответить с цитатой 

Alain Chamfort & Steve Nieve / Chansons À Quatre Mains

[/spoiler]
Жанр: Pop, Chanson
Носитель: CD [Promo]
Страна-производитель диска: Франция
Издатель (лейбл): Epic
Номер по каталогу: SAMP 1780
Страна исполнителя (группы): Франция, Великобритания
Год издания (переиздания) диска: 1993
Аудио кодек: FLAC
Тип рипа: tracks+.cue
Битрейт аудио: lossless
Продолжительность: 00:21:01
Источник: lonerism
Наличие сканов в содержимом раздачи: CD (web)
https://www.discogs.com/Alain-Chamfort-Steve-Nieve-Chansons-Quatre-Mains/release/1216244
Треклист:
01. J'entends tout [04:47]
02. Chasseur d'ivoire [05:01]
03. L'infidèle [03:30]
04. Sophie et Sapho [03:49]
05. Palais Royal [03:52]

Код:
Exact Audio Copy V1.0 beta 3 from 29. August 2011
EAC extraction logfile from 24. March 2012, 12:41
Alain Chamfort / Chansons A Quatre Mains
Used drive  : HL-DT-STDVD+-RW GA31N   Adapter: 0  ID: 1
Read mode               : Secure
Utilize accurate stream : Yes
Defeat audio cache      : Yes
Make use of C2 pointers : No
Read offset correction                      : 103
Overread into Lead-In and Lead-Out          : No
Fill up missing offset samples with silence : Yes
Delete leading and trailing silent blocks   : No
Null samples used in CRC calculations       : Yes
Used interface                              : Native Win32 interface for Win NT & 2000
Gap handling                                : Appended to previous track
Used output format              : User Defined Encoder
Selected bitrate                : 1024 kBit/s
Quality                         : High
Add ID3 tag                     : No
Command line compressor         : C:\Program Files (x86)\Exact Audio Copy\Flac\flac.exe
Additional command line options : -8 -V -T "ARTIST=%artist%" -T "TITLE=%title%" -T "ALBUM=%albumtitle%" -T "DATE=%year%" -T "TRACKNUMBER=%tracknr%" -T "GENRE=%genre%" -T "PERFORMER=%albuminterpret%" -T "COMPOSER=%composer%" %haslyrics%--tag-from-file=LYRICS="%lyricsfile%"%haslyrics% -T "ALBUMARTIST=%albumartist%" -T "DISCNUMBER=%cdnumber%" -T "TOTALDISCS=%totalcds%" -T "TOTALTRACKS=%numtracks%" -T "COMMENT=%comment%" %source% -o %dest%
TOC of the extracted CD
     Track |   Start  |  Length  | Start sector | End sector
    ---------------------------------------------------------
        1  |  0:00.32 |  4:47.70 |        32    |    21626
        2  |  4:48.27 |  5:01.23 |     21627    |    44224
        3  |  9:49.50 |  3:30.17 |     44225    |    59991
        4  | 13:19.67 |  3:49.33 |     59992    |    77199
        5  | 17:09.25 |  3:52.02 |     77200    |    94601
Track  1
     Filename C:\EAC\01 J'entends tout.wav
     Pre-gap length  0:00:02.42
     Peak level 100.0 %
     Extraction speed 1.3 X
     Track quality 100.0 %
     Test CRC DF19FF10
     Copy CRC DF19FF10
     Track not present in AccurateRip database
     Copy OK
Track  2
     Filename C:\EAC\02 Chasseur d'ivoire.wav
     Pre-gap length  0:00:01.26
     Peak level 85.2 %
     Extraction speed 1.4 X
     Track quality 100.0 %
     Test CRC C79C4741
     Copy CRC C79C4741
     Track not present in AccurateRip database
     Copy OK
Track  3
     Filename C:\EAC\03 L'infid le.wav
     Pre-gap length  0:00:02.00
     Peak level 90.3 %
     Extraction speed 1.5 X
     Track quality 100.0 %
     Test CRC B0EFDE6F
     Copy CRC B0EFDE6F
     Track not present in AccurateRip database
     Copy OK
Track  4
     Filename C:\EAC\04 Sophie et Sapho.wav
     Pre-gap length  0:00:01.13
     Peak level 100.0 %
     Extraction speed 1.6 X
     Track quality 100.0 %
     Test CRC FDE62519
     Copy CRC FDE62519
     Track not present in AccurateRip database
     Copy OK
Track  5
     Filename C:\EAC\05 Palais Royal.wav
     Pre-gap length  0:00:01.57
     Peak level 84.1 %
     Extraction speed 1.7 X
     Track quality 100.0 %
     Test CRC 1FE3FAA7
     Copy CRC 1FE3FAA7
     Track not present in AccurateRip database
     Copy OK
None of the tracks are present in the AccurateRip database
No errors occurred
End of status report
==== Log checksum A8D5853A31CC1C904A6A5B016BBE1F9F4C5DD8731C478B5F77A9B8C962500665 ====
Код:
REM GENRE Other
REM DISCID 2A04ED05
REM COMMENT "ExactAudioCopy v1.0b3"
PERFORMER "Alain Chamfort"
TITLE "Chansons A Quatre Mains"
FILE "01 J'entends tout.wav" WAVE
  TRACK 01 AUDIO
    TITLE "J'entends tout"
    PERFORMER "Alain Chamfort"
    PREGAP 00:00:32
    INDEX 01 00:00:00
  TRACK 02 AUDIO
    TITLE "Chasseur d'ivoire"
    PERFORMER "Alain Chamfort"
    INDEX 00 04:46:50
FILE "02 Chasseur d'ivoire.wav" WAVE
    INDEX 01 00:00:00
  TRACK 03 AUDIO
    TITLE "L'infidèle"
    PERFORMER "Alain Chamfort"
    INDEX 00 04:59:23
FILE "03 L'infidèle.wav" WAVE
    INDEX 01 00:00:00
  TRACK 04 AUDIO
    TITLE "Sophie et Sapho"
    PERFORMER "Alain Chamfort"
    INDEX 00 03:29:07
FILE "04 Sophie et Sapho.wav" WAVE
    INDEX 01 00:00:00
  TRACK 05 AUDIO
    TITLE "Palais Royal"
    PERFORMER "Alain Chamfort"
    INDEX 00 03:47:65
FILE "05 Palais Royal.wav" WAVE
    INDEX 01 00:00:00
Правила, инструкции, FAQ!!!
Торрент  Добавлен [01 янв 2020, 23:06] Скачать торрент Магнет ссылка
Скачать торрент
[ Размер 3.06 КБ / Просмотров 3 ]

Статус
Проверен 
 
Размер  105.31 МБ
Приватный: Нет (DHT включён)
.torrent скачан  0
 


     Отправить личное сообщение
   
Страница 1 из 1
Показать сообщения за:  Поле сортировки  
Начать новую тему Ответить на тему


Сейчас этот форум просматривают: нет зарегистрированных пользователей и гости: 0


Вы не можете начинать темы
Вы не можете отвечать на сообщения
Вы не можете редактировать свои сообщения
Вы не можете удалять свои сообщения
Вы не можете добавлять вложения

Перейти:  
cron
cron