Начать новую тему Ответить на тему
Статистика раздачи
Размер: 205.76 МБ | Добавлен: 01 янв 2020, 22:45 | Скачали: 0
Сидеров: 0  [0 байт/сек]    Личеров: 0  [0 байт/сек]
Пред. тема | След. тема 

Автор
Сообщение

СообщениеДобавлено: 01 янв 2020, 22:45 

Ответить с цитатой 

Deckbar & The Arc-Boys / Kammer EP
Жанр: Pop, Blues, Rock
Носитель: CD
Страна-производитель диска: Germany
Год издания: 2004
Издатель (лейбл): N/A
Номер по каталогу: N/A
Страна: Germany
Аудиокодек: FLAC (*.flac)
Тип рипа: tracks+.cue
Битрейт аудио: lossless
Продолжительность: 00:31:20
Источник (релизер): bought direct from the artist - own rip
Наличие сканов в содержимом раздачи: нет
Треклист:
01 - The Only Girl Who's Darker Than Blue (4:43)
02 - ein paar Klingonen (5:06)
03 - Ich will's nicht wissen (6:08)
04 - Ordinary Bitches (7:21)
05 - Jetzt ist es vorbei (8:00)
Код:
ÿþExact Audio Copy V1.0 beta 3 from 29. August 2011
EAC Auslese-Logdatei vom 21. November 2012, 3:56
Kaleidoscope String Quartet / Magenta
Benutztes Laufwerk : MATSHITADVD-RAM UJ8B0   Adapter: 1  ID: 0
Lesemodus                      : Sicher
Benutze Accurate Stream        : Ja
Audio Puffer abgeschaltet      : Nein
Benutze C2 Fehlerinformationen : Nein
Leseoffset Korrektur                           : 102
Überlesen in das Lead-In und Lead-Out          : Nein
Fülle fehlende Offsetsample mit Stille auf     : Ja
Lösche führende und nachfolgende stille Blöcke : Nein
Null Samples gehen in CRC Berechnungen ein     : Ja
Benutzte Schnittstelle                         : Natürliche Win32 Schnittstelle für Win NT/2000/XP
Benutztes Ausgabeformat            : Benutzerdefinierter Komprimierer
Gewählte Bitrate                   : 1024 kBit/s
Qualität                           : Hoch
Füge ID3 Tag hinzu                 : Ja
Kommandozeilen Komprimierer        : C:\Program Files (x86)\Exact Audio Copy\FLAC\FLAC.EXE
Zusätzliche Kommandozeilenoptionen : -6 -V -T "ARTIST=%artist%" -T "TITLE=%title%" -T "ALBUM=%albumtitle%" -T "DATE=%year%" -T "TRACKNUMBER=%tracknr%" -T "GENRE=%genre%" -T "COMMENT=%comment%" -T "BAND=%albuminterpret%" -T "ALBUMARTIST=%albuminterpret%" -T "COMPOSER=%composer%" %haslyrics%--tag-from-file=LYRICS="%lyricsfile%"%haslyrics% -T "DISCNUMBER=%cdnumber%" -T "TOTALDISCS=%totalcds%" -T "TOTALTRACKS=%numtracks%" %hascover%--picture="%coverfile%"%hascover% %source% -o %dest%
TOC der ausgelesenen CD
     Track |   Start  |   Länge  | Startsektor | Endsektor
    -------------------------------------------------------
        1  |  0:00.00 |  5:37.26 |        0    |   25300
        2  |  5:37.26 |  4:16.14 |    25301    |   44514
        3  |  9:53.40 |  6:56.23 |    44515    |   75737
        4  | 16:49.63 |  7:44.38 |    75738    |  110575
        5  | 24:34.26 |  5:50.60 |   110576    |  136885
        6  | 30:25.11 |  4:13.17 |   136886    |  155877
        7  | 34:38.28 |  4:40.14 |   155878    |  176891
        8  | 39:18.42 |  4:06.25 |   176892    |  195366
        9  | 43:24.67 |  6:36.72 |   195367    |  225138
Bereichsstatus und Fehler
Gewählter Bereich
     Dateiname C:\Users\admin\Desktop\FLAC\Kaleidoscope String Quartet - Magenta (2011)\Kaleidoscope String Quartet - Magenta.wav
     Spitzenpegel 97.8 %
     Auslesegeschwindigkeit 3.0 X
     Bereichsqualität 100.0 %
     Kopie CRC 30E82F3A
     Kopie OK
Keine Fehler aufgetreten
AccurateRip Übersicht
Track  1  nicht in Datenbank enthalten
Track  2  nicht in Datenbank enthalten
Track  3  nicht in Datenbank enthalten
Track  4  nicht in Datenbank enthalten
Track  5  nicht in Datenbank enthalten
Track  6  nicht in Datenbank enthalten
Track  7  nicht in Datenbank enthalten
Track  8  nicht in Datenbank enthalten
Track  9  nicht in Datenbank enthalten
Keiner der Tracks ist in der AccurateRip Datenbank vorhanden
Ende des Statusreports
==== Report Prüfsumme 2D6AE007449C3FCA183C7C3388303D32E4B5ABDE987382B692A9DED99A2174C5 ====
------------------------------------------------------------
Exact Audio Copy V1.0 beta 3 from 29. August 2011
EAC Auslese-Logdatei vom 21. November 2012, 3:56
Kaleidoscope String Quartet / Magenta
Benutztes Laufwerk : MATSHITADVD-RAM UJ8B0   Adapter: 1  ID: 0
Lesemodus                      : Sicher
Benutze Accurate Stream        : Ja
Audio Puffer abgeschaltet      : Nein
Benutze C2 Fehlerinformationen : Nein
Leseoffset Korrektur                           : 102
Überlesen in das Lead-In und Lead-Out          : Nein
Fülle fehlende Offsetsample mit Stille auf     : Ja
Lösche führende und nachfolgende stille Blöcke : Nein
Null Samples gehen in CRC Berechnungen ein     : Ja
Benutzte Schnittstelle                         : Natürliche Win32 Schnittstelle für Win NT/2000/XP
Benutztes Ausgabeformat            : Benutzerdefinierter Komprimierer
Gewählte Bitrate                   : 1024 kBit/s
Qualität                           : Hoch
Füge ID3 Tag hinzu                 : Ja
Kommandozeilen Komprimierer        : C:\Program Files (x86)\Exact Audio Copy\FLAC\FLAC.EXE
Zusätzliche Kommandozeilenoptionen : -6 -V -T "ARTIST=%artist%" -T "TITLE=%title%" -T "ALBUM=%albumtitle%" -T "DATE=%year%" -T "TRACKNUMBER=%tracknr%" -T "GENRE=%genre%" -T "COMMENT=%comment%" -T "BAND=%albuminterpret%" -T "ALBUMARTIST=%albuminterpret%" -T "COMPOSER=%composer%" %haslyrics%--tag-from-file=LYRICS="%lyricsfile%"%haslyrics% -T "DISCNUMBER=%cdnumber%" -T "TOTALDISCS=%totalcds%" -T "TOTALTRACKS=%numtracks%" %hascover%--picture="%coverfile%"%hascover% %source% -o %dest%
TOC der ausgelesenen CD
     Track |   Start  |   Länge  | Startsektor | Endsektor
    -------------------------------------------------------
        1  |  0:00.00 |  5:37.26 |        0    |   25300
        2  |  5:37.26 |  4:16.14 |    25301    |   44514
        3  |  9:53.40 |  6:56.23 |    44515    |   75737
        4  | 16:49.63 |  7:44.38 |    75738    |  110575
        5  | 24:34.26 |  5:50.60 |   110576    |  136885
        6  | 30:25.11 |  4:13.17 |   136886    |  155877
        7  | 34:38.28 |  4:40.14 |   155878    |  176891
        8  | 39:18.42 |  4:06.25 |   176892    |  195366
        9  | 43:24.67 |  6:36.72 |   195367    |  225138
Bereichsstatus und Fehler
Gewählter Bereich
     Dateiname C:\Users\admin\Desktop\FLAC\Kaleidoscope String Quartet - Magenta (2011)\Kaleidoscope String Quartet - Magenta.wav
     Spitzenpegel 97.8 %
     Auslesegeschwindigkeit 3.0 X
     Bereichsqualität 100.0 %
     Kopie CRC 30E82F3A
     Kopie OK
Keine Fehler aufgetreten
AccurateRip Übersicht
Track  1  nicht in Datenbank enthalten
Track  2  nicht in Datenbank enthalten
Track  3  nicht in Datenbank enthalten
Track  4  nicht in Datenbank enthalten
Track  5  nicht in Datenbank enthalten
Track  6  nicht in Datenbank enthalten
Track  7  nicht in Datenbank enthalten
Track  8  nicht in Datenbank enthalten
Track  9  nicht in Datenbank enthalten
Keiner der Tracks ist in der AccurateRip Datenbank vorhanden
Ende des Statusreports
==== Report Prüfsumme 2D6AE007449C3FCA183C7C3388303D32E4B5ABDE987382B692A9DED99A2174C5 ====
Код:
REM GENRE Jazz
REM DATE 2011
REM DISCID 6E0BB909
REM COMMENT "ExactAudioCopy v1.0b3"
PERFORMER "Kaleidoscope String Quartet"
TITLE "Magenta"
FILE "Kaleidoscope String Quartet - Magenta.flac" WAVE
  TRACK 01 AUDIO
    TITLE "Silly Dance"
    PERFORMER "Kaleidoscope String Quartet"
    INDEX 01 00:00:00
  TRACK 02 AUDIO
    TITLE "Groovy"
    PERFORMER "Kaleidoscope String Quartet"
    INDEX 01 05:37:26
  TRACK 03 AUDIO
    TITLE "Naneman"
    PERFORMER "Kaleidoscope String Quartet"
    INDEX 00 09:51:28
    INDEX 01 09:53:40
  TRACK 04 AUDIO
    TITLE "Squeeze"
    PERFORMER "Kaleidoscope String Quartet"
    INDEX 00 16:46:55
    INDEX 01 16:49:63
  TRACK 05 AUDIO
    TITLE "A Long Time Ago"
    PERFORMER "Kaleidoscope String Quartet"
    INDEX 00 16:49:56
    INDEX 01 24:34:26
  TRACK 06 AUDIO
    TITLE "Herbst"
    PERFORMER "Kaleidoscope String Quartet"
    INDEX 00 24:34:19
    INDEX 01 30:25:11
  TRACK 07 AUDIO
    TITLE "Visions"
    PERFORMER "Kaleidoscope String Quartet"
    INDEX 00 30:25:04
    INDEX 01 34:38:28
  TRACK 08 AUDIO
    TITLE "Bad Dream"
    PERFORMER "Kaleidoscope String Quartet"
    INDEX 00 34:38:21
    INDEX 01 39:18:42
  TRACK 09 AUDIO
    TITLE "One Life?"
    PERFORMER "Kaleidoscope String Quartet"
    INDEX 00 39:18:35
    INDEX 01 43:24:67
Правила, инструкции, FAQ!!!
Торрент  Добавлен [01 янв 2020, 22:45] Скачать торрент Магнет ссылка
Скачать торрент
[ Размер 17.05 КБ / Просмотров 0 ]

Статус
Проверен 
 
Размер  205.76 МБ
Приватный: Нет (DHT включён)
.torrent скачан  0
 


     Отправить личное сообщение
   
Страница 1 из 1
Показать сообщения за:  Поле сортировки  
Начать новую тему Ответить на тему


Сейчас этот форум просматривают: нет зарегистрированных пользователей и гости: 0


Вы не можете начинать темы
Вы не можете отвечать на сообщения
Вы не можете редактировать свои сообщения
Вы не можете удалять свои сообщения
Вы не можете добавлять вложения

Перейти:  
cron