Начать новую тему Ответить на тему
Статистика раздачи
Размер: 341.92 МБ | Добавлен: 26 мар 2019, 20:12 | Скачали: 0
Сидеров: 0  [0 байт/сек]    Личеров: 0  [0 байт/сек]
Пред. тема | След. тема 

Автор
Сообщение

СообщениеДобавлено: 26 мар 2019, 20:12 

Ответить с цитатой 

Joan Armatrading - What's Inside
Жанр: Pop, Blues
Страна-производитель диска: Europe
Год издания: 1995
Издатель (лейбл): BMG, RCA
Страна: USA
Аудиокодек: FLAC (*.flac)
Тип рипа: tracks+.cue
Битрейт аудио: lossless
Продолжительность: 50:12
Источник: what.cd
Наличие сканов в содержимом раздачи: есть
1 In Your Eyes
2 Everyday Boy
3 Merchant Of Love
4 Shapes And Sizes
5 Back On The Road
6 Lost The Love
7 Songs
8 Would You Like To Dance
9 Recommend My Love
10 Beyond The Blue
11 Can't Stop Loving You
12 Shape Of A Pony
13 Trouble
Код:
Exact Audio Copy V0.99 prebeta 4 from 23. January 2008
EAC extraction logfile from 20. August 2008, 22:42
Joan Armatrading / What's Inside
Used drive  : PLEXTOR CD-R   PX-240A   Adapter: 3  ID: 1
Read mode               : Secure
Utilize accurate stream : Yes
Defeat audio cache      : Yes
Make use of C2 pointers : No
Read offset correction                      : 6
Overread into Lead-In and Lead-Out          : No
Fill up missing offset samples with silence : Yes
Delete leading and trailing silent blocks   : No
Null samples used in CRC calculations       : Yes
Used interface                              : Installed external ASPI interface
Gap handling                                : Appended to previous track
Used output format : Internal WAV Routines
Sample format      : 44.100 Hz; 16 Bit; Stereo
TOC of the extracted CD
     Track |   Start  |  Length  | Start sector | End sector
    ---------------------------------------------------------
        1  |  0:00.00 |  2:42.07 |         0    |    12156
        2  |  2:42.07 |  4:37.20 |     12157    |    32951
        3  |  7:19.27 |  4:49.28 |     32952    |    54654
        4  | 12:08.55 |  3:15.22 |     54655    |    69301
        5  | 15:24.02 |  2:42.60 |     69302    |    81511
        6  | 18:06.62 |  3:42.68 |     81512    |    98229
        7  | 21:49.55 |  3:49.07 |     98230    |   115411
        8  | 25:38.62 |  4:01.25 |    115412    |   133511
        9  | 29:40.12 |  4:30.00 |    133512    |   153761
       10  | 34:10.12 |  3:52.38 |    153762    |   171199
       11  | 38:02.50 |  3:25.35 |    171200    |   186609
       12  | 41:28.10 |  4:42.67 |    186610    |   207826
       13  | 46:11.02 |  4:06.50 |    207827    |   226326
Track  1
     Filename L:\Torrents\Joan Armatrading - What's Inside - 1995 - FLAC\01 - Joan Armatrading - In Your Eyes.wav
     Pre-gap length  0:00:02.00
     Peak level 97.8 %
     Track quality 100.0 %
     Test CRC C0FCD2D1
     Copy CRC C0FCD2D1
     Copy OK
Track  2
     Filename L:\Torrents\Joan Armatrading - What's Inside - 1995 - FLAC\02 - Joan Armatrading - Everyday Boy.wav
     Pre-gap length  0:00:00.72
     Peak level 98.7 %
     Track quality 99.9 %
     Test CRC DD9D0767
     Copy CRC DD9D0767
     Copy OK
Track  3
     Filename L:\Torrents\Joan Armatrading - What's Inside - 1995 - FLAC\03 - Joan Armatrading - Merchant Of Love.wav
     Pre-gap length  0:00:00.65
     Peak level 98.6 %
     Track quality 100.0 %
     Test CRC E000DC40
     Copy CRC E000DC40
     Copy OK
Track  4
     Filename L:\Torrents\Joan Armatrading - What's Inside - 1995 - FLAC\04 - Joan Armatrading - Shapes And Sizes.wav
     Pre-gap length  0:00:00.60
     Peak level 98.5 %
     Track quality 100.0 %
     Test CRC E1DDCCDA
     Copy CRC E1DDCCDA
     Copy OK
Track  5
     Filename L:\Torrents\Joan Armatrading - What's Inside - 1995 - FLAC\05 - Joan Armatrading - Back On The Road.wav
     Pre-gap length  0:00:01.60
     Peak level 98.4 %
     Track quality 100.0 %
     Test CRC AACDFF68
     Copy CRC AACDFF68
     Copy OK
Track  6
     Filename L:\Torrents\Joan Armatrading - What's Inside - 1995 - FLAC\06 - Joan Armatrading - Lost The Love.wav
     Pre-gap length  0:00:01.27
     Peak level 98.5 %
     Track quality 100.0 %
     Test CRC B0965F61
     Copy CRC B0965F61
     Copy OK
Track  7
     Filename L:\Torrents\Joan Armatrading - What's Inside - 1995 - FLAC\07 - Joan Armatrading - Songs.wav
     Pre-gap length  0:00:00.68
     Peak level 95.7 %
     Track quality 100.0 %
     Test CRC 169242CE
     Copy CRC 169242CE
     Copy OK
Track  8
     Filename L:\Torrents\Joan Armatrading - What's Inside - 1995 - FLAC\08 - Joan Armatrading - Would You Like To Dance.wav
     Pre-gap length  0:00:01.17
     Peak level 100.0 %
     Track quality 100.0 %
     Test CRC 6037FBC4
     Copy CRC 6037FBC4
     Copy OK
Track  9
     Filename L:\Torrents\Joan Armatrading - What's Inside - 1995 - FLAC\09 - Joan Armatrading - Recommend My Love.wav
     Pre-gap length  0:00:01.50
     Peak level 98.6 %
     Track quality 100.0 %
     Test CRC E77723D2
     Copy CRC E77723D2
     Copy OK
Track 10
     Filename L:\Torrents\Joan Armatrading - What's Inside - 1995 - FLAC\10 - Joan Armatrading - Beyond The Blue.wav
     Pre-gap length  0:00:01.15
     Peak level 98.5 %
     Track quality 100.0 %
     Test CRC 1368B144
     Copy CRC 1368B144
     Copy OK
Track 11
     Filename L:\Torrents\Joan Armatrading - What's Inside - 1995 - FLAC\11 - Joan Armatrading - Can't Stop Loving You.wav
     Pre-gap length  0:00:00.23
     Peak level 98.6 %
     Track quality 100.0 %
     Test CRC 74C23141
     Copy CRC 74C23141
     Copy OK
Track 12
     Filename L:\Torrents\Joan Armatrading - What's Inside - 1995 - FLAC\12 - Joan Armatrading - Shape Of A Pony.wav
     Pre-gap length  0:00:00.70
     Peak level 98.6 %
     Track quality 99.9 %
     Test CRC 4977BCC8
     Copy CRC 4977BCC8
     Copy OK
Track 13
     Filename L:\Torrents\Joan Armatrading - What's Inside - 1995 - FLAC\13 - Joan Armatrading - Trouble.wav
     Pre-gap length  0:00:00.37
     Peak level 98.4 %
     Track quality 100.0 %
     Test CRC 32A5E6BB
     Copy CRC 32A5E6BB
     Copy OK
No errors occurred
End of status report
Код:
REM GENRE Rock
REM DATE 1995
REM DISCID 9F0BC90D
REM COMMENT "ExactAudioCopy v0.99pb4"
PERFORMER "Joan Armatrading"
TITLE "What's Inside"
FILE "01 - Joan Armatrading - In Your Eyes.flac" WAVE
  TRACK 01 AUDIO
    TITLE "In Your Eyes"
    PERFORMER "Joan Armatrading"
    INDEX 01 00:00:00
  TRACK 02 AUDIO
    TITLE "Everyday Boy"
    PERFORMER "Joan Armatrading"
    INDEX 00 02:41:10
FILE "02 - Joan Armatrading - Everyday Boy.flac" WAVE
    INDEX 01 00:00:00
  TRACK 03 AUDIO
    TITLE "Merchant Of Love"
    PERFORMER "Joan Armatrading"
    INDEX 00 04:36:30
FILE "03 - Joan Armatrading - Merchant Of Love.flac" WAVE
    INDEX 01 00:00:00
  TRACK 04 AUDIO
    TITLE "Shapes And Sizes"
    PERFORMER "Joan Armatrading"
    INDEX 00 04:48:43
FILE "04 - Joan Armatrading - Shapes And Sizes.flac" WAVE
    INDEX 01 00:00:00
  TRACK 05 AUDIO
    TITLE "Back On The Road"
    PERFORMER "Joan Armatrading"
    INDEX 00 03:13:37
FILE "05 - Joan Armatrading - Back On The Road.flac" WAVE
    INDEX 01 00:00:00
  TRACK 06 AUDIO
    TITLE "Lost The Love"
    PERFORMER "Joan Armatrading"
    INDEX 00 02:41:33
FILE "06 - Joan Armatrading - Lost The Love.flac" WAVE
    INDEX 01 00:00:00
  TRACK 07 AUDIO
    TITLE "Songs"
    PERFORMER "Joan Armatrading"
    INDEX 00 03:42:00
FILE "07 - Joan Armatrading - Songs.flac" WAVE
    INDEX 01 00:00:00
  TRACK 08 AUDIO
    TITLE "Would You Like To Dance"
    PERFORMER "Joan Armatrading"
    INDEX 00 03:47:65
FILE "08 - Joan Armatrading - Would You Like To Dance.flac" WAVE
    INDEX 01 00:00:00
  TRACK 09 AUDIO
    TITLE "Recommend My Love"
    PERFORMER "Joan Armatrading"
    INDEX 00 03:59:50
FILE "09 - Joan Armatrading - Recommend My Love.flac" WAVE
    INDEX 01 00:00:00
  TRACK 10 AUDIO
    TITLE "Beyond The Blue"
    PERFORMER "Joan Armatrading"
    INDEX 00 04:28:60
FILE "10 - Joan Armatrading - Beyond The Blue.flac" WAVE
    INDEX 01 00:00:00
  TRACK 11 AUDIO
    TITLE "Can't Stop Loving You"
    PERFORMER "Joan Armatrading"
    INDEX 00 03:52:15
FILE "11 - Joan Armatrading - Can't Stop Loving You.flac" WAVE
    INDEX 01 00:00:00
  TRACK 12 AUDIO
    TITLE "Shape Of A Pony"
    PERFORMER "Joan Armatrading"
    INDEX 00 03:24:40
FILE "12 - Joan Armatrading - Shape Of A Pony.flac" WAVE
    INDEX 01 00:00:00
  TRACK 13 AUDIO
    TITLE "Trouble"
    PERFORMER "Joan Armatrading"
    INDEX 00 04:42:30
FILE "13 - Joan Armatrading - Trouble.flac" WAVE
    INDEX 01 00:00:00
Правила, инструкции, FAQ!!!
Торрент  Добавлен [26 мар 2019, 20:12] Скачать торрент Магнет ссылка
Скачать торрент
[ Размер 15.6 КБ / Просмотров 5 ]

Статус
Проверен 
 
Размер  341.92 МБ
Приватный: Нет (DHT включён)
.torrent скачан  0
 


     Отправить личное сообщение
   
Страница 1 из 1
Показать сообщения за:  Поле сортировки  
Начать новую тему Ответить на тему


Сейчас этот форум просматривают: нет зарегистрированных пользователей и гости: 0


Вы не можете начинать темы
Вы не можете отвечать на сообщения
Вы не можете редактировать свои сообщения
Вы не можете удалять свои сообщения
Вы не можете добавлять вложения

Перейти:  
cron