Начать новую тему Ответить на тему
Статистика раздачи
Размер: 247.65 МБ | Добавлен: 01 янв 2020, 23:02 | Скачали: 0
Сидеров: 5  [0 байт/сек]    Личеров: 1  [0 байт/сек]
Пред. тема | След. тема 

Автор
Сообщение

СообщениеДобавлено: 01 янв 2020, 23:02 

Ответить с цитатой 

Mireille Mathieu / Una Mujer
Жанр: POP-Ballade
Страна-производитель диска: Испания
Год издания: 1991
Издатель (лейбл): Ariola BMG
Номер по каталогу: 262391 9A
Страна: Франция
Аудиокодек: FLAC (*.flac)
Тип рипа: image+.cue
Битрейт аудио: lossless
Продолжительность: 00:39:16
Источник (релизер): Я сам
Наличие сканов в содержимом раздачи: да
Треклист:
01 - Una mujer
02 - Santa Maria del mar
03 - Mañana
04 - Vivir de sueños
05 - Tres campanas
06 - Tal vez amor (Perhaps Love)
07 - Señor
08 - Inmenso amor
09 - La vie en rose (es,fr)
10 - Viento (La mia canzone al vento)
11 - Gotas de lluvia
Код:
Exact Audio Copy V1.0 beta 3 from 29. August 2011
Отчёт EAC об извлечении, выполненном 19. июля 2012, 21:09
Mireille Mathieu / Una Mujer
Дисковод: HL-DT-STBDDVDRW GGC-H20L   Adapter: 1  ID: 0
Режим чтения                 : Достоверность
Использование точного потока : Да
Отключение кэша аудио        : Да
Использование указателей C2  : Нет
Коррекция смещения при чтении                     : 667
Способность читать области Lead-in и Lead-out     : Нет
Заполнение пропущенных сэмплов тишиной            : Да
Удаление блоков с тишиной в начале и конце        : Нет
При вычислениях CRC использовались нулевые сэмплы : Да
Интерфейс                                         : Встроенный Win32-интерфейс для Win NT/2000
Выходной формат          : Пользовательский кодировщик
Выбранный битрейт        : 128 kBit/s
Качество                 : Высокий
Добавление ID3-тега      : Нет
Утилита сжатия           : C:\Program Files (x86)\Exact Audio Copy\Flac\flac.exe
Дополнительные параметры : -V -8 %source%
TOC извлечённого CD
     Трек |   Старт  | Длительность | Начальный сектор | Конечный сектор
    ---------------------------------------------------------------------
       1  |  0:00.32 |    3:16.38   |          32      |      14769
       2  |  3:16.70 |    3:26.52   |       14770      |      30271
       3  |  6:43.47 |    3:12.43   |       30272      |      44714
       4  |  9:56.15 |    3:52.25   |       44715      |      62139
       5  | 13:48.40 |    5:01.17   |       62140      |      84731
       6  | 18:49.57 |    3:07.08   |       84732      |      98764
       7  | 21:56.65 |    3:17.12   |       98765      |     113551
       8  | 25:14.02 |    4:11.20   |      113552      |     132396
       9  | 29:25.22 |    4:00.38   |      132397      |     150434
      10  | 33:25.60 |    3:01.05   |      150435      |     164014
      11  | 36:26.65 |    2:48.55   |      164015      |     176669
Характеристики диапазона извлечения и сообщения об ошибках
Выбранный диапазон
     Имя файла E:\FTP\PUB\Music\Worldmusic\Mireille Mathieu\1991 - Una Mujer (BMG Ariola ESP CD)\Mireille Mathieu - Una Mujer.wav
     Пиковый уровень 100.0 %
     Скорость извлечения 7.2 X
     Качество диапазона 100.0 %
     CRC теста 3584E1AB
     CRC копии 3584E1AB
     Копирование... OK
Ошибок не произошло
Конец отчёта
Код:
REM GENRE Ballad
REM DATE 1991
REM DISCID 8F09330B
REM COMMENT "ExactAudioCopy v1.0b3"
PERFORMER "Mireille Mathieu"
TITLE "Una Mujer"
FILE "Mireille Mathieu - Una Mujer.flac" WAVE
  TRACK 01 AUDIO
    TITLE "Una Mujer"
    PERFORMER "Mireille Mathieu"
    INDEX 00 00:00:00
    INDEX 01 00:00:32
  TRACK 02 AUDIO
    TITLE "Santa Maria del Mar"
    PERFORMER "Mireille Mathieu"
    INDEX 01 03:16:70
  TRACK 03 AUDIO
    TITLE "Manana"
    PERFORMER "Mireille Mathieu"
    INDEX 01 06:43:47
  TRACK 04 AUDIO
    TITLE "Vivir de Suenos"
    PERFORMER "Mireille Mathieu"
    INDEX 01 09:56:15
  TRACK 05 AUDIO
    TITLE "Tres Campanas"
    PERFORMER "Mireille Mathieu"
    INDEX 00 13:47:65
    INDEX 01 13:48:40
  TRACK 06 AUDIO
    TITLE "Tal Vez Amor"
    PERFORMER "Mireille Mathieu"
    INDEX 01 18:49:57
  TRACK 07 AUDIO
    TITLE "Senor"
    PERFORMER "Mireille Mathieu"
    INDEX 01 21:56:65
  TRACK 08 AUDIO
    TITLE "Inmenso Amor"
    PERFORMER "Mireille Mathieu"
    INDEX 01 25:14:02
  TRACK 09 AUDIO
    TITLE "La Vie en Rose"
    PERFORMER "Mireille Mathieu"
    INDEX 01 29:25:22
  TRACK 10 AUDIO
    TITLE "Viento"
    PERFORMER "Mireille Mathieu"
    INDEX 01 33:25:60
  TRACK 11 AUDIO
    TITLE "Gotas de Lluvia"
    PERFORMER "Mireille Mathieu"
    INDEX 01 36:26:65
Доп. информация: Ну, вот... моя первая раздача компакт-диска.
Всё же решился выложить. Не мог удержаться.
Альбом номерной. Никакая не компиляция.
Песни, что представлены в нём, никуда более не входили.
Рад что имею сей раритет.
Торрент исправлен и перезалит 23.07.2012 в 23:38
Правила, инструкции, FAQ!!!
Торрент  Добавлен [01 янв 2020, 23:02] Скачать торрент Магнет ссылка
Скачать торрент
[ Размер 20.18 КБ / Просмотров 7 ]

Статус
Проверен 
 
Размер  247.65 МБ
Приватный: Нет (DHT включён)
.torrent скачан  0
 


     Отправить личное сообщение
   
Страница 1 из 1
Показать сообщения за:  Поле сортировки  
Начать новую тему Ответить на тему


Сейчас этот форум просматривают: нет зарегистрированных пользователей и гости: 0


Вы не можете начинать темы
Вы не можете отвечать на сообщения
Вы не можете редактировать свои сообщения
Вы не можете удалять свои сообщения
Вы не можете добавлять вложения

Перейти:  
cron