Начать новую тему Ответить на тему
Статистика раздачи
Размер: 268.89 МБ | Добавлен: 26 мар 2019, 20:45 | Скачали: 0
Сидеров: 0  [0 байт/сек]    Личеров: 0  [0 байт/сек]
Пред. тема | След. тема 

Автор
Сообщение

СообщениеДобавлено: 26 мар 2019, 20:45 

Ответить с цитатой 

Alanis Morissette - Alanis
Жанр: Pop
Год выпуска диска: 1991
Производитель диска: Канада
Аудио кодек: APE
Тип рипа: image+.cue
Битрейт аудио: lossless
Продолжительность: 40:44
Источник: ed2K
Трэклист:
01. Feel Your Love (3:49)
02. Too Hot (4:00)
03. Plastic (3:46)
04. Walk Away (4:52)
05. On My Own (4:08)
06. Superman (4:32)
07. Jealous (3:55)
08. Human Touch (3:23)
09. Oh Yeah! (3:59)
10. Party Boy (4:21)
Exact Audio Copy V0.99 prebeta 1 from 25. May 2007
EAC extraction logfile from 11. November 2007, 11:21
Alanis / Alanis
Used drive :BENQ DVD-ROM 16X Adapter: 3 ID: 0
Read mode : Secure
Utilize accurate stream : Yes
Defeat audio cache : Yes
Make use of C2 pointers : No
Read offset correction : 0
Overread into Lead-In and Lead-Out : No
Fill up missing offset samples with silence : Yes
Delete leading and trailing silent blocks : No
Used interface : Native Win32 interface for Win NT & 2000
Used output format : Monkey's Audio Lossless Encoder v3.99 DLL
Sample format : Normal Lossless Compression
TOC of the extracted CD
Track | Start | Length | Start sector | End sector
--------------------------------------------------
1 | 0:00.00 | 3:49.15 | 0 | 17189
2 | 3:49.15 | 4:00.17 | 17190 | 35206
3 | 7:49.32 | 3:45.50 | 35207 | 52131
4 | 11:35.07 | 4:51.43 | 52132 | 73999
5 | 16:26.50 | 4:08.25 | 74000 | 92624
6 | 20:35.00 | 4:32.30 | 92625 | 113054
7 | 25:07.30 | 3:54.67 | 113055 | 130671
8 | 29:02.22 | 3:22.53 | 130672 | 145874
9 | 32:25.00 | 3:59.00 | 145875 | 163799
10 | 36:24.00 | 4:20.42 | 163800 | 183341
Range status and errors
Selected range
Filename D:\1\Alanis - Alanis.ape
Peak level 100.0 %
Range quality 100.0 %
Copy CRC DC4F4F0A
Copy OK
No errors occurred
End of status report
Правила, инструкции, FAQ!!!
Торрент  Добавлен [26 мар 2019, 20:45] Скачать торрент Магнет ссылка
Скачать торрент
[ Размер 22.13 КБ / Просмотров 5 ]

Статус
Проверен 
 
Размер  268.89 МБ
Приватный: Нет (DHT включён)
.torrent скачан  0
 


     Отправить личное сообщение
   
Страница 1 из 1
Показать сообщения за:  Поле сортировки  
Начать новую тему Ответить на тему


Сейчас этот форум просматривают: нет зарегистрированных пользователей и гости: 0


Вы не можете начинать темы
Вы не можете отвечать на сообщения
Вы не можете редактировать свои сообщения
Вы не можете удалять свои сообщения
Вы не можете добавлять вложения

Перейти:  
cron