Начать новую тему Ответить на тему
Статистика раздачи
Размер: 345.71 МБ | Добавлен: 26 мар 2019, 19:18 | Скачали: 0
Сидеров: 0  [0 байт/сек]    Личеров: 0  [0 байт/сек]
Пред. тема | След. тема 

Автор
Сообщение

СообщениеДобавлено: 26 мар 2019, 19:18 

Ответить с цитатой 

Cypress City / Shake That Fess
Жанр: Polka, country, pop-rock, zydeco
Страна-производитель диска: USA
Год издания: 2005
Издатель (лейбл): Jin Records
Номер по каталогу: JIN-9080
Страна: USA
Аудиокодек: FLAC (*.flac)
Тип рипа: tracks+.cue
Битрейт аудио: lossless
Продолжительность: 0:48:57
Источник (релизер): clustert
Наличие сканов в содержимом раздачи: да
Треклист:
01. Shake That Fess [0:03:53.18]
02. Little Bird [0:04:23.70]
03. Crawfish Man [0:02:45.28]
04. My Baby's Gone [0:04:21.37]
05. I Want Some Couche-Couche [0:03:30.74]
06. Let It Pour [0:03:16.44]
07. What Would I Do [0:03:52.68]
08. Hot Boudin [0:02:32.21]
09. My Toot Toot [0:03:24.61]
10. Marie Laveau [0:03:02.04]
11. Cypress City [0:02:24.57]
12. Raindrops In Heaven [0:05:13.69]
13. Double Shot Of My Baby's Love [0:02:24.36]
14. Cajun Rap Song [0:03:50.34]
Код:
Exact Audio Copy V1.0 beta 3 from 29. August 2011
Отчёт EAC об извлечении, выполненном 23. июля 2014, 22:14
Cypress City / Shake That Fess
Дисковод: ASUS    DRW-1814BLT   Adapter: 4  ID: 0
Режим чтения                 : Достоверность
Использование точного потока : Да
Отключение кэша аудио        : Да
Использование указателей C2  : Нет
Коррекция смещения при чтении                     : 6
Способность читать области Lead-in и Lead-out     : Нет
Заполнение пропущенных сэмплов тишиной            : Да
Удаление блоков с тишиной в начале и конце        : Нет
При вычислениях CRC использовались нулевые сэмплы : Да
Интерфейс                                         : Встроенный Win32-интерфейс для Win NT/2000
Обработка зазоров                                 : Добавлено к предыдущему треку
Выходной формат          : Пользовательский кодировщик
Выбранный битрейт        : 128 kBit/s
Качество                 : Высокий
Добавление ID3-тега      : Нет
Утилита сжатия           : C:\Program Files\Exact Audio Copy\Flac\flac.exe
Дополнительные параметры :  -V -8 -T "Genre=%genre%" -T "Artist=%artist%" -T "Title=%title%" -T "Album=%albumtitle%" -T "Date=%year%" -T "Tracknumber=%tracknr%" -T "Comment=EAC1.0b2 FLAC -8" %source%
TOC извлечённого CD
     Трек |   Старт  | Длительность | Начальный сектор | Конечный сектор
    ---------------------------------------------------------------------
       1  |  0:00.00 |    3:53.18   |           0      |      17492
       2  |  3:53.18 |    4:23.70   |       17493      |      37287
       3  |  8:17.13 |    2:45.28   |       37288      |      49690
       4  | 11:02.41 |    4:21.37   |       49691      |      69302
       5  | 15:24.03 |    3:30.74   |       69303      |      85126
       6  | 18:55.02 |    3:16.44   |       85127      |      99870
       7  | 22:11.46 |    3:52.68   |       99871      |     117338
       8  | 26:04.39 |    2:32.21   |      117339      |     128759
       9  | 28:36.60 |    3:24.61   |      128760      |     144120
      10  | 32:01.46 |    3:02.04   |      144121      |     157774
      11  | 35:03.50 |    2:24.57   |      157775      |     168631
      12  | 37:28.32 |    5:13.69   |      168632      |     192175
      13  | 42:42.26 |    2:24.36   |      192176      |     203011
      14  | 45:06.62 |    3:50.34   |      203012      |     220295
Трек  1
     Имя файла R:\Раздача 20\Cypress City - 2005 - Shake That Fess\01 Shake That Fess.wav
     Длина предзазора  0:00:02.00
     Пиковый уровень 98.8 %
     Скорость извлечения 4.2 X
     Качество трека 100.0 %
     CRC теста D6C7AB2D
     CRC копии D6C7AB2D
     Копирование... OK
Трек  2
     Имя файла R:\Раздача 20\Cypress City - 2005 - Shake That Fess\02 Little Bird.wav
     Длина предзазора  0:00:02.00
     Пиковый уровень 98.8 %
     Скорость извлечения 4.3 X
     Качество трека 99.9 %
     CRC теста 325DB7C4
     CRC копии 325DB7C4
     Копирование... OK
Трек  3
     Имя файла R:\Раздача 20\Cypress City - 2005 - Shake That Fess\03 Crawfish Man.wav
     Длина предзазора  0:00:02.00
     Пиковый уровень 98.8 %
     Скорость извлечения 4.7 X
     Качество трека 100.0 %
     CRC теста 09C4A303
     CRC копии 09C4A303
     Копирование... OK
Трек  4
     Имя файла R:\Раздача 20\Cypress City - 2005 - Shake That Fess\04 My Baby's Gone.wav
     Длина предзазора  0:00:02.00
     Пиковый уровень 98.8 %
     Скорость извлечения 5.5 X
     Качество трека 100.0 %
     CRC теста 88143251
     CRC копии 88143251
     Копирование... OK
Трек  5
     Имя файла R:\Раздача 20\Cypress City - 2005 - Shake That Fess\05 I Want Some Couche-Couche.wav
     Длина предзазора  0:00:02.00
     Пиковый уровень 98.8 %
     Скорость извлечения 5.7 X
     Качество трека 100.0 %
     CRC теста FB8E4FF8
     CRC копии FB8E4FF8
     Копирование... OK
Трек  6
     Имя файла R:\Раздача 20\Cypress City - 2005 - Shake That Fess\06 Let It Pour.wav
     Длина предзазора  0:00:02.00
     Пиковый уровень 98.8 %
     Скорость извлечения 5.9 X
     Качество трека 100.0 %
     CRC теста 9709B4C5
     CRC копии 9709B4C5
     Копирование... OK
Трек  7
     Имя файла R:\Раздача 20\Cypress City - 2005 - Shake That Fess\07 What Would I Do.wav
     Длина предзазора  0:00:02.00
     Пиковый уровень 98.8 %
     Скорость извлечения 6.3 X
     Качество трека 100.0 %
     CRC теста 9F685EF3
     CRC копии 9F685EF3
     Копирование... OK
Трек  8
     Имя файла R:\Раздача 20\Cypress City - 2005 - Shake That Fess\08 Hot Boudin.wav
     Длина предзазора  0:00:02.00
     Пиковый уровень 98.8 %
     Скорость извлечения 6.1 X
     Качество трека 100.0 %
     CRC теста 17811922
     CRC копии 17811922
     Копирование... OK
Трек  9
     Имя файла R:\Раздача 20\Cypress City - 2005 - Shake That Fess\09 My Toot Toot.wav
     Длина предзазора  0:00:02.00
     Пиковый уровень 100.0 %
     Скорость извлечения 5.8 X
     Качество трека 99.9 %
     CRC теста 0DD9B645
     CRC копии 0DD9B645
     Копирование... OK
Трек 10
     Имя файла R:\Раздача 20\Cypress City - 2005 - Shake That Fess\10 Marie Laveau.wav
     Длина предзазора  0:00:02.00
     Пиковый уровень 98.8 %
     Скорость извлечения 6.7 X
     Качество трека 100.0 %
     CRC теста 0B929E31
     CRC копии 0B929E31
     Копирование... OK
Трек 11
     Имя файла R:\Раздача 20\Cypress City - 2005 - Shake That Fess\11 Cypress City.wav
     Длина предзазора  0:00:02.00
     Пиковый уровень 98.8 %
     Скорость извлечения 5.5 X
     Качество трека 99.9 %
     CRC теста E8F933B4
     CRC копии E8F933B4
     Копирование... OK
Трек 12
     Имя файла R:\Раздача 20\Cypress City - 2005 - Shake That Fess\12 Raindrops In Heaven.wav
     Длина предзазора  0:00:02.00
     Пиковый уровень 100.0 %
     Скорость извлечения 7.7 X
     Качество трека 100.0 %
     CRC теста 41647F90
     CRC копии 41647F90
     Копирование... OK
Трек 13
     Имя файла R:\Раздача 20\Cypress City - 2005 - Shake That Fess\13 Double Shot Of My Baby's Love.wav
     Длина предзазора  0:00:02.00
     Пиковый уровень 98.8 %
     Скорость извлечения 7.0 X
     Качество трека 100.0 %
     CRC теста F61D0309
     CRC копии F61D0309
     Копирование... OK
Трек 14
     Имя файла R:\Раздача 20\Cypress City - 2005 - Shake That Fess\14 Cajun Rap Song.wav
     Длина предзазора  0:00:02.00
     Пиковый уровень 98.8 %
     Скорость извлечения 7.7 X
     Качество трека 100.0 %
     CRC теста 79A3996A
     CRC копии 79A3996A
     Копирование... OK
Ошибок не произошло
Конец отчёта
==== Контрольная сумма отчёта 7080218AA7554D6FA825CD9E36ADFCFEA709311B402FCE710B0B47CBBA768F0D ====
Код:
REM GENRE Polka
REM DATE 2005
REM DISCID BE0B790E
REM COMMENT "ExactAudioCopy v1.0b3"
CATALOG 0046346908020
PERFORMER "Cypress City"
TITLE "Shake That Fess"
FILE "01 Shake That Fess.wav" WAVE
  TRACK 01 AUDIO
    TITLE "Shake That Fess"
    PERFORMER "Cypress City"
    ISRC H20[60501280
    INDEX 01 00:00:00
  TRACK 02 AUDIO
    TITLE "Little Bird"
    PERFORMER "Cypress City"
    ISRC H20[60501281
    INDEX 00 03:51:18
FILE "02 Little Bird.wav" WAVE
    INDEX 01 00:00:00
  TRACK 03 AUDIO
    TITLE "Crawfish Man"
    PERFORMER "Cypress City"
    ISRC H20[60501282
    INDEX 00 04:21:70
FILE "03 Crawfish Man.wav" WAVE
    INDEX 01 00:00:00
  TRACK 04 AUDIO
    TITLE "My Baby's Gone"
    PERFORMER "Cypress City"
    ISRC H20[60501283
    INDEX 00 02:43:28
FILE "04 My Baby's Gone.wav" WAVE
    INDEX 01 00:00:00
  TRACK 05 AUDIO
    TITLE "I Want Some Couche-Couche"
    PERFORMER "Cypress City"
    ISRC H20[60501284
    INDEX 00 04:19:37
FILE "05 I Want Some Couche-Couche.wav" WAVE
    INDEX 01 00:00:00
  TRACK 06 AUDIO
    TITLE "Let It Pour"
    PERFORMER "Cypress City"
    ISRC H20[60501285
    INDEX 00 03:28:74
FILE "06 Let It Pour.wav" WAVE
    INDEX 01 00:00:00
  TRACK 07 AUDIO
    TITLE "What Would I Do"
    PERFORMER "Cypress City"
    ISRC H20[60501286
    INDEX 00 03:14:44
FILE "07 What Would I Do.wav" WAVE
    INDEX 01 00:00:00
  TRACK 08 AUDIO
    TITLE "Hot Boudin"
    PERFORMER "Cypress City"
    ISRC H20[60501287
    INDEX 00 03:50:68
FILE "08 Hot Boudin.wav" WAVE
    INDEX 01 00:00:00
  TRACK 09 AUDIO
    TITLE "My Toot Toot"
    PERFORMER "Cypress City"
    ISRC H20[60501288
    INDEX 00 02:30:21
FILE "09 My Toot Toot.wav" WAVE
    INDEX 01 00:00:00
  TRACK 10 AUDIO
    TITLE "Marie Laveau"
    PERFORMER "Cypress City"
    ISRC H20[60501289
    INDEX 00 03:22:61
FILE "10 Marie Laveau.wav" WAVE
    INDEX 01 00:00:00
  TRACK 11 AUDIO
    TITLE "Cypress City"
    PERFORMER "Cypress City"
    ISRC H20[60501290
    INDEX 00 03:00:04
FILE "11 Cypress City.wav" WAVE
    INDEX 01 00:00:00
  TRACK 12 AUDIO
    TITLE "Raindrops In Heaven"
    PERFORMER "Cypress City"
    ISRC H20[60501291
    INDEX 00 02:22:57
FILE "12 Raindrops In Heaven.wav" WAVE
    INDEX 01 00:00:00
  TRACK 13 AUDIO
    TITLE "Double Shot Of My Baby's Love"
    PERFORMER "Cypress City"
    ISRC H20[60501292
    INDEX 00 05:11:69
FILE "13 Double Shot Of My Baby's Love.wav" WAVE
    INDEX 01 00:00:00
  TRACK 14 AUDIO
    TITLE "Cajun Rap Song"
    PERFORMER "Cypress City"
    ISRC H20[60501293
    INDEX 00 02:22:36
FILE "14 Cajun Rap Song.wav" WAVE
    INDEX 01 00:00:00
Правила, инструкции, FAQ!!!
Торрент  Добавлен [26 мар 2019, 19:18] Скачать торрент Магнет ссылка
Скачать торрент
[ Размер 15.3 КБ / Просмотров 2 ]

Статус
Проверен 
 
Размер  345.71 МБ
Приватный: Нет (DHT включён)
.torrent скачан  0
 


     Отправить личное сообщение
   
Страница 1 из 1
Показать сообщения за:  Поле сортировки  
Начать новую тему Ответить на тему


Сейчас этот форум просматривают: нет зарегистрированных пользователей и гости: 0


Вы не можете начинать темы
Вы не можете отвечать на сообщения
Вы не можете редактировать свои сообщения
Вы не можете удалять свои сообщения
Вы не можете добавлять вложения

Перейти:  
cron