Начать новую тему Ответить на тему
Статистика раздачи
Размер: 2.83 ГБ | Добавлен: 25 июл 2020, 09:22 | Скачали: 0
Сидеров: 3  [0 байт/сек]    Личеров: 1  [0 байт/сек]
Пред. тема | След. тема 

Автор
Сообщение

СообщениеДобавлено: 25 июл 2020, 09:22 

Ответить с цитатой 

А. Петров - Сотворение мира
Большой театр Беларуси
Год выпуска: 2020
Страна-производитель: Беларусь
Жанр: ballet, балет
Продолжительность: 01:27:59
Режиссер-постановщик: Валентин Елизарьев
Исполнители:
Адам – Константин Героник
Ева – Ирина Еромкина
Бог – Игорь Оношко
Дьявол – Таро Курачи
Описание: Запись новой авторской редакции Валентина Елизарьева, выполненная 27 марта 2020 года.
«…Сотворение мира – дело рук человека и его разума. Сам человек творит в мире добро и зло. И только от людей зависит, что будет торжествовать на земле: гармония и свет или хаос и тьма». Эти слова предпослал композитор Андрей Петров своей партитуре.
Вместе с автором музыки хореограф народный артист БССР, народный артист СССР Валентин Елизарьев, художник Евгений Лысык, дирижер Л. Лях и исполнители балета обращаются к нам, вторгаются в наше существование с вечными и всегда беспокойными мыслями о цели человеческой жизни, о праве человека на счастье, о служении людям.
И это не декларация, не изложение важных тезисов, а живая, яркая, многозначная образная реальность спектакля. Балет отзывается на важнейшую проблему современности – протестует против угрозы войны, воспевает могущество человека и вечную силу материнства. Это значительное содержание воплощается в полифоническом взаимодействии музыкально-живописно-хореографических тем балета.
Каждая из тем разрабатывается в совокупности всех выразительных возможностей спектакля, в единстве звучащего образа с его пластической и живописной реальностью. Своеобразие темы, подхваченное и развитое в танце хореографом, поддерживается в многозначной символике живописи. Звучание оркестра, хореография и живопись в этом спектакле представляют собой единое, живое и подвижное органическое целое, где ведущее начало принадлежит музыке Андрея Петрова.
…Взглянуть со своей точки зрения на заботы человечества – такова была задача создателя балета. Отсюда в сочинении Петрова стремление к эпическому, гражданскому размаху, философским, общечеловеческим обобщениям и лирико-психологической глубине. При этом композитор просто и мудро выстраивает главные темы произведения. Он по-русски нетороплив, основателен, немногословен. Умеет отобрать самое существенное, рассмотреть и показать его со всех сторон. Каждая тема-обобщение несет в себе заряд живой достоверности, узнавания и конкретных сопоставлений. Так образ Адама, человека становится, постепенно укрупняется и постепенно умножаясь, темой Человечества, а она вырастает в почти символическое обобщение Человечности…
Авторам минского спектакля удалось прочитать в музыке балета философские и поэтические обобщения более значительные, чем они обозначились в первоначальном замысле либретто. Современность спектакля прежде всего в масштабности охвата темы, емкости художественного обобщения, что дает возможность передать прошлое и даже заглянуть в будущее Человечества, сохраняя при этом живые связи с теплом каждого человеческого сердца.
кандидат искусствоведения Э. Шумилова
Либретто, хореография и постановка – Валентин Елизарьев
Дирижер-постановщик – Владимир Мошенский
Дирижер-постановщик новой редакции – Вячеслав Чернухо-Волич
Художник-постановщик – Евгений Лысик
Художник по свету – Нина Иванкина
Хормейстеры детского музыкального театра-студии - Елена Соколовская, Татьяна Пышная
Премьера – 11 апреля 1976 года
Премьера новой авторской редакции – 8 декабря 2019 года
Качество видео: HDTV 1080p
Формат/Контейнер: MKV
Видео поток: AVC (H264), 1920x1080 (16:9), 25 fps, 4474 kbps
Аудио поток: AAC, 125 kbps, 2 channels, 48 kHz
I акт
Хаос
Рай
Дьявол
Бог
Адам
Борьба За Адама
Ева
II акт
Детство
Ад
Любовь
Люди
Бег Времени
Плач Евы
Возрождение
Код:
General
Unique ID                                : 298359371958602095376308389223899827687 (0xE075ECC3E9351C13375BDB82815B8DE7)
Complete name                            : C:\Portable\Большой театр Беларуси - А. Петров. Сотворение мира (реж. Валентин Елизарьев, 2020-03-27).mkv
Format                                   : Matroska
Format version                           : Version 4
File size                                : 2.83 GiB
Duration                                 : 1 h 27 min
Overall bit rate                         : 4 602 kb/s
Movie name                               : Большой театр Беларуси - А. Петров. Сотворение мира (реж. Валентин Елизарьев, 2020-03-27)
Encoded date                             : UTC 2020-06-25 14:02:34
Writing application                      : mkvmerge v43.0.0 ('The Quartermaster') 64-bit
Writing library                          : libebml v1.3.10 + libmatroska v1.5.2
Video
ID                                       : 1
Format                                   : AVC
Format/Info                              : Advanced Video Codec
Format profile                           : High@L4
Format settings                          : CABAC / 4 Ref Frames
Format settings, CABAC                   : Yes
Format settings, Reference frames        : 4 frames
Format settings, GOP                     : M=3, N=12
Codec ID                                 : V_MPEG4/ISO/AVC
Duration                                 : 1 h 27 min
Bit rate                                 : 4 474 kb/s
Width                                    : 1 920 pixels
Height                                   : 1 080 pixels
Display aspect ratio                     : 16:9
Frame rate mode                          : Constant
Frame rate                               : 25.000 FPS
Standard                                 : Component
Color space                              : YUV
Chroma subsampling                       : 4:2:0
Bit depth                                : 8 bits
Scan type                                : Progressive
Bits/(Pixel*Frame)                       : 0.086
Stream size                              : 2.75 GiB (97%)
Default                                  : Yes
Forced                                   : No
Color range                              : Limited
Audio
ID                                       : 2
Format                                   : AAC LC
Format/Info                              : Advanced Audio Codec Low Complexity
Codec ID                                 : A_AAC-2
Duration                                 : 1 h 27 min
Bit rate                                 : 125 kb/s
Channel(s)                               : 2 channels
Channel layout                           : L R
Sampling rate                            : 48.0 kHz
Frame rate                               : 46.875 FPS (1024 SPF)
Compression mode                         : Lossy
Stream size                              : 78.9 MiB (3%)
Language                                 : Russian
Default                                  : Yes
Forced                                   : No

Правила, инструкции, FAQ!!!
Торрент  Добавлен [25 июл 2020, 09:22] Скачать торрент Магнет ссылка
Скачать торрент
[ Размер 14.71 КБ / Просмотров 2 ]

Статус
Проверен 
 
Размер  2.83 ГБ
Приватный: Нет (DHT включён)
.torrent скачан  0
 


     Отправить личное сообщение
   
Страница 1 из 1
Показать сообщения за:  Поле сортировки  
Начать новую тему Ответить на тему


Сейчас этот форум просматривают: нет зарегистрированных пользователей и гости: 0


Вы не можете начинать темы
Вы не можете отвечать на сообщения
Вы не можете редактировать свои сообщения
Вы не можете удалять свои сообщения
Вы не можете добавлять вложения

Перейти:  
cron