Начать новую тему Ответить на тему
Статистика раздачи
Размер: 12.43 ГБ | Добавлен: 05 июн 2020, 22:38 | Скачали: 0
Сидеров: 0  [0 байт/сек]    Личеров: 0  [0 байт/сек]
Пред. тема | След. тема 

Автор
Сообщение

СообщениеДобавлено: 05 июн 2020, 22:38 

Ответить с цитатой 

Peter von Winter - Das Labyrinth or The Battle with the Elements | Part Two of The Magic Flute (Salzburger Festival 2012) / Петер фон Винтер - Лабиринт или Сражение со стихиями | Вторая часть Волшебной флейты (Зальцбургский фестиваль 2012) (Christof Fischesser, Julia Novikova, Malin Hartelius, Michael Schade, Thomas Tatzl, Regula Mühlemann - Ivor Bolton)
Год выпуска: 2012
Лейбл: Unitel Classica
Страна-производитель: Австрия
Жанр: Opera
Продолжительность: 02:40:15
Язык: немецкий
Перевод: отсутствует
Субтитры: отсутствуют
Режиссер: Alexandra Liedtke
Исполнители:
Christof Fischesser - Sarastro
Julia Novikova - The Queen of Night
Malin Hartelius - Pamina, her daughter
Michael Schade - Tamino
Thomas Tatzl - Papageno
Regula Mühlemann - Papagena
Anton Scharinger - Old Papageno
Ute Gfrerer - Old Papagena
Nina Bernsteiner - First Lady of the Queen (Venus)
Christina Daletska - Second Lady of the Queen (Amor)
Monica Bohinec - Third Lady of the Queen (Page)
Klaus Kuttler - Monostatos, a Moor
Clemens Unterreiner - Tipheus, King of Paphos
Philippe Sly - Sithos, his friend
Mauro Peter - First Moor
Manuel Günther - Second Moor / Priest
Klaus Kuttler - Third Moor
Zoltan Nagy - Fourth Moor
Members of the Salzburger Festspiele und Theater Kinderchor, Three Spirits
Shantia Ullmann - High Priestess
Members of the Salzburger Bachchor, Four Papagenas
Mozarteum Orchestra Salzburg
Salzburger Bachchor
Дирижер: Ivor Bolton
Трэклист:
Title
Overture
Act I
Act II
End
Описание:
Зальцбургский фестиваль показал в этом году среди своих премьер оперу Петера фон Винтера "Лабиринт, или Сражение со стихиями", являющуюся ни много ни мало "второй частью" моцартовской "Волшебной флейты". Папагено находит свою утраченную семью — маму, папу и выводок братьев-сестер мал мала меньше, а его верность Папагене оказывается под большим вопросом. Тамино и Памина, даром что счастливо соединились в финале "Волшебной флейты", теперь подвергаются новым испытаниям — как магически ритуальным, так и остросюжетным. Тем более что в условном "Египте", где по-прежнему обитают герои, объявился науськанный Царицей ночи Тифей, царь Пафоса, что на Кипре, который тоже претендует на руку Памины. Скандалы, интриги, расследования — и финальная схватка между силами зла и силами света с предсказуемым результатом.
Доп. информация:
Видеозапись трансляции оперы с Зальцбургского фестиваля для телеканала UNITEL CLASSICA, 3 августа 2012 года.

Качество: HDTVRip
Формат: MKV
Видео кодек: H.264
Аудио кодек: AC-3
Видео: 1920 x 1080i (16х9), 10.5Mbps, 25 fps, AVC
Аудио: 48000Hz 384kb/s, 6 channels, AC-3
General
Unique ID : 233598680644482130499564307907481043042 (0xAFBD782ABF09D17EB33A077E68860062)
Complete name : H:\Winter_Das_Labyrinth_Salzburg_2012.mkv
Format : Matroska
File size : 12.4 GiB
Duration : 2h 40mn
Overall bit rate : 11.1 Mbps
Encoded date : UTC 2012-09-16 19:40:26
Writing application : mkvmerge v5.7.0 ('The Whirlwind') built on Jul 8 2012 20:08:51
Writing library : libebml v1.2.3 + libmatroska v1.3.0
Video
ID : 1
Format : AVC
Format/Info : Advanced Video Codec
Format profile : High@L4.0
Format settings, CABAC : Yes
Format settings, ReFrames : 4 frames
Codec ID : V_MPEG4/ISO/AVC
Duration : 2h 40mn
Bit rate : 10.5 Mbps
Width : 1 920 pixels
Height : 1 080 pixels
Display aspect ratio : 16:9
Frame rate : 50.000 fps
Original frame rate : 25.000 fps
Standard : Component
Color space : YUV
Chroma subsampling : 4:2:0
Bit depth : 8 bits
Scan type : Interlaced
Scan order : Top Field First
Bits/(Pixel*Frame) : 0.101
Stream size : 11.8 GiB (95%)
Language : German
Color primaries : BT.709-5, BT.1361, IEC 61966-2-4, SMPTE RP177
Transfer characteristics : BT.709-5, BT.1361
Matrix coefficients : BT.709-5, BT.1361, IEC 61966-2-4 709, SMPTE RP177
Audio
ID : 2
Format : AC-3
Format/Info : Audio Coding 3
Mode extension : CM (complete main)
Codec ID : A_AC3
Duration : 2h 40mn
Bit rate mode : Constant
Bit rate : 384 Kbps
Channel(s) : 6 channels
Channel positions : Front: L C R, Side: L R, LFE
Sampling rate : 48.0 KHz
Bit depth : 16 bits
Compression mode : Lossy
Delay relative to video : 15ms
Stream size : 440 MiB (3%)
Language : German
Menu
00:00:00.000 : :Title
00:00:58.000 : :Overture
00:02:33.000 : :Act I
01:27:42.000 : :Act II
02:32:24.000 : :End


Правила, инструкции, FAQ!!!
Торрент  Добавлен [05 июн 2020, 22:38] Скачать торрент Магнет ссылка
Скачать торрент
[ Размер 16.01 КБ / Просмотров 6 ]

Статус
Проверен 
 
Размер  12.43 ГБ
Приватный: Нет (DHT включён)
.torrent скачан  0
 


     Отправить личное сообщение
   
Страница 1 из 1
Показать сообщения за:  Поле сортировки  
Начать новую тему Ответить на тему


Сейчас этот форум просматривают: нет зарегистрированных пользователей и гости: 0


Вы не можете начинать темы
Вы не можете отвечать на сообщения
Вы не можете редактировать свои сообщения
Вы не можете удалять свои сообщения
Вы не можете добавлять вложения

Перейти:  
cron