Начать новую тему Ответить на тему
Статистика раздачи
Размер: 89.12 МБ | Добавлен: 13 дек 2020, 17:29 | Скачали: 1
Сидеров: 21  [0 байт/сек]    Личеров: 7  [0 байт/сек]
Пред. тема | След. тема 

Автор
Сообщение

СообщениеДобавлено: 13 дек 2020, 17:29 

Ответить с цитатой 

Emancipator & 9 Theory / A Thousand Clouds
#777Жанр: Organic, Trip-Hop, Chillhop, Chillout, Downtempo
Носитель: STREAM
Страна-производитель диска (релиза): US
Год издания: 2020
Издатель (лейбл): Loci Records
Страна исполнителя (группы): US
Аудиокодек: FLAC (*.flac)
Тип рипа: tracks
Продолжительность: 16:05
Источник: Deezer
Наличие сканов в содержимом раздачи: обложка
Треклист:
01. Tangerine Sour (4:13)
02. I Feel You (3:16)
03. Mobius Trip (4:52)
04. Pharoah Dunes (3:44)
Код:
CUE Corrector v. 8.4.1 / b. 1016 (Dec. 06, 2020)
————————————————————————————————————————————————————————————————————————
Emancipator / A Thousand Clouds
Folder: Emancipator - A Thousand Clouds (2020)
Audio files:
    01. Tangerine Sour.flac [04:13.053; FLAC • 762 kbps • 16 bit \ 44100 Hz • stereo; 23,01 MB (24 128 342 B)]
    02. I Feel You.flac [03:15.893; FLAC • 663 kbps • 16 bit \ 44100 Hz • stereo; 15,49 MB (16 241 664 B)]
    03. Mobius Trip.flac [04:52.267; FLAC • 758 kbps • 16 bit \ 44100 Hz • stereo; 26,41 MB (27 694 920 B)]
    04. Pharoah Dunes.flac [03:43.787; FLAC • 822 kbps • 16 bit \ 44100 Hz • stereo; 21,95 MB (23 013 006 B)]
Accuracy: -m0
File 01. Tangerine Sour - 100% CDDA [04:13:03]
File 02. I Feel You     - 100% CDDA [03:15:67]
File 03. Mobius Trip    - 100% CDDA [04:52:20]
File 04. Pharoah Dunes  - 100% CDDA [03:43:59]
————— Summary: —————
These tracks looks like CDDA with probability 100%.
————————————————————————————————————————————————————————————————————————
ANALYZER:
    auCDtect: CD records authenticity detector, version 0.8.2
    Copyright (c) 2004 Oleg Berngardt. All rights reserved.
    Copyright (c) 2004 Alexander Djourik. All rights reserved.
Time elapsed: 1 m 13 s
Log created at December 11, 2020 20:48:09
=== 6E1F93B241CCA13178366DA1AEC6451C8B4D9A734AD3F91F4CD922AA2DE5E5C3 ===
Код:
foobar2000 1.6.2 / Dynamic Range Meter 1.1.1
log date: 2020-12-11 20:49:25
--------------------------------------------------------------------------------
Analyzed: Emancipator, 9 Theory / A Thousand Clouds
--------------------------------------------------------------------------------
DR         Peak         RMS     Duration Track
--------------------------------------------------------------------------------
DR8       -0.08 dB   -10.37 dB      4:13 01-Tangerine Sour
DR8       -0.10 dB   -10.05 dB      3:16 02-I Feel You
DR7       -0.05 dB    -9.89 dB      4:52 03-Mobius Trip
DR7       -0.05 dB   -10.45 dB      3:44 04-Pharoah Dunes
--------------------------------------------------------------------------------
Number of tracks:  4
Official DR value: DR8
Samplerate:        44100 Hz
Channels:          2
Bits per sample:   16
Bitrate:           816 kbps
Codec:             FLAC
================================================================================
Правила, инструкции, FAQ!!!
Торрент  Добавлен [13 дек 2020, 17:29] Скачать торрент Магнет ссылка
Скачать торрент
[ Размер 14.72 КБ / Просмотров 26 ]

Статус
Проверен 
 
Размер  89.12 МБ
Приватный: Нет (DHT включён)
.torrent скачан  1
 


     Отправить личное сообщение
   
Страница 1 из 1
Показать сообщения за:  Поле сортировки  
Начать новую тему Ответить на тему


Сейчас этот форум просматривают: нет зарегистрированных пользователей и гости: 0


Вы не можете начинать темы
Вы не можете отвечать на сообщения
Вы не можете редактировать свои сообщения
Вы не можете удалять свои сообщения
Вы не можете добавлять вложения

Перейти:  
cron