Начать новую тему Ответить на тему
Статистика раздачи
Размер: 15.32 ГБ | Добавлен: 05 июн 2020, 23:18 | Скачали: 0
Сидеров: 1  [0 байт/сек]    Личеров: 0  [0 байт/сек]
Пред. тема | След. тема 

Автор
Сообщение

СообщениеДобавлено: 05 июн 2020, 23:18 

Ответить с цитатой 

Опера и Балет / The Blu Ray Experience: Opera and Ballet Highlights [Blu-ray] (2008)

Год выпуска: 2008
Страна: Великобритания
Жанр: Опера и Балет
Продолжительность: 50 минут
Перевод: Не требуется
Русские субтитры: нет
Оперы и Балеты :
Opera & Ballet Highlights
1.
Verdi Il trovatore
Gypsy chorus (Royal Opera House)
2.
Tchaikovsky Swan Lake
Entrance of Swans (Act 2) (Paris Opera Ballet)
3.
Mozart The Magic Flute
Aria - Queen of the Night (Act 2) (Royal Opera House)
4.
Puccini La Bohème
Che gelida manina! (Teatro Real) (Your tiny hand is frozen!)
5.
Bizet Carmen
Habanera (Glyndebourne)
6.
Mendelssohn A Midsummer Night's Dream
Divertissement (Act 2) (Pacific Northwest Ballet)
7.
Puccini Gianni Schicchi
O mio babbino caro (Glyndebourne)
8.
Strauss Die Fledermaus
Tritsch-Tratsch-Polka (Glyndebourne)
9.
Rameau Zoroastre
Entr’ acte: Ouverture / À mes (Drottningholm Theatre) tristes regards (Act 2 / Scene I)
10.
Rossini La Cenerentola
Signora Altezza (Act 1) (Glyndebourne)
11.
Bellini Norma
Casta Diva (De Nederlandse Opera)
12.
Balanchine Jewels
Emeralds - Final (Paris Opera Ballet)
13.
Cecilia & Bryn at Glyndebourne, Mozart Die Zauberflöte
‘Pa-pa-pa-pa’ (duet) (Glyndebourne)
В ролях: Pamela Armstrong, Cecilia Bartoli, Alessandro Corbelli, Felicity Palmer, Anne Sofie Von Otter
Качество: Blu-ray
Формат: BDMV
Видео кодек: MPEG-4 AVC Video
Аудио кодек: LPCM Audio/DTS-HD Master Audio/Dolby TrueHD Audio
Видео: MPEG-4 AVC Video / 1080i / 29.970 fps / 16:9 / High Profile 4.1
Аудио:
1. LPCM Audio / 5.1 / 48 kHz / 6912 kbps / 24-bit
2. DTS-HD Master Audio / 5.1 / 48 kHz / 24-bit (DTS Core: 5.1 / 48 kHz / 1509 kbps / 24-bit)
3. Dolby TrueHD Audio / 5.1 / 48 kHz / 24-bit (AC3 Embedded: 5.1 / 48 kHz / 640 kbps)
4. LPCM Audio / 2.0 / 48 kHz / 2304 kbps / 24-bit
General
ID : 0
Complete name : F:\Torrents2\Opera&Balet\THE BLURAY EXPERIENCE\BDMV\STREAM\00005.m2ts
Format : BDAV
Format/Info : Blu-ray Video
File size : 15.2 GiB
Duration : 46mn 16s
Overall bit rate : 47.0 Mbps
Maximum Overall bit rate : 48.0 Mbps
Video
ID : 4113 (0x1011)
Menu ID : 1 (0x1)
Format : AVC
Format/Info : Advanced Video Codec
Format profile : High@L4.1
Format settings, CABAC : Yes
Format settings, ReFrames : 4 frames
Duration : 46mn 15s
Width : 1 920 pixels
Height : 1 080 pixels
Display aspect ratio : 16:9
Frame rate : 29.970 fps
Standard : NTSC
Resolution : 24 bits
Colorimetry : 4:2:0
Scan type : MBAFF
Color primaries : BT.709-5, BT.1361, IEC 61966-2-4, SMPTE RP177
Transfer characteristics : BT.709-5, BT.1361
Matrix coefficients : BT.709-5, BT.1361, IEC 61966-2-4 709, SMPTE RP177
Audio #1
ID : 4352 (0x1100)
Menu ID : 1 (0x1)
Format : PCM
Format settings, Endianness : Big
Format settings, Sign : Signed
Muxing mode : Blu-ray
Duration : 46mn 15s
Bit rate mode : Constant
Bit rate : 2 304 Kbps
Channel(s) : 2 channels
Channel positions : Front: L R
Sampling rate : 48.0 KHz
Resolution : 24 bits
Stream size : 762 MiB (5%)
Audio #2
ID : 4353 (0x1101)
Menu ID : 1 (0x1)
Format : PCM
Format settings, Endianness : Big
Format settings, Sign : Signed
Muxing mode : Blu-ray
Duration : 46mn 15s
Bit rate mode : Constant
Bit rate : 6 912 Kbps
Channel(s) : 6 channels
Channel positions : Front: L R C, Rear: L R, LFE
Sampling rate : 48.0 KHz
Resolution : 24 bits
Stream size : 2.23 GiB (15%)
Audio #3
ID : 4354 (0x1102)
Menu ID : 1 (0x1)
Format : DTS
Format/Info : Digital Theater Systems
Format profile : MA
Duration : 46mn 15s
Bit rate mode : Variable
Channel(s) : 6 channels
Channel positions : Front: L C R, Surround: L R, LFE
Sampling rate : 48.0 KHz
Resolution : 24 bits
Audio #4
ID : 4355 (0x1103)
Menu ID : 1 (0x1)
Format : AC-3
Format/Info : Audio Coding 3
Format profile : TrueHD
Duration : 46mn 15s
Bit rate mode : Variable
Bit rate : 640 Kbps
Channel(s) : 6 channels
Channel positions : Front: L C R, Surround: L R, LFE
Sampling rate : 48.0 KHz
Stream size : 212 MiB (1%)
Disc Title: THE BLURAY EXPERIENCE
Disc Size: 16,454,071,264 bytes
Protection: AACS
BD-Java: No
BDInfo: 0.5.4
Notes:
BDINFO HOME:
Cinema Squid
http://www.cinemasquid.com/blu-ray/tools/bdinfo
INCLUDES FORUMS REPORT FOR:
AVS Forum Blu-ray Audio and Video Specifications Thread
http://www.avsforum.com/avs-vb/showthread.php?t=1155731
********************
PLAYLIST: 00000.MPLS
********************
<--- BEGIN FORUMS PASTE --->Код:
Код:
                                                                                Total   Video
Title                                                           Codec   Length  Movie Size      Disc Size       Bitrate Bitrate Main Audio Track                          Secondary Audio Track
-----                                                           ------  ------- --------------  --------------  ------- ------- ------------------                        ---------------------
00000.MPLS                                                      AVC     0:46:15 0               16,454,071,264  0.00    0.00    LPCM 5.1 6912Kbps (48kHz/24-bit)          DTS-HD Master 5.1 (48kHz/24-bit)

Код:
Код:
DISC INFO:
Disc Title:     THE BLURAY EXPERIENCE
Disc Size:      16,454,071,264 bytes
Protection:     AACS
BD-Java:        No
BDInfo:         0.5.4
PLAYLIST REPORT:
Name:                   00000.MPLS
Length:                 0:46:15 (h:m:s)
Size:                   0 bytes
Total Bitrate:          0.00 Mbps
VIDEO:
Codec                   Bitrate             Description
-----                   -------             -----------
MPEG-4 AVC Video        0 kbps              1080i / 29.970 fps / 16:9 / High Profile 4.1
AUDIO:
Codec                           Language        Bitrate         Description
-----                           --------        -------         -----------
LPCM Audio                      English         6912 kbps       5.1 / 48 kHz / 6912 kbps / 24-bit
DTS-HD Master Audio             English         0 kbps          5.1 / 48 kHz / 24-bit (DTS Core: 5.1 / 48 kHz / 1509 kbps / 24-bit)
Dolby TrueHD Audio              English         0 kbps          5.1 / 48 kHz / 24-bit (AC3 Embedded: 5.1 / 48 kHz / 640 kbps)
LPCM Audio                      English         2304 kbps       2.0 / 48 kHz / 2304 kbps / 24-bit
FILES:
Name            Time In         Length          Size            Total Bitrate
----            -------         ------          ----            -------------
00005.M2TS      0:00:00.000     0:46:15.806     0               0
CHAPTERS:
Number          Time In         Length          Avg Video Rate  Max 1-Sec Rate  Max 1-Sec Time  Max 5-Sec Rate  Max 5-Sec Time  Max 10Sec Rate  Max 10Sec Time  Avg Frame Size  Max Frame Size  Max Frame Time
------          -------         ------          --------------  --------------  --------------  --------------  --------------  --------------  --------------  --------------  --------------  --------------
1               0:00:00.000     0:02:49.802     0 kbps          0 kbps          00:00:00.000    0 kbps          00:00:00.000    0 kbps          00:00:00.000    0 bytes         0 bytes         00:00:00.000
2               0:02:49.802     0:03:06.219     0 kbps          0 kbps          00:00:00.000    0 kbps          00:00:00.000    0 kbps          00:00:00.000    0 bytes         0 bytes         00:00:00.000
3               0:05:56.022     0:03:08.688     0 kbps          0 kbps          00:00:00.000    0 kbps          00:00:00.000    0 kbps          00:00:00.000    0 bytes         0 bytes         00:00:00.000
4               0:09:04.710     0:04:50.089     0 kbps          0 kbps          00:00:00.000    0 kbps          00:00:00.000    0 kbps          00:00:00.000    0 bytes         0 bytes         00:00:00.000
5               0:13:54.800     0:02:20.640     0 kbps          0 kbps          00:00:00.000    0 kbps          00:00:00.000    0 kbps          00:00:00.000    0 bytes         0 bytes         00:00:00.000
6               0:16:15.441     0:04:02.008     0 kbps          0 kbps          00:00:00.000    0 kbps          00:00:00.000    0 kbps          00:00:00.000    0 bytes         0 bytes         00:00:00.000
7               0:20:17.449     0:02:09.062     0 kbps          0 kbps          00:00:00.000    0 kbps          00:00:00.000    0 kbps          00:00:00.000    0 bytes         0 bytes         00:00:00.000
8               0:22:26.511     0:02:42.495     0 kbps          0 kbps          00:00:00.000    0 kbps          00:00:00.000    0 kbps          00:00:00.000    0 bytes         0 bytes         00:00:00.000
9               0:25:09.007     0:05:04.070     0 kbps          0 kbps          00:00:00.000    0 kbps          00:00:00.000    0 kbps          00:00:00.000    0 bytes         0 bytes         00:00:00.000
10              0:30:13.077     0:02:57.677     0 kbps          0 kbps          00:00:00.000    0 kbps          00:00:00.000    0 kbps          00:00:00.000    0 bytes         0 bytes         00:00:00.000
11              0:33:10.755     0:06:36.963     0 kbps          0 kbps          00:00:00.000    0 kbps          00:00:00.000    0 kbps          00:00:00.000    0 bytes         0 bytes         00:00:00.000
12              0:39:47.718     0:03:49.395     0 kbps          0 kbps          00:00:00.000    0 kbps          00:00:00.000    0 kbps          00:00:00.000    0 bytes         0 bytes         00:00:00.000
13              0:43:37.114     0:02:38.691     0 kbps          0 kbps          00:00:00.000    0 kbps          00:00:00.000    0 kbps          00:00:00.000    0 bytes         0 bytes         00:00:00.000
STREAM DIAGNOSTICS:
File            PID             Type            Codec           Language                Seconds                 Bitrate                 Bytes           Packets
----            ---             ----            -----           --------                --------------          --------------          -------------   -----
00005.M2TS      4113 (0x1011)   0x1B            AVC                                     0                       0                       0               0
00005.M2TS      4352 (0x1100)   0x80            LPCM            eng (English)           0                       0                       0               0
00005.M2TS      4353 (0x1101)   0x80            LPCM            eng (English)           0                       0                       0               0
00005.M2TS      4354 (0x1102)   0x86            DTS-HD MA       eng (English)           0                       0                       0               0
00005.M2TS      4355 (0x1103)   0x83            TrueHD          eng (English)           0                       0                       0               0

<---- END FORUMS PASTE ---->
QUICK SUMMARY:
Disc Title: THE BLURAY EXPERIENCE
Disc Size: 16,454,071,264 bytes
Protection: AACS
BD-Java: No
Playlist: 00000.MPLS
Size: 0 bytes
Length: 0:46:15
Total Bitrate: 0.00 Mbps
Video: MPEG-4 AVC Video / 0 kbps / 1080i / 29.970 fps / 16:9 / High Profile 4.1
Audio: English / LPCM Audio / 5.1 / 48 kHz / 6912 kbps / 24-bit
Audio: English / DTS-HD Master Audio / 5.1 / 48 kHz / 24-bit (DTS Core: 5.1 / 48 kHz / 1509 kbps / 24-bit)
Audio: English / Dolby TrueHD Audio / 5.1 / 48 kHz / 24-bit (AC3 Embedded: 5.1 / 48 kHz / 640 kbps)
Audio: English / LPCM Audio / 2.0 / 48 kHz / 2304 kbps / 24-bit
********************
PLAYLIST: 00011.MPLS
********************
<--- BEGIN FORUMS PASTE --->Код:
Код:
                                                                                Total   Video
Title                                                           Codec   Length  Movie Size      Disc Size       Bitrate Bitrate Main Audio Track                          Secondary Audio Track
-----                                                           ------  ------- --------------  --------------  ------- ------- ------------------                        ---------------------
00011.MPLS                                                      AVC     0:06:36 0               16,454,071,264  0.00    0.00    LPCM 5.1 6912Kbps (48kHz/24-bit)          DTS-HD Master 5.1 (48kHz/24-bit)

Код:
Код:
DISC INFO:
Disc Title:     THE BLURAY EXPERIENCE
Disc Size:      16,454,071,264 bytes
Protection:     AACS
BD-Java:        No
BDInfo:         0.5.4
PLAYLIST REPORT:
Name:                   00011.MPLS
Length:                 0:06:36 (h:m:s)
Size:                   0 bytes
Total Bitrate:          0.00 Mbps
VIDEO:
Codec                   Bitrate             Description
-----                   -------             -----------
MPEG-4 AVC Video        0 kbps              1080i / 29.970 fps / 16:9 / High Profile 4.1
AUDIO:
Codec                           Language        Bitrate         Description
-----                           --------        -------         -----------
LPCM Audio                      English         6912 kbps       5.1 / 48 kHz / 6912 kbps / 24-bit
DTS-HD Master Audio             English         0 kbps          5.1 / 48 kHz / 24-bit (DTS Core: 5.1 / 48 kHz / 1509 kbps / 24-bit)
Dolby TrueHD Audio              English         0 kbps          5.1 / 48 kHz / 24-bit (AC3 Embedded: 5.1 / 48 kHz / 640 kbps)
LPCM Audio                      English         2304 kbps       2.0 / 48 kHz / 2304 kbps / 24-bit
FILES:
Name            Time In         Length          Size            Total Bitrate
----            -------         ------          ----            -------------
00005.M2TS      0:00:00.000     0:06:36.963     0               0
CHAPTERS:
Number          Time In         Length          Avg Video Rate  Max 1-Sec Rate  Max 1-Sec Time  Max 5-Sec Rate  Max 5-Sec Time  Max 10Sec Rate  Max 10Sec Time  Avg Frame Size  Max Frame Size  Max Frame Time
------          -------         ------          --------------  --------------  --------------  --------------  --------------  --------------  --------------  --------------  --------------  --------------
1               0:00:00.000     0:06:36.963     0 kbps          0 kbps          00:00:00.000    0 kbps          00:00:00.000    0 kbps          00:00:00.000    0 bytes         0 bytes         00:00:00.000
STREAM DIAGNOSTICS:
File            PID             Type            Codec           Language                Seconds                 Bitrate                 Bytes           Packets
----            ---             ----            -----           --------                --------------          --------------          -------------   -----
00005.M2TS      4113 (0x1011)   0x1B            AVC                                     0                       0                       0               0
00005.M2TS      4352 (0x1100)   0x80            LPCM            eng (English)           0                       0                       0               0
00005.M2TS      4353 (0x1101)   0x80            LPCM            eng (English)           0                       0                       0               0
00005.M2TS      4354 (0x1102)   0x86            DTS-HD MA       eng (English)           0                       0                       0               0
00005.M2TS      4355 (0x1103)   0x83            TrueHD          eng (English)           0                       0                       0               0

<---- END FORUMS PASTE ---->
QUICK SUMMARY:
Disc Title: THE BLURAY EXPERIENCE
Disc Size: 16,454,071,264 bytes
Protection: AACS
BD-Java: No
Playlist: 00011.MPLS
Size: 0 bytes
Length: 0:06:36
Total Bitrate: 0.00 Mbps
Video: MPEG-4 AVC Video / 0 kbps / 1080i / 29.970 fps / 16:9 / High Profile 4.1
Audio: English / LPCM Audio / 5.1 / 48 kHz / 6912 kbps / 24-bit
Audio: English / DTS-HD Master Audio / 5.1 / 48 kHz / 24-bit (DTS Core: 5.1 / 48 kHz / 1509 kbps / 24-bit)
Audio: English / Dolby TrueHD Audio / 5.1 / 48 kHz / 24-bit (AC3 Embedded: 5.1 / 48 kHz / 640 kbps)
Audio: English / LPCM Audio / 2.0 / 48 kHz / 2304 kbps / 24-bit
********************
PLAYLIST: 00009.MPLS
********************
<--- BEGIN FORUMS PASTE --->Код:
Код:
                                                                                Total   Video
Title                                                           Codec   Length  Movie Size      Disc Size       Bitrate Bitrate Main Audio Track                          Secondary Audio Track
-----                                                           ------  ------- --------------  --------------  ------- ------- ------------------                        ---------------------
00009.MPLS                                                      AVC     0:05:04 0               16,454,071,264  0.00    0.00    LPCM 5.1 6912Kbps (48kHz/24-bit)          DTS-HD Master 5.1 (48kHz/24-bit)

Код:
Код:
DISC INFO:
Disc Title:     THE BLURAY EXPERIENCE
Disc Size:      16,454,071,264 bytes
Protection:     AACS
BD-Java:        No
BDInfo:         0.5.4
PLAYLIST REPORT:
Name:                   00009.MPLS
Length:                 0:05:04 (h:m:s)
Size:                   0 bytes
Total Bitrate:          0.00 Mbps
VIDEO:
Codec                   Bitrate             Description
-----                   -------             -----------
MPEG-4 AVC Video        0 kbps              1080i / 29.970 fps / 16:9 / High Profile 4.1
AUDIO:
Codec                           Language        Bitrate         Description
-----                           --------        -------         -----------
LPCM Audio                      English         6912 kbps       5.1 / 48 kHz / 6912 kbps / 24-bit
DTS-HD Master Audio             English         0 kbps          5.1 / 48 kHz / 24-bit (DTS Core: 5.1 / 48 kHz / 1509 kbps / 24-bit)
Dolby TrueHD Audio              English         0 kbps          5.1 / 48 kHz / 24-bit (AC3 Embedded: 5.1 / 48 kHz / 640 kbps)
LPCM Audio                      English         2304 kbps       2.0 / 48 kHz / 2304 kbps / 24-bit
FILES:
Name            Time In         Length          Size            Total Bitrate
----            -------         ------          ----            -------------
00005.M2TS      0:00:00.000     0:05:04.070     0               0
CHAPTERS:
Number          Time In         Length          Avg Video Rate  Max 1-Sec Rate  Max 1-Sec Time  Max 5-Sec Rate  Max 5-Sec Time  Max 10Sec Rate  Max 10Sec Time  Avg Frame Size  Max Frame Size  Max Frame Time
------          -------         ------          --------------  --------------  --------------  --------------  --------------  --------------  --------------  --------------  --------------  --------------
1               0:00:00.000     0:05:04.070     0 kbps          0 kbps          00:00:00.000    0 kbps          00:00:00.000    0 kbps          00:00:00.000    0 bytes         0 bytes         00:00:00.000
STREAM DIAGNOSTICS:
File            PID             Type            Codec           Language                Seconds                 Bitrate                 Bytes           Packets
----            ---             ----            -----           --------                --------------          --------------          -------------   -----
00005.M2TS      4113 (0x1011)   0x1B            AVC                                     0                       0                       0               0
00005.M2TS      4352 (0x1100)   0x80            LPCM            eng (English)           0                       0                       0               0
00005.M2TS      4353 (0x1101)   0x80            LPCM            eng (English)           0                       0                       0               0
00005.M2TS      4354 (0x1102)   0x86            DTS-HD MA       eng (English)           0                       0                       0               0
00005.M2TS      4355 (0x1103)   0x83            TrueHD          eng (English)           0                       0                       0               0

<---- END FORUMS PASTE ---->
QUICK SUMMARY:
Disc Title: THE BLURAY EXPERIENCE
Disc Size: 16,454,071,264 bytes
Protection: AACS
BD-Java: No
Playlist: 00009.MPLS
Size: 0 bytes
Length: 0:05:04
Total Bitrate: 0.00 Mbps
Video: MPEG-4 AVC Video / 0 kbps / 1080i / 29.970 fps / 16:9 / High Profile 4.1
Audio: English / LPCM Audio / 5.1 / 48 kHz / 6912 kbps / 24-bit
Audio: English / DTS-HD Master Audio / 5.1 / 48 kHz / 24-bit (DTS Core: 5.1 / 48 kHz / 1509 kbps / 24-bit)
Audio: English / Dolby TrueHD Audio / 5.1 / 48 kHz / 24-bit (AC3 Embedded: 5.1 / 48 kHz / 640 kbps)
Audio: English / LPCM Audio / 2.0 / 48 kHz / 2304 kbps / 24-bit
********************
PLAYLIST: 00004.MPLS
********************
<--- BEGIN FORUMS PASTE --->Код:
Код:
                                                                                Total   Video
Title                                                           Codec   Length  Movie Size      Disc Size       Bitrate Bitrate Main Audio Track                          Secondary Audio Track
-----                                                           ------  ------- --------------  --------------  ------- ------- ------------------                        ---------------------
00004.MPLS                                                      AVC     0:04:50 0               16,454,071,264  0.00    0.00    LPCM 5.1 6912Kbps (48kHz/24-bit)          DTS-HD Master 5.1 (48kHz/24-bit)

Код:
Код:
DISC INFO:
Disc Title:     THE BLURAY EXPERIENCE
Disc Size:      16,454,071,264 bytes
Protection:     AACS
BD-Java:        No
BDInfo:         0.5.4
PLAYLIST REPORT:
Name:                   00004.MPLS
Length:                 0:04:50 (h:m:s)
Size:                   0 bytes
Total Bitrate:          0.00 Mbps
VIDEO:
Codec                   Bitrate             Description
-----                   -------             -----------
MPEG-4 AVC Video        0 kbps              1080i / 29.970 fps / 16:9 / High Profile 4.1
AUDIO:
Codec                           Language        Bitrate         Description
-----                           --------        -------         -----------
LPCM Audio                      English         6912 kbps       5.1 / 48 kHz / 6912 kbps / 24-bit
DTS-HD Master Audio             English         0 kbps          5.1 / 48 kHz / 24-bit (DTS Core: 5.1 / 48 kHz / 1509 kbps / 24-bit)
Dolby TrueHD Audio              English         0 kbps          5.1 / 48 kHz / 24-bit (AC3 Embedded: 5.1 / 48 kHz / 640 kbps)
LPCM Audio                      English         2304 kbps       2.0 / 48 kHz / 2304 kbps / 24-bit
FILES:
Name            Time In         Length          Size            Total Bitrate
----            -------         ------          ----            -------------
00005.M2TS      0:00:00.000     0:04:50.089     0               0
CHAPTERS:
Number          Time In         Length          Avg Video Rate  Max 1-Sec Rate  Max 1-Sec Time  Max 5-Sec Rate  Max 5-Sec Time  Max 10Sec Rate  Max 10Sec Time  Avg Frame Size  Max Frame Size  Max Frame Time
------          -------         ------          --------------  --------------  --------------  --------------  --------------  --------------  --------------  --------------  --------------  --------------
1               0:00:00.000     0:04:50.089     0 kbps          0 kbps          00:00:00.000    0 kbps          00:00:00.000    0 kbps          00:00:00.000    0 bytes         0 bytes         00:00:00.000
STREAM DIAGNOSTICS:
File            PID             Type            Codec           Language                Seconds                 Bitrate                 Bytes           Packets
----            ---             ----            -----           --------                --------------          --------------          -------------   -----
00005.M2TS      4113 (0x1011)   0x1B            AVC                                     0                       0                       0               0
00005.M2TS      4352 (0x1100)   0x80            LPCM            eng (English)           0                       0                       0               0
00005.M2TS      4353 (0x1101)   0x80            LPCM            eng (English)           0                       0                       0               0
00005.M2TS      4354 (0x1102)   0x86            DTS-HD MA       eng (English)           0                       0                       0               0
00005.M2TS      4355 (0x1103)   0x83            TrueHD          eng (English)           0                       0                       0               0

<---- END FORUMS PASTE ---->
QUICK SUMMARY:
Disc Title: THE BLURAY EXPERIENCE
Disc Size: 16,454,071,264 bytes
Protection: AACS
BD-Java: No
Playlist: 00004.MPLS
Size: 0 bytes
Length: 0:04:50
Total Bitrate: 0.00 Mbps
Video: MPEG-4 AVC Video / 0 kbps / 1080i / 29.970 fps / 16:9 / High Profile 4.1
Audio: English / LPCM Audio / 5.1 / 48 kHz / 6912 kbps / 24-bit
Audio: English / DTS-HD Master Audio / 5.1 / 48 kHz / 24-bit (DTS Core: 5.1 / 48 kHz / 1509 kbps / 24-bit)
Audio: English / Dolby TrueHD Audio / 5.1 / 48 kHz / 24-bit (AC3 Embedded: 5.1 / 48 kHz / 640 kbps)
Audio: English / LPCM Audio / 2.0 / 48 kHz / 2304 kbps / 24-bit
********************
PLAYLIST: 00006.MPLS
********************
<--- BEGIN FORUMS PASTE --->Код:
Код:
                                                                                Total   Video
Title                                                           Codec   Length  Movie Size      Disc Size       Bitrate Bitrate Main Audio Track                          Secondary Audio Track
-----                                                           ------  ------- --------------  --------------  ------- ------- ------------------                        ---------------------
00006.MPLS                                                      AVC     0:04:02 0               16,454,071,264  0.00    0.00    LPCM 5.1 6912Kbps (48kHz/24-bit)          DTS-HD Master 5.1 (48kHz/24-bit)

Код:
Код:
DISC INFO:
Disc Title:     THE BLURAY EXPERIENCE
Disc Size:      16,454,071,264 bytes
Protection:     AACS
BD-Java:        No
BDInfo:         0.5.4
PLAYLIST REPORT:
Name:                   00006.MPLS
Length:                 0:04:02 (h:m:s)
Size:                   0 bytes
Total Bitrate:          0.00 Mbps
VIDEO:
Codec                   Bitrate             Description
-----                   -------             -----------
MPEG-4 AVC Video        0 kbps              1080i / 29.970 fps / 16:9 / High Profile 4.1
AUDIO:
Codec                           Language        Bitrate         Description
-----                           --------        -------         -----------
LPCM Audio                      English         6912 kbps       5.1 / 48 kHz / 6912 kbps / 24-bit
DTS-HD Master Audio             English         0 kbps          5.1 / 48 kHz / 24-bit (DTS Core: 5.1 / 48 kHz / 1509 kbps / 24-bit)
Dolby TrueHD Audio              English         0 kbps          5.1 / 48 kHz / 24-bit (AC3 Embedded: 5.1 / 48 kHz / 640 kbps)
LPCM Audio                      English         2304 kbps       2.0 / 48 kHz / 2304 kbps / 24-bit
FILES:
Name            Time In         Length          Size            Total Bitrate
----            -------         ------          ----            -------------
00005.M2TS      0:00:00.000     0:04:02.008     0               0
CHAPTERS:
Number          Time In         Length          Avg Video Rate  Max 1-Sec Rate  Max 1-Sec Time  Max 5-Sec Rate  Max 5-Sec Time  Max 10Sec Rate  Max 10Sec Time  Avg Frame Size  Max Frame Size  Max Frame Time
------          -------         ------          --------------  --------------  --------------  --------------  --------------  --------------  --------------  --------------  --------------  --------------
1               0:00:00.000     0:04:02.008     0 kbps          0 kbps          00:00:00.000    0 kbps          00:00:00.000    0 kbps          00:00:00.000    0 bytes         0 bytes         00:00:00.000
STREAM DIAGNOSTICS:
File            PID             Type            Codec           Language                Seconds                 Bitrate                 Bytes           Packets
----            ---             ----            -----           --------                --------------          --------------          -------------   -----
00005.M2TS      4113 (0x1011)   0x1B            AVC                                     0                       0                       0               0
00005.M2TS      4352 (0x1100)   0x80            LPCM            eng (English)           0                       0                       0               0
00005.M2TS      4353 (0x1101)   0x80            LPCM            eng (English)           0                       0                       0               0
00005.M2TS      4354 (0x1102)   0x86            DTS-HD MA       eng (English)           0                       0                       0               0
00005.M2TS      4355 (0x1103)   0x83            TrueHD          eng (English)           0                       0                       0               0

<---- END FORUMS PASTE ---->
QUICK SUMMARY:
Disc Title: THE BLURAY EXPERIENCE
Disc Size: 16,454,071,264 bytes
Protection: AACS
BD-Java: No
Playlist: 00006.MPLS
Size: 0 bytes
Length: 0:04:02
Total Bitrate: 0.00 Mbps
Video: MPEG-4 AVC Video / 0 kbps / 1080i / 29.970 fps / 16:9 / High Profile 4.1
Audio: English / LPCM Audio / 5.1 / 48 kHz / 6912 kbps / 24-bit
Audio: English / DTS-HD Master Audio / 5.1 / 48 kHz / 24-bit (DTS Core: 5.1 / 48 kHz / 1509 kbps / 24-bit)
Audio: English / Dolby TrueHD Audio / 5.1 / 48 kHz / 24-bit (AC3 Embedded: 5.1 / 48 kHz / 640 kbps)
Audio: English / LPCM Audio / 2.0 / 48 kHz / 2304 kbps / 24-bit
********************
PLAYLIST: 00012.MPLS
********************
<--- BEGIN FORUMS PASTE --->Код:
Код:
                                                                                Total   Video
Title                                                           Codec   Length  Movie Size      Disc Size       Bitrate Bitrate Main Audio Track                          Secondary Audio Track
-----                                                           ------  ------- --------------  --------------  ------- ------- ------------------                        ---------------------
00012.MPLS                                                      AVC     0:03:49 0               16,454,071,264  0.00    0.00    LPCM 5.1 6912Kbps (48kHz/24-bit)          DTS-HD Master 5.1 (48kHz/24-bit)

Код:
Код:
DISC INFO:
Disc Title:     THE BLURAY EXPERIENCE
Disc Size:      16,454,071,264 bytes
Protection:     AACS
BD-Java:        No
BDInfo:         0.5.4
PLAYLIST REPORT:
Name:                   00012.MPLS
Length:                 0:03:49 (h:m:s)
Size:                   0 bytes
Total Bitrate:          0.00 Mbps
VIDEO:
Codec                   Bitrate             Description
-----                   -------             -----------
MPEG-4 AVC Video        0 kbps              1080i / 29.970 fps / 16:9 / High Profile 4.1
AUDIO:
Codec                           Language        Bitrate         Description
-----                           --------        -------         -----------
LPCM Audio                      English         6912 kbps       5.1 / 48 kHz / 6912 kbps / 24-bit
DTS-HD Master Audio             English         0 kbps          5.1 / 48 kHz / 24-bit (DTS Core: 5.1 / 48 kHz / 1509 kbps / 24-bit)
Dolby TrueHD Audio              English         0 kbps          5.1 / 48 kHz / 24-bit (AC3 Embedded: 5.1 / 48 kHz / 640 kbps)
LPCM Audio                      English         2304 kbps       2.0 / 48 kHz / 2304 kbps / 24-bit
FILES:
Name            Time In         Length          Size            Total Bitrate
----            -------         ------          ----            -------------
00005.M2TS      0:00:00.000     0:03:49.395     0               0
CHAPTERS:
Number          Time In         Length          Avg Video Rate  Max 1-Sec Rate  Max 1-Sec Time  Max 5-Sec Rate  Max 5-Sec Time  Max 10Sec Rate  Max 10Sec Time  Avg Frame Size  Max Frame Size  Max Frame Time
------          -------         ------          --------------  --------------  --------------  --------------  --------------  --------------  --------------  --------------  --------------  --------------
1               0:00:00.000     0:03:49.395     0 kbps          0 kbps          00:00:00.000    0 kbps          00:00:00.000    0 kbps          00:00:00.000    0 bytes         0 bytes         00:00:00.000
STREAM DIAGNOSTICS:
File            PID             Type            Codec           Language                Seconds                 Bitrate                 Bytes           Packets
----            ---             ----            -----           --------                --------------          --------------          -------------   -----
00005.M2TS      4113 (0x1011)   0x1B            AVC                                     0                       0                       0               0
00005.M2TS      4352 (0x1100)   0x80            LPCM            eng (English)           0                       0                       0               0
00005.M2TS      4353 (0x1101)   0x80            LPCM            eng (English)           0                       0                       0               0
00005.M2TS      4354 (0x1102)   0x86            DTS-HD MA       eng (English)           0                       0                       0               0
00005.M2TS      4355 (0x1103)   0x83            TrueHD          eng (English)           0                       0                       0               0

<---- END FORUMS PASTE ---->
QUICK SUMMARY:
Disc Title: THE BLURAY EXPERIENCE
Disc Size: 16,454,071,264 bytes
Protection: AACS
BD-Java: No
Playlist: 00012.MPLS
Size: 0 bytes
Length: 0:03:49
Total Bitrate: 0.00 Mbps
Video: MPEG-4 AVC Video / 0 kbps / 1080i / 29.970 fps / 16:9 / High Profile 4.1
Audio: English / LPCM Audio / 5.1 / 48 kHz / 6912 kbps / 24-bit
Audio: English / DTS-HD Master Audio / 5.1 / 48 kHz / 24-bit (DTS Core: 5.1 / 48 kHz / 1509 kbps / 24-bit)
Audio: English / Dolby TrueHD Audio / 5.1 / 48 kHz / 24-bit (AC3 Embedded: 5.1 / 48 kHz / 640 kbps)
Audio: English / LPCM Audio / 2.0 / 48 kHz / 2304 kbps / 24-bit
********************
PLAYLIST: 00003.MPLS
********************
<--- BEGIN FORUMS PASTE --->Код:
Код:
                                                                                Total   Video
Title                                                           Codec   Length  Movie Size      Disc Size       Bitrate Bitrate Main Audio Track                          Secondary Audio Track
-----                                                           ------  ------- --------------  --------------  ------- ------- ------------------                        ---------------------
00003.MPLS                                                      AVC     0:03:08 0               16,454,071,264  0.00    0.00    LPCM 5.1 6912Kbps (48kHz/24-bit)          DTS-HD Master 5.1 (48kHz/24-bit)

Код:
Код:
DISC INFO:
Disc Title:     THE BLURAY EXPERIENCE
Disc Size:      16,454,071,264 bytes
Protection:     AACS
BD-Java:        No
BDInfo:         0.5.4
PLAYLIST REPORT:
Name:                   00003.MPLS
Length:                 0:03:08 (h:m:s)
Size:                   0 bytes
Total Bitrate:          0.00 Mbps
VIDEO:
Codec                   Bitrate             Description
-----                   -------             -----------
MPEG-4 AVC Video        0 kbps              1080i / 29.970 fps / 16:9 / High Profile 4.1
AUDIO:
Codec                           Language        Bitrate         Description
-----                           --------        -------         -----------
LPCM Audio                      English         6912 kbps       5.1 / 48 kHz / 6912 kbps / 24-bit
DTS-HD Master Audio             English         0 kbps          5.1 / 48 kHz / 24-bit (DTS Core: 5.1 / 48 kHz / 1509 kbps / 24-bit)
Dolby TrueHD Audio              English         0 kbps          5.1 / 48 kHz / 24-bit (AC3 Embedded: 5.1 / 48 kHz / 640 kbps)
LPCM Audio                      English         2304 kbps       2.0 / 48 kHz / 2304 kbps / 24-bit
FILES:
Name            Time In         Length          Size            Total Bitrate
----            -------         ------          ----            -------------
00005.M2TS      0:00:00.000     0:03:08.688     0               0
CHAPTERS:
Number          Time In         Length          Avg Video Rate  Max 1-Sec Rate  Max 1-Sec Time  Max 5-Sec Rate  Max 5-Sec Time  Max 10Sec Rate  Max 10Sec Time  Avg Frame Size  Max Frame Size  Max Frame Time
------          -------         ------          --------------  --------------  --------------  --------------  --------------  --------------  --------------  --------------  --------------  --------------
1               0:00:00.000     0:03:08.688     0 kbps          0 kbps          00:00:00.000    0 kbps          00:00:00.000    0 kbps          00:00:00.000    0 bytes         0 bytes         00:00:00.000
STREAM DIAGNOSTICS:
File            PID             Type            Codec           Language                Seconds                 Bitrate                 Bytes           Packets
----            ---             ----            -----           --------                --------------          --------------          -------------   -----
00005.M2TS      4113 (0x1011)   0x1B            AVC                                     0                       0                       0               0
00005.M2TS      4352 (0x1100)   0x80            LPCM            eng (English)           0                       0                       0               0
00005.M2TS      4353 (0x1101)   0x80            LPCM            eng (English)           0                       0                       0               0
00005.M2TS      4354 (0x1102)   0x86            DTS-HD MA       eng (English)           0                       0                       0               0
00005.M2TS      4355 (0x1103)   0x83            TrueHD          eng (English)           0                       0                       0               0

<---- END FORUMS PASTE ---->
QUICK SUMMARY:
Disc Title: THE BLURAY EXPERIENCE
Disc Size: 16,454,071,264 bytes
Protection: AACS
BD-Java: No
Playlist: 00003.MPLS
Size: 0 bytes
Length: 0:03:08
Total Bitrate: 0.00 Mbps
Video: MPEG-4 AVC Video / 0 kbps / 1080i / 29.970 fps / 16:9 / High Profile 4.1
Audio: English / LPCM Audio / 5.1 / 48 kHz / 6912 kbps / 24-bit
Audio: English / DTS-HD Master Audio / 5.1 / 48 kHz / 24-bit (DTS Core: 5.1 / 48 kHz / 1509 kbps / 24-bit)
Audio: English / Dolby TrueHD Audio / 5.1 / 48 kHz / 24-bit (AC3 Embedded: 5.1 / 48 kHz / 640 kbps)
Audio: English / LPCM Audio / 2.0 / 48 kHz / 2304 kbps / 24-bit
********************
PLAYLIST: 00002.MPLS
********************
<--- BEGIN FORUMS PASTE --->Код:
Код:
                                                                                Total   Video
Title                                                           Codec   Length  Movie Size      Disc Size       Bitrate Bitrate Main Audio Track                          Secondary Audio Track
-----                                                           ------  ------- --------------  --------------  ------- ------- ------------------                        ---------------------
00002.MPLS                                                      AVC     0:03:06 0               16,454,071,264  0.00    0.00    LPCM 5.1 6912Kbps (48kHz/24-bit)          DTS-HD Master 5.1 (48kHz/24-bit)

Код:
Код:
DISC INFO:
Disc Title:     THE BLURAY EXPERIENCE
Disc Size:      16,454,071,264 bytes
Protection:     AACS
BD-Java:        No
BDInfo:         0.5.4
PLAYLIST REPORT:
Name:                   00002.MPLS
Length:                 0:03:06 (h:m:s)
Size:                   0 bytes
Total Bitrate:          0.00 Mbps
VIDEO:
Codec                   Bitrate             Description
-----                   -------             -----------
MPEG-4 AVC Video        0 kbps              1080i / 29.970 fps / 16:9 / High Profile 4.1
AUDIO:
Codec                           Language        Bitrate         Description
-----                           --------        -------         -----------
LPCM Audio                      English         6912 kbps       5.1 / 48 kHz / 6912 kbps / 24-bit
DTS-HD Master Audio             English         0 kbps          5.1 / 48 kHz / 24-bit (DTS Core: 5.1 / 48 kHz / 1509 kbps / 24-bit)
Dolby TrueHD Audio              English         0 kbps          5.1 / 48 kHz / 24-bit (AC3 Embedded: 5.1 / 48 kHz / 640 kbps)
LPCM Audio                      English         2304 kbps       2.0 / 48 kHz / 2304 kbps / 24-bit
FILES:
Name            Time In         Length          Size            Total Bitrate
----            -------         ------          ----            -------------
00005.M2TS      0:00:00.000     0:03:06.219     0               0
CHAPTERS:
Number          Time In         Length          Avg Video Rate  Max 1-Sec Rate  Max 1-Sec Time  Max 5-Sec Rate  Max 5-Sec Time  Max 10Sec Rate  Max 10Sec Time  Avg Frame Size  Max Frame Size  Max Frame Time
------          -------         ------          --------------  --------------  --------------  --------------  --------------  --------------  --------------  --------------  --------------  --------------
1               0:00:00.000     0:03:06.219     0 kbps          0 kbps          00:00:00.000    0 kbps          00:00:00.000    0 kbps          00:00:00.000    0 bytes         0 bytes         00:00:00.000
STREAM DIAGNOSTICS:
File            PID             Type            Codec           Language                Seconds                 Bitrate                 Bytes           Packets
----            ---             ----            -----           --------                --------------          --------------          -------------   -----
00005.M2TS      4113 (0x1011)   0x1B            AVC                                     0                       0                       0               0
00005.M2TS      4352 (0x1100)   0x80            LPCM            eng (English)           0                       0                       0               0
00005.M2TS      4353 (0x1101)   0x80            LPCM            eng (English)           0                       0                       0               0
00005.M2TS      4354 (0x1102)   0x86            DTS-HD MA       eng (English)           0                       0                       0               0
00005.M2TS      4355 (0x1103)   0x83            TrueHD          eng (English)           0                       0                       0               0

<---- END FORUMS PASTE ---->
QUICK SUMMARY:
Disc Title: THE BLURAY EXPERIENCE
Disc Size: 16,454,071,264 bytes
Protection: AACS
BD-Java: No
Playlist: 00002.MPLS
Size: 0 bytes
Length: 0:03:06
Total Bitrate: 0.00 Mbps
Video: MPEG-4 AVC Video / 0 kbps / 1080i / 29.970 fps / 16:9 / High Profile 4.1
Audio: English / LPCM Audio / 5.1 / 48 kHz / 6912 kbps / 24-bit
Audio: English / DTS-HD Master Audio / 5.1 / 48 kHz / 24-bit (DTS Core: 5.1 / 48 kHz / 1509 kbps / 24-bit)
Audio: English / Dolby TrueHD Audio / 5.1 / 48 kHz / 24-bit (AC3 Embedded: 5.1 / 48 kHz / 640 kbps)
Audio: English / LPCM Audio / 2.0 / 48 kHz / 2304 kbps / 24-bit
********************
PLAYLIST: 00010.MPLS
********************
<--- BEGIN FORUMS PASTE --->Код:
Код:
                                                                                Total   Video
Title                                                           Codec   Length  Movie Size      Disc Size       Bitrate Bitrate Main Audio Track                          Secondary Audio Track
-----                                                           ------  ------- --------------  --------------  ------- ------- ------------------                        ---------------------
00010.MPLS                                                      AVC     0:02:57 0               16,454,071,264  0.00    0.00    LPCM 5.1 6912Kbps (48kHz/24-bit)          DTS-HD Master 5.1 (48kHz/24-bit)

Код:
Код:
DISC INFO:
Disc Title:     THE BLURAY EXPERIENCE
Disc Size:      16,454,071,264 bytes
Protection:     AACS
BD-Java:        No
BDInfo:         0.5.4
PLAYLIST REPORT:
Name:                   00010.MPLS
Length:                 0:02:57 (h:m:s)
Size:                   0 bytes
Total Bitrate:          0.00 Mbps
VIDEO:
Codec                   Bitrate             Description
-----                   -------             -----------
MPEG-4 AVC Video        0 kbps              1080i / 29.970 fps / 16:9 / High Profile 4.1
AUDIO:
Codec                           Language        Bitrate         Description
-----                           --------        -------         -----------
LPCM Audio                      English         6912 kbps       5.1 / 48 kHz / 6912 kbps / 24-bit
DTS-HD Master Audio             English         0 kbps          5.1 / 48 kHz / 24-bit (DTS Core: 5.1 / 48 kHz / 1509 kbps / 24-bit)
Dolby TrueHD Audio              English         0 kbps          5.1 / 48 kHz / 24-bit (AC3 Embedded: 5.1 / 48 kHz / 640 kbps)
LPCM Audio                      English         2304 kbps       2.0 / 48 kHz / 2304 kbps / 24-bit
FILES:
Name            Time In         Length          Size            Total Bitrate
----            -------         ------          ----            -------------
00005.M2TS      0:00:00.000     0:02:57.677     0               0
CHAPTERS:
Number          Time In         Length          Avg Video Rate  Max 1-Sec Rate  Max 1-Sec Time  Max 5-Sec Rate  Max 5-Sec Time  Max 10Sec Rate  Max 10Sec Time  Avg Frame Size  Max Frame Size  Max Frame Time
------          -------         ------          --------------  --------------  --------------  --------------  --------------  --------------  --------------  --------------  --------------  --------------
1               0:00:00.000     0:02:57.677     0 kbps          0 kbps          00:00:00.000    0 kbps          00:00:00.000    0 kbps          00:00:00.000    0 bytes         0 bytes         00:00:00.000
STREAM DIAGNOSTICS:
File            PID             Type            Codec           Language                Seconds                 Bitrate                 Bytes           Packets
----            ---             ----            -----           --------                --------------          --------------          -------------   -----
00005.M2TS      4113 (0x1011)   0x1B            AVC                                     0                       0                       0               0
00005.M2TS      4352 (0x1100)   0x80            LPCM            eng (English)           0                       0                       0               0
00005.M2TS      4353 (0x1101)   0x80            LPCM            eng (English)           0                       0                       0               0
00005.M2TS      4354 (0x1102)   0x86            DTS-HD MA       eng (English)           0                       0                       0               0
00005.M2TS      4355 (0x1103)   0x83            TrueHD          eng (English)           0                       0                       0               0

<---- END FORUMS PASTE ---->
QUICK SUMMARY:
Disc Title: THE BLURAY EXPERIENCE
Disc Size: 16,454,071,264 bytes
Protection: AACS
BD-Java: No
Playlist: 00010.MPLS
Size: 0 bytes
Length: 0:02:57
Total Bitrate: 0.00 Mbps
Video: MPEG-4 AVC Video / 0 kbps / 1080i / 29.970 fps / 16:9 / High Profile 4.1
Audio: English / LPCM Audio / 5.1 / 48 kHz / 6912 kbps / 24-bit
Audio: English / DTS-HD Master Audio / 5.1 / 48 kHz / 24-bit (DTS Core: 5.1 / 48 kHz / 1509 kbps / 24-bit)
Audio: English / Dolby TrueHD Audio / 5.1 / 48 kHz / 24-bit (AC3 Embedded: 5.1 / 48 kHz / 640 kbps)
Audio: English / LPCM Audio / 2.0 / 48 kHz / 2304 kbps / 24-bit
********************
PLAYLIST: 00001.MPLS
********************
<--- BEGIN FORUMS PASTE --->Код:
Код:
                                                                                Total   Video
Title                                                           Codec   Length  Movie Size      Disc Size       Bitrate Bitrate Main Audio Track                          Secondary Audio Track
-----                                                           ------  ------- --------------  --------------  ------- ------- ------------------                        ---------------------
00001.MPLS                                                      AVC     0:02:49 0               16,454,071,264  0.00    0.00    LPCM 5.1 6912Kbps (48kHz/24-bit)          DTS-HD Master 5.1 (48kHz/24-bit)

Код:
Код:
DISC INFO:
Disc Title:     THE BLURAY EXPERIENCE
Disc Size:      16,454,071,264 bytes
Protection:     AACS
BD-Java:        No
BDInfo:         0.5.4
PLAYLIST REPORT:
Name:                   00001.MPLS
Length:                 0:02:49 (h:m:s)
Size:                   0 bytes
Total Bitrate:          0.00 Mbps
VIDEO:
Codec                   Bitrate             Description
-----                   -------             -----------
MPEG-4 AVC Video        0 kbps              1080i / 29.970 fps / 16:9 / High Profile 4.1
AUDIO:
Codec                           Language        Bitrate         Description
-----                           --------        -------         -----------
LPCM Audio                      English         6912 kbps       5.1 / 48 kHz / 6912 kbps / 24-bit
DTS-HD Master Audio             English         0 kbps          5.1 / 48 kHz / 24-bit (DTS Core: 5.1 / 48 kHz / 1509 kbps / 24-bit)
Dolby TrueHD Audio              English         0 kbps          5.1 / 48 kHz / 24-bit (AC3 Embedded: 5.1 / 48 kHz / 640 kbps)
LPCM Audio                      English         2304 kbps       2.0 / 48 kHz / 2304 kbps / 24-bit
FILES:
Name            Time In         Length          Size            Total Bitrate
----            -------         ------          ----            -------------
00005.M2TS      0:00:00.000     0:02:49.802     0               0
CHAPTERS:
Number          Time In         Length          Avg Video Rate  Max 1-Sec Rate  Max 1-Sec Time  Max 5-Sec Rate  Max 5-Sec Time  Max 10Sec Rate  Max 10Sec Time  Avg Frame Size  Max Frame Size  Max Frame Time
------          -------         ------          --------------  --------------  --------------  --------------  --------------  --------------  --------------  --------------  --------------  --------------
1               0:00:00.000     0:02:49.802     0 kbps          0 kbps          00:00:00.000    0 kbps          00:00:00.000    0 kbps          00:00:00.000    0 bytes         0 bytes         00:00:00.000
STREAM DIAGNOSTICS:
File            PID             Type            Codec           Language                Seconds                 Bitrate                 Bytes           Packets
----            ---             ----            -----           --------                --------------          --------------          -------------   -----
00005.M2TS      4113 (0x1011)   0x1B            AVC                                     0                       0                       0               0
00005.M2TS      4352 (0x1100)   0x80            LPCM            eng (English)           0                       0                       0               0
00005.M2TS      4353 (0x1101)   0x80            LPCM            eng (English)           0                       0                       0               0
00005.M2TS      4354 (0x1102)   0x86            DTS-HD MA       eng (English)           0                       0                       0               0
00005.M2TS      4355 (0x1103)   0x83            TrueHD          eng (English)           0                       0                       0               0

<---- END FORUMS PASTE ---->
QUICK SUMMARY:
Disc Title: THE BLURAY EXPERIENCE
Disc Size: 16,454,071,264 bytes
Protection: AACS
BD-Java: No
Playlist: 00001.MPLS
Size: 0 bytes
Length: 0:02:49
Total Bitrate: 0.00 Mbps
Video: MPEG-4 AVC Video / 0 kbps / 1080i / 29.970 fps / 16:9 / High Profile 4.1
Audio: English / LPCM Audio / 5.1 / 48 kHz / 6912 kbps / 24-bit
Audio: English / DTS-HD Master Audio / 5.1 / 48 kHz / 24-bit (DTS Core: 5.1 / 48 kHz / 1509 kbps / 24-bit)
Audio: English / Dolby TrueHD Audio / 5.1 / 48 kHz / 24-bit (AC3 Embedded: 5.1 / 48 kHz / 640 kbps)
Audio: English / LPCM Audio / 2.0 / 48 kHz / 2304 kbps / 24-bit
********************
PLAYLIST: 00008.MPLS
********************
<--- BEGIN FORUMS PASTE --->Код:
Код:
                                                                                Total   Video
Title                                                           Codec   Length  Movie Size      Disc Size       Bitrate Bitrate Main Audio Track                          Secondary Audio Track
-----                                                           ------  ------- --------------  --------------  ------- ------- ------------------                        ---------------------
00008.MPLS                                                      AVC     0:02:42 0               16,454,071,264  0.00    0.00    LPCM 5.1 6912Kbps (48kHz/24-bit)          DTS-HD Master 5.1 (48kHz/24-bit)

Код:
Код:
DISC INFO:
Disc Title:     THE BLURAY EXPERIENCE
Disc Size:      16,454,071,264 bytes
Protection:     AACS
BD-Java:        No
BDInfo:         0.5.4
PLAYLIST REPORT:
Name:                   00008.MPLS
Length:                 0:02:42 (h:m:s)
Size:                   0 bytes
Total Bitrate:          0.00 Mbps
VIDEO:
Codec                   Bitrate             Description
-----                   -------             -----------
MPEG-4 AVC Video        0 kbps              1080i / 29.970 fps / 16:9 / High Profile 4.1
AUDIO:
Codec                           Language        Bitrate         Description
-----                           --------        -------         -----------
LPCM Audio                      English         6912 kbps       5.1 / 48 kHz / 6912 kbps / 24-bit
DTS-HD Master Audio             English         0 kbps          5.1 / 48 kHz / 24-bit (DTS Core: 5.1 / 48 kHz / 1509 kbps / 24-bit)
Dolby TrueHD Audio              English         0 kbps          5.1 / 48 kHz / 24-bit (AC3 Embedded: 5.1 / 48 kHz / 640 kbps)
LPCM Audio                      English         2304 kbps       2.0 / 48 kHz / 2304 kbps / 24-bit
FILES:
Name            Time In         Length          Size            Total Bitrate
----            -------         ------          ----            -------------
00005.M2TS      0:00:00.000     0:02:42.495     0               0
CHAPTERS:
Number          Time In         Length          Avg Video Rate  Max 1-Sec Rate  Max 1-Sec Time  Max 5-Sec Rate  Max 5-Sec Time  Max 10Sec Rate  Max 10Sec Time  Avg Frame Size  Max Frame Size  Max Frame Time
------          -------         ------          --------------  --------------  --------------  --------------  --------------  --------------  --------------  --------------  --------------  --------------
1               0:00:00.000     0:02:42.495     0 kbps          0 kbps          00:00:00.000    0 kbps          00:00:00.000    0 kbps          00:00:00.000    0 bytes         0 bytes         00:00:00.000
STREAM DIAGNOSTICS:
File            PID             Type            Codec           Language                Seconds                 Bitrate                 Bytes           Packets
----            ---             ----            -----           --------                --------------          --------------          -------------   -----
00005.M2TS      4113 (0x1011)   0x1B            AVC                                     0                       0                       0               0
00005.M2TS      4352 (0x1100)   0x80            LPCM            eng (English)           0                       0                       0               0
00005.M2TS      4353 (0x1101)   0x80            LPCM            eng (English)           0                       0                       0               0
00005.M2TS      4354 (0x1102)   0x86            DTS-HD MA       eng (English)           0                       0                       0               0
00005.M2TS      4355 (0x1103)   0x83            TrueHD          eng (English)           0                       0                       0               0

<---- END FORUMS PASTE ---->
QUICK SUMMARY:
Disc Title: THE BLURAY EXPERIENCE
Disc Size: 16,454,071,264 bytes
Protection: AACS
BD-Java: No
Playlist: 00008.MPLS
Size: 0 bytes
Length: 0:02:42
Total Bitrate: 0.00 Mbps
Video: MPEG-4 AVC Video / 0 kbps / 1080i / 29.970 fps / 16:9 / High Profile 4.1
Audio: English / LPCM Audio / 5.1 / 48 kHz / 6912 kbps / 24-bit
Audio: English / DTS-HD Master Audio / 5.1 / 48 kHz / 24-bit (DTS Core: 5.1 / 48 kHz / 1509 kbps / 24-bit)
Audio: English / Dolby TrueHD Audio / 5.1 / 48 kHz / 24-bit (AC3 Embedded: 5.1 / 48 kHz / 640 kbps)
Audio: English / LPCM Audio / 2.0 / 48 kHz / 2304 kbps / 24-bit
********************
PLAYLIST: 00013.MPLS
********************
<--- BEGIN FORUMS PASTE --->Код:
Код:
                                                                                Total   Video
Title                                                           Codec   Length  Movie Size      Disc Size       Bitrate Bitrate Main Audio Track                          Secondary Audio Track
-----                                                           ------  ------- --------------  --------------  ------- ------- ------------------                        ---------------------
00013.MPLS                                                      AVC     0:02:38 0               16,454,071,264  0.00    0.00    LPCM 5.1 6912Kbps (48kHz/24-bit)          DTS-HD Master 5.1 (48kHz/24-bit)

Код:
Код:
DISC INFO:
Disc Title:     THE BLURAY EXPERIENCE
Disc Size:      16,454,071,264 bytes
Protection:     AACS
BD-Java:        No
BDInfo:         0.5.4
PLAYLIST REPORT:
Name:                   00013.MPLS
Length:                 0:02:38 (h:m:s)
Size:                   0 bytes
Total Bitrate:          0.00 Mbps
VIDEO:
Codec                   Bitrate             Description
-----                   -------             -----------
MPEG-4 AVC Video        0 kbps              1080i / 29.970 fps / 16:9 / High Profile 4.1
AUDIO:
Codec                           Language        Bitrate         Description
-----                           --------        -------         -----------
LPCM Audio                      English         6912 kbps       5.1 / 48 kHz / 6912 kbps / 24-bit
DTS-HD Master Audio             English         0 kbps          5.1 / 48 kHz / 24-bit (DTS Core: 5.1 / 48 kHz / 1509 kbps / 24-bit)
Dolby TrueHD Audio              English         0 kbps          5.1 / 48 kHz / 24-bit (AC3 Embedded: 5.1 / 48 kHz / 640 kbps)
LPCM Audio                      English         2304 kbps       2.0 / 48 kHz / 2304 kbps / 24-bit
FILES:
Name            Time In         Length          Size            Total Bitrate
----            -------         ------          ----            -------------
00005.M2TS      0:00:00.000     0:02:38.691     0               0
CHAPTERS:
Number          Time In         Length          Avg Video Rate  Max 1-Sec Rate  Max 1-Sec Time  Max 5-Sec Rate  Max 5-Sec Time  Max 10Sec Rate  Max 10Sec Time  Avg Frame Size  Max Frame Size  Max Frame Time
------          -------         ------          --------------  --------------  --------------  --------------  --------------  --------------  --------------  --------------  --------------  --------------
1               0:00:00.000     0:02:38.691     0 kbps          0 kbps          00:00:00.000    0 kbps          00:00:00.000    0 kbps          00:00:00.000    0 bytes         0 bytes         00:00:00.000
STREAM DIAGNOSTICS:
File            PID             Type            Codec           Language                Seconds                 Bitrate                 Bytes           Packets
----            ---             ----            -----           --------                --------------          --------------          -------------   -----
00005.M2TS      4113 (0x1011)   0x1B            AVC                                     0                       0                       0               0
00005.M2TS      4352 (0x1100)   0x80            LPCM            eng (English)           0                       0                       0               0
00005.M2TS      4353 (0x1101)   0x80            LPCM            eng (English)           0                       0                       0               0
00005.M2TS      4354 (0x1102)   0x86            DTS-HD MA       eng (English)           0                       0                       0               0
00005.M2TS      4355 (0x1103)   0x83            TrueHD          eng (English)           0                       0                       0               0

<---- END FORUMS PASTE ---->
QUICK SUMMARY:
Disc Title: THE BLURAY EXPERIENCE
Disc Size: 16,454,071,264 bytes
Protection: AACS
BD-Java: No
Playlist: 00013.MPLS
Size: 0 bytes
Length: 0:02:38
Total Bitrate: 0.00 Mbps
Video: MPEG-4 AVC Video / 0 kbps / 1080i / 29.970 fps / 16:9 / High Profile 4.1
Audio: English / LPCM Audio / 5.1 / 48 kHz / 6912 kbps / 24-bit
Audio: English / DTS-HD Master Audio / 5.1 / 48 kHz / 24-bit (DTS Core: 5.1 / 48 kHz / 1509 kbps / 24-bit)
Audio: English / Dolby TrueHD Audio / 5.1 / 48 kHz / 24-bit (AC3 Embedded: 5.1 / 48 kHz / 640 kbps)
Audio: English / LPCM Audio / 2.0 / 48 kHz / 2304 kbps / 24-bit
********************
PLAYLIST: 00005.MPLS
********************
<--- BEGIN FORUMS PASTE --->Код:
Код:
                                                                                Total   Video
Title                                                           Codec   Length  Movie Size      Disc Size       Bitrate Bitrate Main Audio Track                          Secondary Audio Track
-----                                                           ------  ------- --------------  --------------  ------- ------- ------------------                        ---------------------
00005.MPLS                                                      AVC     0:02:20 0               16,454,071,264  0.00    0.00    LPCM 5.1 6912Kbps (48kHz/24-bit)          DTS-HD Master 5.1 (48kHz/24-bit)

Код:
Код:
DISC INFO:
Disc Title:     THE BLURAY EXPERIENCE
Disc Size:      16,454,071,264 bytes
Protection:     AACS
BD-Java:        No
BDInfo:         0.5.4
PLAYLIST REPORT:
Name:                   00005.MPLS
Length:                 0:02:20 (h:m:s)
Size:                   0 bytes
Total Bitrate:          0.00 Mbps
VIDEO:
Codec                   Bitrate             Description
-----                   -------             -----------
MPEG-4 AVC Video        0 kbps              1080i / 29.970 fps / 16:9 / High Profile 4.1
AUDIO:
Codec                           Language        Bitrate         Description
-----                           --------        -------         -----------
LPCM Audio                      English         6912 kbps       5.1 / 48 kHz / 6912 kbps / 24-bit
DTS-HD Master Audio             English         0 kbps          5.1 / 48 kHz / 24-bit (DTS Core: 5.1 / 48 kHz / 1509 kbps / 24-bit)
Dolby TrueHD Audio              English         0 kbps          5.1 / 48 kHz / 24-bit (AC3 Embedded: 5.1 / 48 kHz / 640 kbps)
LPCM Audio                      English         2304 kbps       2.0 / 48 kHz / 2304 kbps / 24-bit
FILES:
Name            Time In         Length          Size            Total Bitrate
----            -------         ------          ----            -------------
00005.M2TS      0:00:00.000     0:02:20.640     0               0
CHAPTERS:
Number          Time In         Length          Avg Video Rate  Max 1-Sec Rate  Max 1-Sec Time  Max 5-Sec Rate  Max 5-Sec Time  Max 10Sec Rate  Max 10Sec Time  Avg Frame Size  Max Frame Size  Max Frame Time
------          -------         ------          --------------  --------------  --------------  --------------  --------------  --------------  --------------  --------------  --------------  --------------
1               0:00:00.000     0:02:20.640     0 kbps          0 kbps          00:00:00.000    0 kbps          00:00:00.000    0 kbps          00:00:00.000    0 bytes         0 bytes         00:00:00.000
STREAM DIAGNOSTICS:
File            PID             Type            Codec           Language                Seconds                 Bitrate                 Bytes           Packets
----            ---             ----            -----           --------                --------------          --------------          -------------   -----
00005.M2TS      4113 (0x1011)   0x1B            AVC                                     0                       0                       0               0
00005.M2TS      4352 (0x1100)   0x80            LPCM            eng (English)           0                       0                       0               0
00005.M2TS      4353 (0x1101)   0x80            LPCM            eng (English)           0                       0                       0               0
00005.M2TS      4354 (0x1102)   0x86            DTS-HD MA       eng (English)           0                       0                       0               0
00005.M2TS      4355 (0x1103)   0x83            TrueHD          eng (English)           0                       0                       0               0

<---- END FORUMS PASTE ---->
QUICK SUMMARY:
Disc Title: THE BLURAY EXPERIENCE
Disc Size: 16,454,071,264 bytes
Protection: AACS
BD-Java: No
Playlist: 00005.MPLS
Size: 0 bytes
Length: 0:02:20
Total Bitrate: 0.00 Mbps
Video: MPEG-4 AVC Video / 0 kbps / 1080i / 29.970 fps / 16:9 / High Profile 4.1
Audio: English / LPCM Audio / 5.1 / 48 kHz / 6912 kbps / 24-bit
Audio: English / DTS-HD Master Audio / 5.1 / 48 kHz / 24-bit (DTS Core: 5.1 / 48 kHz / 1509 kbps / 24-bit)
Audio: English / Dolby TrueHD Audio / 5.1 / 48 kHz / 24-bit (AC3 Embedded: 5.1 / 48 kHz / 640 kbps)
Audio: English / LPCM Audio / 2.0 / 48 kHz / 2304 kbps / 24-bit
********************
PLAYLIST: 00007.MPLS
********************
<--- BEGIN FORUMS PASTE --->Код:
Код:
                                                                                Total   Video
Title                                                           Codec   Length  Movie Size      Disc Size       Bitrate Bitrate Main Audio Track                          Secondary Audio Track
-----                                                           ------  ------- --------------  --------------  ------- ------- ------------------                        ---------------------
00007.MPLS                                                      AVC     0:02:09 0               16,454,071,264  0.00    0.00    LPCM 5.1 6912Kbps (48kHz/24-bit)          DTS-HD Master 5.1 (48kHz/24-bit)

Код:
Код:
DISC INFO:
Disc Title:     THE BLURAY EXPERIENCE
Disc Size:      16,454,071,264 bytes
Protection:     AACS
BD-Java:        No
BDInfo:         0.5.4
PLAYLIST REPORT:
Name:                   00007.MPLS
Length:                 0:02:09 (h:m:s)
Size:                   0 bytes
Total Bitrate:          0.00 Mbps
VIDEO:
Codec                   Bitrate             Description
-----                   -------             -----------
MPEG-4 AVC Video        0 kbps              1080i / 29.970 fps / 16:9 / High Profile 4.1
AUDIO:
Codec                           Language        Bitrate         Description
-----                           --------        -------         -----------
LPCM Audio                      English         6912 kbps       5.1 / 48 kHz / 6912 kbps / 24-bit
DTS-HD Master Audio             English         0 kbps          5.1 / 48 kHz / 24-bit (DTS Core: 5.1 / 48 kHz / 1509 kbps / 24-bit)
Dolby TrueHD Audio              English         0 kbps          5.1 / 48 kHz / 24-bit (AC3 Embedded: 5.1 / 48 kHz / 640 kbps)
LPCM Audio                      English         2304 kbps       2.0 / 48 kHz / 2304 kbps / 24-bit
FILES:
Name            Time In         Length          Size            Total Bitrate
----            -------         ------          ----            -------------
00005.M2TS      0:00:00.000     0:02:09.062     0               0
CHAPTERS:
Number          Time In         Length          Avg Video Rate  Max 1-Sec Rate  Max 1-Sec Time  Max 5-Sec Rate  Max 5-Sec Time  Max 10Sec Rate  Max 10Sec Time  Avg Frame Size  Max Frame Size  Max Frame Time
------          -------         ------          --------------  --------------  --------------  --------------  --------------  --------------  --------------  --------------  --------------  --------------
1               0:00:00.000     0:02:09.062     0 kbps          0 kbps          00:00:00.000    0 kbps          00:00:00.000    0 kbps          00:00:00.000    0 bytes         0 bytes         00:00:00.000
STREAM DIAGNOSTICS:
File            PID             Type            Codec           Language                Seconds                 Bitrate                 Bytes           Packets
----            ---             ----            -----           --------                --------------          --------------          -------------   -----
00005.M2TS      4113 (0x1011)   0x1B            AVC                                     0                       0                       0               0
00005.M2TS      4352 (0x1100)   0x80            LPCM            eng (English)           0                       0                       0               0
00005.M2TS      4353 (0x1101)   0x80            LPCM            eng (English)           0                       0                       0               0
00005.M2TS      4354 (0x1102)   0x86            DTS-HD MA       eng (English)           0                       0                       0               0
00005.M2TS      4355 (0x1103)   0x83            TrueHD          eng (English)           0                       0                       0               0

<---- END FORUMS PASTE ---->
QUICK SUMMARY:
Disc Title: THE BLURAY EXPERIENCE
Disc Size: 16,454,071,264 bytes
Protection: AACS
BD-Java: No
Playlist: 00007.MPLS
Size: 0 bytes
Length: 0:02:09
Total Bitrate: 0.00 Mbps
Video: MPEG-4 AVC Video / 0 kbps / 1080i / 29.970 fps / 16:9 / High Profile 4.1
Audio: English / LPCM Audio / 5.1 / 48 kHz / 6912 kbps / 24-bit
Audio: English / DTS-HD Master Audio / 5.1 / 48 kHz / 24-bit (DTS Core: 5.1 / 48 kHz / 1509 kbps / 24-bit)
Audio: English / Dolby TrueHD Audio / 5.1 / 48 kHz / 24-bit (AC3 Embedded: 5.1 / 48 kHz / 640 kbps)
Audio: English / LPCM Audio / 2.0 / 48 kHz / 2304 kbps / 24-bit
********************
PLAYLIST: 00014.MPLS
********************
<--- BEGIN FORUMS PASTE --->Код:
Код:
                                                                                Total   Video
Title                                                           Codec   Length  Movie Size      Disc Size       Bitrate Bitrate Main Audio Track                          Secondary Audio Track
-----                                                           ------  ------- --------------  --------------  ------- ------- ------------------                        ---------------------
00014.MPLS                                                      AVC     0:00:20 0               16,454,071,264  0.00    0.00

Код:
Код:
DISC INFO:
Disc Title:     THE BLURAY EXPERIENCE
Disc Size:      16,454,071,264 bytes
Protection:     AACS
BD-Java:        No
BDInfo:         0.5.4
PLAYLIST REPORT:
Name:                   00014.MPLS
Length:                 0:00:20 (h:m:s)
Size:                   0 bytes
Total Bitrate:          0.00 Mbps
VIDEO:
Codec                   Bitrate             Description
-----                   -------             -----------
MPEG-4 AVC Video        0 kbps              1080i / 29.970 fps / 16:9 / High Profile 4.1
FILES:
Name            Time In         Length          Size            Total Bitrate
----            -------         ------          ----            -------------
00000.M2TS      0:00:00.000     0:00:14.014     0               0
00001.M2TS      0:00:14.014     0:00:06.940     0               0
CHAPTERS:
Number          Time In         Length          Avg Video Rate  Max 1-Sec Rate  Max 1-Sec Time  Max 5-Sec Rate  Max 5-Sec Time  Max 10Sec Rate  Max 10Sec Time  Avg Frame Size  Max Frame Size  Max Frame Time
------          -------         ------          --------------  --------------  --------------  --------------  --------------  --------------  --------------  --------------  --------------  --------------
1               0:00:00.000     0:00:14.014     0 kbps          0 kbps          00:00:00.000    0 kbps          00:00:00.000    0 kbps          00:00:00.000    0 bytes         0 bytes         00:00:00.000
2               0:00:14.014     0:00:06.940     0 kbps          0 kbps          00:00:00.000    0 kbps          00:00:00.000    0 kbps          00:00:00.000    0 bytes         0 bytes         00:00:00.000
STREAM DIAGNOSTICS:
File            PID             Type            Codec           Language                Seconds                 Bitrate                 Bytes           Packets
----            ---             ----            -----           --------                --------------          --------------          -------------   -----
00000.M2TS      4113 (0x1011)   0x1B            AVC                                     0                       0                       0               0
00001.M2TS      4113 (0x1011)   0x1B            AVC                                     0                       0                       0               0

<---- END FORUMS PASTE ---->
QUICK SUMMARY:
Disc Title: THE BLURAY EXPERIENCE
Disc Size: 16,454,071,264 bytes
Protection: AACS
BD-Java: No
Playlist: 00014.MPLS
Size: 0 bytes
Length: 0:00:20
Total Bitrate: 0.00 Mbps
Video: MPEG-4 AVC Video / 0 kbps / 1080i / 29.970 fps / 16:9 / High Profile 4.1
Правила, инструкции, FAQ!!!
Торрент  Добавлен [05 июн 2020, 23:18] Скачать торрент Магнет ссылка
Скачать торрент
[ Размер 80.06 КБ / Просмотров 5 ]

Статус
Проверен 
 
Размер  15.32 ГБ
Приватный: Нет (DHT включён)
.torrent скачан  0
 


     Отправить личное сообщение
   
Страница 1 из 1
Показать сообщения за:  Поле сортировки  
Начать новую тему Ответить на тему


Сейчас этот форум просматривают: нет зарегистрированных пользователей и гости: 0


Вы не можете начинать темы
Вы не можете отвечать на сообщения
Вы не можете редактировать свои сообщения
Вы не можете удалять свои сообщения
Вы не можете добавлять вложения

Перейти:  
cron