Начать новую тему Ответить на тему
Статистика раздачи
Размер: 246.58 МБ | Добавлен: 26 июн 2020, 17:43 | Скачали: 0
Сидеров: 0  [0 байт/сек]    Личеров: 0  [0 байт/сек]
Пред. тема | След. тема 

Автор
Сообщение

СообщениеДобавлено: 26 июн 2020, 17:43 

Ответить с цитатой 

Container 90 / Scandinavian Masters
Жанр: Oldschool EBM
Страна-производитель диска: Sweden
Год издания диска: 2009
Издатель (лейбл): Sham Recordings
Номер по каталогу: Sham cdA 005
Формат: CD, Album, Repress, 300 copies (переиздание альбома 2006 года)
Аудиокодек: FLAC (*.flac)
Тип рипа: image+.cue
Битрейт аудио: lossless
Продолжительность: 0:32:05.40
Источник (релизер): Физический носитель (Собственный рип с оригинального CD).
Наличие сканов в содержимом раздачи: да
Треклист:
01. Prolog (On Kingsroad At 4 PM) [1:05]
02. No Future [2:32]
03. EBM Radio [2:45]
04. Oldschool 84 [2:47]
05. Ink [3:11]
06. Showdown [4:32]
07. Life Is A Bitch [2:44]
08. D.I.Y. [2:52]
09. Hatebreed [3:09]
10. United [2:49]
11. The Zoo [3:41]
Код:
Exact Audio Copy V1.0 beta 3 from 29. August 2011
EAC extraction logfile from 3. February 2012, 0:41
Container 90 / Scandinavian Masters
Used drive  : PLEXTOR BDDVDR PX-B320SA   Adapter: 0  ID: 2
Read mode               : Secure
Utilize accurate stream : Yes
Defeat audio cache      : Yes
Make use of C2 pointers : No
Read offset correction                      : 6
Overread into Lead-In and Lead-Out          : No
Fill up missing offset samples with silence : Yes
Delete leading and trailing silent blocks   : No
Null samples used in CRC calculations       : Yes
Used interface                              : Native Win32 interface for Win NT & 2000
Used output format              : User Defined Encoder
Selected bitrate                : 128 kBit/s
Quality                         : High
Add ID3 tag                     : No
Command line compressor         : C:\Program Files (x86)\FLAC\flac.exe
Additional command line options : -V -8 -T "Date=%year%" -T "Genre=%genre%" %source%
TOC of the extracted CD
     Track |   Start  |  Length  | Start sector | End sector
    ---------------------------------------------------------
        1  |  0:00.00 |  1:04.44 |         0    |     4843
        2  |  1:04.44 |  2:31.65 |      4844    |    16233
        3  |  3:36.34 |  2:45.16 |     16234    |    28624
        4  |  6:21.50 |  2:46.60 |     28625    |    41134
        5  |  9:08.35 |  3:10.58 |     41135    |    55442
        6  | 12:19.18 |  4:31.43 |     55443    |    75810
        7  | 16:50.61 |  2:43.44 |     75811    |    88079
        8  | 19:34.30 |  2:52.30 |     88080    |   101009
        9  | 22:26.60 |  3:09.32 |    101010    |   115216
       10  | 25:36.17 |  2:48.45 |    115217    |   127861
       11  | 28:24.62 |  3:40.53 |    127862    |   144414
Range status and errors
Selected range
     Filename D:\Container 90 - Scandinavian Masters (2009)\Container 90 - Scandinavian Masters.wav
     Peak level 100.0 %
     Extraction speed 7.0 X
     Range quality 100.0 %
     Test CRC 57FDE3D5
     Copy CRC 57FDE3D5
     Copy OK
No errors occurred
AccurateRip summary
Track  1  accurately ripped (confidence 1)  [224AC08C]  (AR v1)
Track  2  accurately ripped (confidence 1)  [9CDEEC85]  (AR v1)
Track  3  accurately ripped (confidence 1)  [B5317B20]  (AR v1)
Track  4  accurately ripped (confidence 1)  [A2847761]  (AR v1)
Track  5  accurately ripped (confidence 1)  [C534A664]  (AR v1)
Track  6  accurately ripped (confidence 1)  [5F355328]  (AR v1)
Track  7  accurately ripped (confidence 1)  [F63176B6]  (AR v1)
Track  8  accurately ripped (confidence 1)  [B85E86A0]  (AR v1)
Track  9  accurately ripped (confidence 1)  [ACB7E8DF]  (AR v1)
Track 10  accurately ripped (confidence 1)  [34FB96C2]  (AR v1)
Track 11  accurately ripped (confidence 1)  [8506CC7B]  (AR v1)
All tracks accurately ripped
End of status report
==== Log checksum 43E15D567C1FF17022DC13E420AC6C963F4DB4713CB11B3589BB6A3509DE1AA5 ====
Правила, инструкции, FAQ!!!
Торрент  Добавлен [26 июн 2020, 17:43] Скачать торрент Магнет ссылка
Скачать торрент
[ Размер 20.27 КБ / Просмотров 4 ]

Статус
Проверен 
 
Размер  246.58 МБ
Приватный: Нет (DHT включён)
.torrent скачан  0
 


     Отправить личное сообщение
   
Страница 1 из 1
Показать сообщения за:  Поле сортировки  
Начать новую тему Ответить на тему


Сейчас этот форум просматривают: нет зарегистрированных пользователей и гости: 0


Вы не можете начинать темы
Вы не можете отвечать на сообщения
Вы не можете редактировать свои сообщения
Вы не можете удалять свои сообщения
Вы не можете добавлять вложения

Перейти:  
cron