Начать новую тему Ответить на тему
Статистика раздачи
Размер: 318.14 МБ | Добавлен: 26 июн 2020, 17:52 | Скачали: 0
Сидеров: 1  [0 байт/сек]    Личеров: 0  [0 байт/сек]
Пред. тема | След. тема 

Автор
Сообщение

СообщениеДобавлено: 26 июн 2020, 17:52 

Ответить с цитатой 

Nitzer Ebb - Big Hit (1995)
Жанр: Old school EBM
Год выпуска диска: 1995
Производитель диска: UK
Аудио кодек: FLAC
Тип рипа: tracks
Продолжительность: 46:45
Трэклист:
[05:30] 01. Cherry Blossom
[04:07] 02. Hear Me Say
[03:39] 03. Kick It
[05:16] 04. I Thought
[03:35] 05. Floodwater
[03:25] 06. Border Talk
[05:36] 07. In Decline
[05:41] 08. Living Out Of A Bag
[04:17] 09. Boy
[05:37] 10. Our Own World
Exact Audio Copy V0.99 prebeta 5 from 4. May 2009
Отчёт EAC об извлечении, выполненном 29. января 2010, 11:54
Nitzer Ebb / Big Hit (CDSTUMM118)
Дисковод: _NEC DVD_RW ND-4550A Adapter: 0 ID: 2
Режим чтения : Достоверность
Использование точного потока : Да
Отключение кэша аудио : Да
Использование указателей C2 : Нет
Коррекция смещения при чтении : 48
Способность читать области Lead-in и Lead-out : Нет
Заполнение пропущенных сэмплов тишиной : Да
Удаление блоков с тишиной в начале и конце : Нет
При вычислениях CRC использовались нулевые сэмплы : Да
Интерфейс : Встроенный Win32-интерфейс для Win NT/2000
Обработка зазоров : Добавлено к предыдущему треку
Выходной формат : Пользовательский кодировщик
Выбранный битрейт : 1024 kBit/s
Качество : Высокий
Добавление ID3-тэга : Нет
Утилита сжатия : C:\Program Files\FLAC\flac.exe
Дополнительные параметры : -8 -V -T "ARTIST=%a" -T "TITLE=%t" -T "ALBUM=%g" -T "DATE=%y" -T "TRACKNUMBER=%n" -T "GENGE=%m" -T "COMMENT=EAC FLAC -8" %s
TOC извлечённого CD
Трек | Старт | Длительность | Начальный сектор | Конечный сектор
---------------------------------------------------------------------
1 | 0:00.00 | 5:30.17 | 0 | 24766
2 | 5:30.17 | 4:07.03 | 24767 | 43294
3 | 9:37.20 | 3:39.05 | 43295 | 59724
4 | 13:16.25 | 5:16.10 | 59725 | 83434
5 | 18:32.35 | 3:35.52 | 83435 | 99611
6 | 22:08.12 | 3:25.08 | 99612 | 114994
7 | 25:33.20 | 5:36.65 | 114995 | 140259
8 | 31:10.10 | 5:41.15 | 140260 | 165849
9 | 36:51.25 | 4:17.10 | 165850 | 185134
10 | 41:08.35 | 5:37.05 | 185135 | 210414
Трек 1
Имя файла C:\Music\01-Cherry Blossom.wav
Длина предзазора 0:00:02.00
Пиковый уровень 99.2 %
Качество трека 100.0 %
CRC теста AEA9A4EF
CRC копии AEA9A4EF
Копирование... OK
Трек 2
Имя файла C:\Music\02-Hear Me Say.wav
Пиковый уровень 99.2 %
Качество трека 99.9 %
CRC теста FF310C50
CRC копии FF310C50
Копирование... OK
Трек 3
Имя файла C:\Music\03-Kick It.wav
Длина предзазора 0:00:00.01
Пиковый уровень 99.2 %
Качество трека 100.0 %
CRC теста 89BFC4A7
CRC копии 89BFC4A7
Копирование... OK
Трек 4
Имя файла C:\Music\04-I Thought.wav
Длина предзазора 0:00:00.02
Пиковый уровень 99.2 %
Качество трека 99.9 %
CRC теста 6CC225EB
CRC копии 6CC225EB
Копирование... OK
Трек 5
Имя файла C:\Music\05-Floodwater.wav
Длина предзазора 0:00:00.02
Пиковый уровень 99.2 %
Качество трека 100.0 %
CRC теста EEBCF357
CRC копии EEBCF357
Копирование... OK
Трек 6
Имя файла C:\Music\06-Border Talk.wav
Пиковый уровень 99.2 %
Качество трека 100.0 %
CRC теста CD38A66E
CRC копии CD38A66E
Копирование... OK
Трек 7
Имя файла C:\Music\07-In Decline.wav
Длина предзазора 0:00:00.02
Пиковый уровень 99.2 %
Качество трека 100.0 %
CRC теста 8372A4C6
CRC копии 8372A4C6
Копирование... OK
Трек 8
Имя файла C:\Music\08-Living Out Of A Bag.wav
Длина предзазора 0:00:00.01
Пиковый уровень 99.2 %
Качество трека 100.0 %
CRC теста 542EF8F4
CRC копии 542EF8F4
Копирование... OK
Трек 9
Имя файла C:\Music\09-Boy.wav
Длина предзазора 0:00:02.16
Пиковый уровень 99.2 %
Качество трека 100.0 %
CRC теста C91B87A1
CRC копии C91B87A1
Копирование... OK
Трек 10
Имя файла C:\Music\10-Our Own World.wav
Пиковый уровень 99.2 %
Качество трека 99.9 %
CRC теста 76701158
CRC копии 76701158
Копирование... OK
Ошибок не произошло
Конец отчёта
Доп. информация: Диск 1995 года выпуска, потрековый рип, сканы прилагаются.
Правила, инструкции, FAQ!!!
Торрент  Добавлен [26 июн 2020, 17:52] Скачать торрент Магнет ссылка
Скачать торрент
[ Размер 13.81 КБ / Просмотров 12 ]

Статус
Проверен 
 
Размер  318.14 МБ
Приватный: Нет (DHT включён)
.torrent скачан  0
 


     Отправить личное сообщение
   
Страница 1 из 1
Показать сообщения за:  Поле сортировки  
Начать новую тему Ответить на тему


Сейчас этот форум просматривают: нет зарегистрированных пользователей и гости: 0


Вы не можете начинать темы
Вы не можете отвечать на сообщения
Вы не можете редактировать свои сообщения
Вы не можете удалять свои сообщения
Вы не можете добавлять вложения

Перейти:  
cron