Начать новую тему Ответить на тему
Статистика раздачи
Размер: 806.83 МБ | Добавлен: 26 июн 2020, 20:41 | Скачали: 0
Сидеров: 0  [0 байт/сек]    Личеров: 0  [0 байт/сек]
Пред. тема | След. тема 

Автор
Сообщение

СообщениеДобавлено: 26 июн 2020, 20:41 

Ответить с цитатой 

Fair Sex, The / The Dark Ages [ 2CD ]
Жанр: Old School EBM, Industrial
Страна-производитель диска: USA
Год издания диска: 2002
Издатель (лейбл): Van Richter
Номер по каталогу: VR1019
Страна: Germany
Аудиокодек: FLAC (*.flac)
Тип рипа: image+.cue
Битрейт аудио: lossless
Продолжительность: 00:49:25 + 00:51:04
Источник (релизер): Личный СД
Наличие сканов в содержимом раздачи: да ( TIFF/ 600 dpi )
Треклист:
01. Divine Service 5:06
02. The Pain That No One Knows 3:36
03. The Black Anger 3:19
04. Hanging In Kareyth 5:36
05. Bushman 90 3:58
06. Atrocity 5:02
07. The Jumping 3:44
08. To The Cellar 3:25
09. Faceless 6:17
10. Nervous Jesus 3:55
11. The Odour Of Rottenness 1:46
12. Beautiful Nightmare: The Number One 3:36
CD2
01. No Excuse 4:44
02. The House Of Unkinds 3:44
03. The Naked And The Dead 5:16
04. Helpless Fall 4:23
05. Boredom Kills 3:38
06. What The Devil 4:55
07. The Wild Ones Fade 5:28
08. Alyens 2:34
09. Machine 3:31
10. Jungle 3:45
11. ATR 4:55
12. Forbidden Pleasure 0:22
13. Children Of The Revolution
Код:
Exact Audio Copy V0.99 prebeta 5 from 4. May 2009
Отчёт EAC об извлечении, выполненном 10. сентября 2011, 23:03
Tha Fair Sex / The Dark Ages
Дисковод: Optiarc DVD RW AD-7201S   Adapter: 2  ID: 1
Режим чтения                 : Достоверность
Использование точного потока : Да
Отключение кэша аудио        : Да
Использование указателей C2  : Нет
Коррекция смещения при чтении                     : 48
Способность читать области Lead-in и Lead-out     : Нет
Заполнение пропущенных сэмплов тишиной            : Да
Удаление блоков с тишиной в начале и конце        : Нет
При вычислениях CRC использовались нулевые сэмплы : Да
Интерфейс                                         : Встроенный Win32-интерфейс для Win NT/2000
Выходной формат : Внутренние WAV-операции
Формат сэмплов  : 44.100 Гц; 16 бит; стерео
TOC извлечённого CD
     Трек |   Старт  | Длительность | Начальный сектор | Конечный сектор
    ---------------------------------------------------------------------
       1  |  0:00.00 |    5:10.72   |           0      |      23321
       2  |  5:10.72 |    3:42.25   |       23322      |      39996
       3  |  8:53.22 |    3:22.30   |       39997      |      55176
       4  | 12:15.52 |    5:34.58   |       55177      |      80284
       5  | 17:50.35 |    3:35.70   |       80285      |      96479
       6  | 21:26.30 |    5:03.72   |       96480      |     119276
       7  | 26:30.27 |    3:45.11   |      119277      |     136162
       8  | 30:15.38 |    3:24.13   |      136163      |     151475
       9  | 33:39.51 |    6:21.50   |      151476      |     180100
      10  | 40:01.26 |    3:59.13   |      180101      |     198038
      11  | 44:00.39 |    1:48.38   |      198039      |     206176
      12  | 45:49.02 |    3:36.69   |      206177      |     222445
Характеристики диапазона извлечения и сообщения об ошибках
Выбранный диапазон
     Имя файла G:\Раздачи Rodexx\Fair Sex, The – The Dark Ages\Tha Fair Sex - The Dark Ages.wav
     Пиковый уровень 89.1 %
     Качество диапазона 100.0 %
     CRC теста A0785ED4
     CRC копии A0785ED4
     Копирование... OK
Ошибок не произошло
AccurateRip: сводка
Трек  1  точное извлечение (доверие 2)  [207FECF0]
Трек  2  точное извлечение (доверие 2)  [9EF02222]
Трек  3  точное извлечение (доверие 2)  [0DDDCA49]
Трек  4  точное извлечение (доверие 2)  [2A507E70]
Трек  5  точное извлечение (доверие 2)  [DB373F62]
Трек  6  точное извлечение (доверие 2)  [165DD663]
Трек  7  точное извлечение (доверие 2)  [2DF343CB]
Трек  8  точное извлечение (доверие 2)  [4C3A14F8]
Трек  9  нет в базе данных
Трек 10  точное извлечение (доверие 2)  [19B040F9]
Трек 11  нет в базе данных
Трек 12  точное извлечение (доверие 2)  [709434A8]
10 трек(и) скопированы точно
 2 трек(и) не содержатся в базе AccurateRip
Некоторые треки не прошли проверку на точность
Конец отчёта
=======================================================================================
Exact Audio Copy V0.99 prebeta 5 from 4. May 2009
Отчёт EAC об извлечении, выполненном 10. сентября 2011, 23:18
The Fair Sex / The Dark Ages CD2
Дисковод: Optiarc DVD RW AD-7201S   Adapter: 2  ID: 1
Режим чтения                 : Достоверность
Использование точного потока : Да
Отключение кэша аудио        : Да
Использование указателей C2  : Нет
Коррекция смещения при чтении                     : 48
Способность читать области Lead-in и Lead-out     : Нет
Заполнение пропущенных сэмплов тишиной            : Да
Удаление блоков с тишиной в начале и конце        : Нет
При вычислениях CRC использовались нулевые сэмплы : Да
Интерфейс                                         : Встроенный Win32-интерфейс для Win NT/2000
Выходной формат : Внутренние WAV-операции
Формат сэмплов  : 44.100 Гц; 16 бит; стерео
TOC извлечённого CD
     Трек |   Старт  | Длительность | Начальный сектор | Конечный сектор
    ---------------------------------------------------------------------
       1  |  0:00.00 |    4:46.11   |           0      |      21460
       2  |  4:46.11 |    3:46.21   |       21461      |      38431
       3  |  8:32.32 |    5:16.09   |       38432      |      62140
       4  | 13:48.41 |    4:24.18   |       62141      |      81958
       5  | 18:12.59 |    3:38.03   |       81959      |      98311
       6  | 21:50.62 |    4:55.52   |       98312      |     120488
       7  | 26:46.39 |    5:28.46   |      120489      |     145134
       8  | 32:15.10 |    2:35.51   |      145135      |     156810
       9  | 34:50.61 |    3:35.12   |      156811      |     172947
      10  | 38:25.73 |    3:48.06   |      172948      |     190053
      11  | 42:14.04 |    4:55.67   |      190054      |     212245
      12  | 47:09.71 |    0:23.02   |      212246      |     213972
      13  | 47:32.73 |    3:31.22   |      213973      |     229819
Характеристики диапазона извлечения и сообщения об ошибках
Выбранный диапазон
     Имя файла G:\Раздачи Rodexx\Fair Sex, The – The Dark Ages\The Fair Sex - The Dark Ages CD2.wav
     Пиковый уровень 92.5 %
     Качество диапазона 99.9 %
     CRC теста 894AA798
     CRC копии 894AA798
     Копирование... OK
Ошибок не произошло
AccurateRip: сводка
Трек  1  точное извлечение (доверие 2)  [301451AA]
Трек  2  точное извлечение (доверие 2)  [52C58A05]
Трек  3  точное извлечение (доверие 2)  [F6338FD4]
Трек  4  точное извлечение (доверие 2)  [5EA36C22]
Трек  5  точное извлечение (доверие 2)  [20333B78]
Трек  6  точное извлечение (доверие 2)  [ADAEF50F]
Трек  7  точное извлечение (доверие 2)  [5BBBBD35]
Трек  8  точное извлечение (доверие 2)  [8D3196CB]
Трек  9  точное извлечение (доверие 2)  [96E0FBEE]
Трек 10  точное извлечение (доверие 2)  [C8D43884]
Трек 11  точное извлечение (доверие 2)  [49F2D424]
Трек 12  нет в базе данных
Трек 13  точное извлечение (доверие 2)  [3D119746]
12 трек(и) скопированы точно
 1 трек(и) не содержатся в базе AccurateRip
Некоторые треки не прошли проверку на точность
Конец отчёта
Правила, инструкции, FAQ!!!
Торрент  Добавлен [26 июн 2020, 20:41] Скачать торрент Магнет ссылка
Скачать торрент
[ Размер 16.96 КБ / Просмотров 7 ]

Статус
Проверен 
 
Размер  806.83 МБ
Приватный: Нет (DHT включён)
.torrent скачан  0
 


     Отправить личное сообщение
   
Страница 1 из 1
Показать сообщения за:  Поле сортировки  
Начать новую тему Ответить на тему


Сейчас этот форум просматривают: нет зарегистрированных пользователей и гости: 0


Вы не можете начинать темы
Вы не можете отвечать на сообщения
Вы не можете редактировать свои сообщения
Вы не можете удалять свои сообщения
Вы не можете добавлять вложения

Перейти:  
cron