Начать новую тему Ответить на тему
Статистика раздачи
Размер: 442.12 МБ | Добавлен: 26 июн 2020, 16:52 | Скачали: 0
Сидеров: 0  [0 байт/сек]    Личеров: 0  [0 байт/сек]
Пред. тема | След. тема 

Автор
Сообщение

СообщениеДобавлено: 26 июн 2020, 16:52 

Ответить с цитатой 

Collapsed System / Kompressor
Жанр: Old School EBM, Industrial, Electro
Страна-производитель диска: Germany
Год издания диска: 1999
Издатель (лейбл): Eraser
Номер по каталогу: ERA-07
Страна: Germany
Аудио кодек: FLAC (*.flac)
Тип рипа: image+.cue
Битрейт аудио: lossless
Продолжительность: 00:45:44
Источник (релизер): Личный диск
Наличие сканов в содержимом раздачи: да
Треклист:
01. You're In My Head 4:25
02. Emotional Man 3:54
03. Blute Jetzt! 4:57
04. Meaning 4:02
05. Will You Ever Be Mine? 4:00
06. Garagennachbar 3:35
07. Without Rules 4:29
08. Escape 4:03
09. Wash It Away 4:11
10. Watch The Mirror 3:22
11. Last Call 4:40
Код:
Exact Audio Copy V0.99 prebeta 5 from 4. May 2009
Отчёт EAC об извлечении, выполненном 12. марта 2011, 18:23
Collapsed System / kompressor
Дисковод: PIONEER DVD-RW DVRTD10RS   Adapter: 1  ID: 0
Режим чтения                 : Достоверность
Использование точного потока : Да
Отключение кэша аудио        : Да
Использование указателей C2  : Нет
Коррекция смещения при чтении                     : 6
Способность читать области Lead-in и Lead-out     : Нет
Заполнение пропущенных сэмплов тишиной            : Да
Удаление блоков с тишиной в начале и конце        : Нет
При вычислениях CRC использовались нулевые сэмплы : Да
Интерфейс                                         : Встроенный Win32-интерфейс для Win NT/2000
Выходной формат : Внутренние WAV-операции
Формат сэмплов  : 44.100 Гц; 16 бит; стерео
TOC извлечённого CD
     Трек |   Старт  | Длительность | Начальный сектор | Конечный сектор
    ---------------------------------------------------------------------
       1  |  0:00.00 |    4:25.32   |           0      |      19906
       2  |  4:25.32 |    3:54.63   |       19907      |      37519
       3  |  8:20.20 |    4:57.65   |       37520      |      59859
       4  | 13:18.10 |    4:02.22   |       59860      |      78031
       5  | 17:20.32 |    4:00.55   |       78032      |      96086
       6  | 21:21.12 |    3:35.43   |       96087      |     112254
       7  | 24:56.55 |    4:29.35   |      112255      |     132464
       8  | 29:26.15 |    4:03.25   |      132465      |     150714
       9  | 33:29.40 |    4:11.42   |      150715      |     169581
      10  | 37:41.07 |    3:22.68   |      169582      |     184799
      11  | 41:04.00 |    4:40.32   |      184800      |     205831
Характеристики диапазона извлечения и сообщения об ошибках
Выбранный диапазон
     Имя файла C:\Раздачи DEHUMANOID\Collapsed System - Kompressor\Collapsed System - kompressor.wav
     Пиковый уровень 100.0 %
     Качество диапазона 100 %
     CRC теста 2BFA4158
     CRC копии 2BFA4158
     Копирование... OK
Ошибок не произошло
AccurateRip: сводка
Трек  1  точное извлечение (доверие 1)  [F99F8CD7]
Трек  2  точное извлечение (доверие 1)  [077A94BD]
Трек  3  точное извлечение (доверие 1)  [3C4C1613]
Трек  4  точное извлечение (доверие 1)  [F3D77911]
Трек  5  точное извлечение (доверие 1)  [E8EC0131]
Трек  6  точное извлечение (доверие 1)  [EA31CE03]
Трек  7  точное извлечение (доверие 1)  [185A3DC4]
Трек  8  точное извлечение (доверие 1)  [5A3B4385]
Трек  9  точное извлечение (доверие 1)  [D36D84B4]
Трек 10  точное извлечение (доверие 1)  [967C3141]
Трек 11  точное извлечение (доверие 1)  [47765D01]
Все треки извлечены точно
Конец отчёта
Код:
Started at: воскресенье, 13. 03. 2011. - 1:03.46
1 file found
1 -===- F:\Раздачи DEHUMANOID\Collapsed System - Kompressor\Collapsed System - kompressor.flac
  Extracted successfully
  Conclusion: this track is CDDA with probability 100%
  Tempfile successfully deleted.
Finished at: воскресенье, 13. 03. 2011. - 1:08.42 (operation time: 0:04.55)
Правила, инструкции, FAQ!!!
Торрент  Добавлен [26 июн 2020, 16:52] Скачать торрент Магнет ссылка
Скачать торрент
[ Размер 18.52 КБ / Просмотров 4 ]

Статус
Проверен 
 
Размер  442.12 МБ
Приватный: Нет (DHT включён)
.torrent скачан  0
 


     Отправить личное сообщение
   
Страница 1 из 1
Показать сообщения за:  Поле сортировки  
Начать новую тему Ответить на тему


Сейчас этот форум просматривают: нет зарегистрированных пользователей и гости: 0


Вы не можете начинать темы
Вы не можете отвечать на сообщения
Вы не можете редактировать свои сообщения
Вы не можете удалять свои сообщения
Вы не можете добавлять вложения

Перейти:  
cron