Начать новую тему Ответить на тему
Статистика раздачи
Размер: 356.63 МБ | Добавлен: 26 июн 2020, 17:12 | Скачали: 0
Сидеров: 0  [0 байт/сек]    Личеров: 0  [0 байт/сек]
Пред. тема | След. тема 

Автор
Сообщение

СообщениеДобавлено: 26 июн 2020, 17:12 

Ответить с цитатой 

Collapsed System / Berlin 2007 [Zoth Ommog Edition]
Жанр: Old School EBM, Industrial, Electro
Страна-производитель диска: Germany
Год издания диска: 1996
Издатель (лейбл): Zoth Ommog
Номер по каталогу: CD ZOT 159
Страна: Germany
Аудио кодек: FLAC (*.flac)
Тип рипа: image+.cue
Битрейт аудио: lossless
Продолжительность: 00:44:55
Источник (релизер): Личный диск
Наличие сканов в содержимом раздачи: да
Треклист:
01. Berlin 2007 4:36
02. Track Nine 4:44
03. Observe The Rules 4:55
04. Trapped 3:22
05. Collapsed 3:36
06. Brain Breaker 4:15
07. Acidnation 3:43
08. Addiction 4:06
09. Die Zeit 3:52
10. Re-fusion 3:30
11. Brain Breaker (Elektro-Marx-Mix) 4:14
Код:
Exact Audio Copy V0.99 prebeta 5 from 4. May 2009
Отчёт EAC об извлечении, выполненном 12. марта 2011, 19:33
Collapsed System / Berlin 2007
Дисковод: PIONEER DVD-RW DVRTD10RS   Adapter: 1  ID: 0
Режим чтения                 : Достоверность
Использование точного потока : Да
Отключение кэша аудио        : Да
Использование указателей C2  : Нет
Коррекция смещения при чтении                     : 6
Способность читать области Lead-in и Lead-out     : Нет
Заполнение пропущенных сэмплов тишиной            : Да
Удаление блоков с тишиной в начале и конце        : Нет
При вычислениях CRC использовались нулевые сэмплы : Да
Интерфейс                                         : Встроенный Win32-интерфейс для Win NT/2000
Выходной формат : Внутренние WAV-операции
Формат сэмплов  : 44.100 Гц; 16 бит; стерео
TOC извлечённого CD
     Трек |   Старт  | Длительность | Начальный сектор | Конечный сектор
    ---------------------------------------------------------------------
       1  |  0:00.00 |    4:36.22   |           0      |      20721
       2  |  4:36.22 |    4:44.03   |       20722      |      42024
       3  |  9:20.25 |    4:54.72   |       42025      |      64146
       4  | 14:15.22 |    3:22.14   |       64147      |      79310
       5  | 17:37.36 |    3:36.36   |       79311      |      95546
       6  | 21:13.72 |    4:15.14   |       95547      |     114685
       7  | 25:29.11 |    3:42.73   |      114686      |     131408
       8  | 29:12.09 |    4:06.10   |      131409      |     149868
       9  | 33:18.19 |    3:52.18   |      149869      |     167286
      10  | 37:10.37 |    3:30.08   |      167287      |     183044
      11  | 40:40.45 |    4:14.53   |      183045      |     202147
Характеристики диапазона извлечения и сообщения об ошибках
Выбранный диапазон
     Имя файла C:\Раздачи DEHUMANOID\Collapsed System - Berlin 2007\Collapsed System - Berlin 2007.wav
     Пиковый уровень 98.4 %
     Качество диапазона 99.1 %
     CRC теста 6AC8713A
     CRC копии 6AC8713A
     Копирование... OK
Ошибок не произошло
AccurateRip: сводка
Трек  1  точное извлечение (доверие 2) [5EB06939]
Трек  2  точное извлечение (доверие 2) [7686C067]
Трек  3  точное извлечение (доверие 2) [3A5BA48C]
Трек  4  точное извлечение (доверие 2) [F1688E11]
Трек  5  точное извлечение (доверие 2) [01F0E423]
Трек  6  точное извлечение (доверие 2) [77AD5304]
Трек  7  точное извлечение (доверие 2) [E571DDFF]
Трек  8  точное извлечение (доверие 2) [BE69B00C]
Трек  9  точное извлечение (доверие 2) [E03C4BE0]
Трек 10  точное извлечение (доверие 2) [77A7CD0D]
Трек 11  точное извлечение (доверие 2) [14AB02B4]
Все треки извлечены точно
Конец отчёта
Код:
Started at: воскресенье, 13. 03. 2011. - 0:50.23
1 file found
1 -===- F:\Раздачи DEHUMANOID\Collapsed System - Berlin 2007\Collapsed System - Berlin 2007.flac
  Extracted successfully
  Conclusion: this track is CDDA with probability 100%
  Tempfile successfully deleted.
Finished at: воскресенье, 13. 03. 2011. - 0:55.17 (operation time: 0:04.53)
Правила, инструкции, FAQ!!!
Торрент  Добавлен [26 июн 2020, 17:12] Скачать торрент Магнет ссылка
Скачать торрент
[ Размер 14.94 КБ / Просмотров 5 ]

Статус
Проверен 
 
Размер  356.63 МБ
Приватный: Нет (DHT включён)
.torrent скачан  0
 


     Отправить личное сообщение
   
Страница 1 из 1
Показать сообщения за:  Поле сортировки  
Начать новую тему Ответить на тему


Сейчас этот форум просматривают: нет зарегистрированных пользователей и гости: 0


Вы не можете начинать темы
Вы не можете отвечать на сообщения
Вы не можете редактировать свои сообщения
Вы не можете удалять свои сообщения
Вы не можете добавлять вложения

Перейти:  
cron