Начать новую тему Ответить на тему
Статистика раздачи
Размер: 795.7 МБ | Добавлен: 07 янв 2021, 12:28 | Скачали: 1
Сидеров: 18  [0 байт/сек]    Личеров: 1  [0 байт/сек]
Пред. тема | След. тема 

Автор
Сообщение

СообщениеДобавлено: 07 янв 2021, 12:28 

Ответить с цитатой 

No Trend: Too Many Humans..... / Teen Love
.
#777Жанры : Noise Rock / Hardcore Punk / No Wave
Страна группы : USA (Ashton, MD)
Издатель : Drag City (USA)
Номер по каталогу : DC 754
Формат : 2CD, Compilation
Время звучания : 02:15:55
Битрейт аудио : lossless
Тип рипа : tracks+.cue
Кодек : FLAC (*.flac)
Источник : redacted
Релиз : 29.05.2020
01. Family Style (03:17)
02. Blow Dry (05:02)
03. Reality Breakdown (04:01)
04. Kiss Ass to Your Peer Group (03:47)
05. Fashion Tips for the '80s (01:44)
06. Do as You're Told (01:07)
07. Too Many Humans (03:58)
08. For the Fun of It All (02:30)
09. Mindless Little Insects (04:21)
10. Happiness Is... (07:04)
11. Mass Sterilization Caused by Venereal Disease (02:41)
12. Cancer (02:25)
13. Die (02:26)
14. Teen Love (07:39)
15. Untitled (04:47)
время звучания (00:56:43)

Код:
[b][color=#5d3954]Exact Audio Copy V1.6 from 23. October 2020
[/color]EAC extraction logfile from 11. December 2020, 15:47
[/b]No Trend / Too Many Humans / Teen Love
Used drive  : TSSTcorpCDDVDW SH-224FB   Adapter: 1  ID: 0
Read mode               : Secure
Utilize accurate stream : Yes
Defeat audio cache      : Yes
Make use of C2 pointers : No
Read offset correction                      : 6
Overread into Lead-In and Lead-Out          : No
Fill up missing offset samples with silence : Yes
Delete leading and trailing silent blocks   : No
Null samples used in CRC calculations       : Yes
Used interface                              : Native Win32 interface for Win NT & 2000
Gap handling                                : Appended to previous track
Used output format              : User Defined Encoder
Selected bitrate                : 768 kBit/s
Quality                         : High
Add ID3 tag                     : No
Command line compressor         : C:\Program Files (x86)\Exact Audio Copy\FLAC\FLAC.EXE
Additional command line options : -8 -V -T "ARTIST=%artist%" -T "TITLE=%title%" -T "ALBUM=%albumtitle%" -T "DATE=%year%" -T "TRACKNUMBER=%tracknr%" -T "GENRE=%genre%" -T "COMMENT=%comment%" -T "BAND=%albuminterpret%" -T "ALBUMARTIST=%albuminterpret%" -T "COMPOSER=%composer%" %haslyrics%--tag-from-file=LYRICS="%lyricsfile%"%haslyrics% -T "DISCNUMBER=%cdnumber%" -T "TOTALDISCS=%totalcds%" -T "TOTALTRACKS=%numtracks%" %hascover%--picture="%coverfile%"%hascover% %source% -o %dest%
TOC of the extracted CD
     Track |   Start  |  Length  | Start sector | End sector
    ---------------------------------------------------------
        1  |  0:00.00 |  3:16.26 |         0    |    14725
        2  |  3:16.26 |  5:01.21 |     14726    |    37321
        3  |  8:17.47 |  4:00.28 |     37322    |    55349
        4  | 12:18.00 |  3:46.07 |     55350    |    72306
        5  | 16:04.07 |  1:43.59 |     72307    |    80090
        6  | 17:47.66 |  1:06.54 |     80091    |    85094
        7  | 18:54.45 |  3:57.25 |     85095    |   102894
        8  | 22:51.70 |  2:29.41 |    102895    |   114110
        9  | 25:21.36 |  4:20.72 |    114111    |   133682
       10  | 29:42.33 |  7:03.46 |    133683    |   165453
       11  | 36:46.04 |  2:40.67 |    165454    |   177520
       12  | 39:26.71 |  2:24.74 |    177521    |   188394
       13  | 41:51.70 |  2:25.47 |    188395    |   199316
       14  | 44:17.42 |  7:38.13 |    199317    |   233679
       15  | 51:55.55 |  4:46.41 |    233680    |   255170
Track  1
     Filename C:\Users\User-1\Music\New folder\01 - Family Style.wav
     Pre-gap length  0:00:02.00
     Peak level 98.7 %
     Extraction speed 3.9 X
     Track quality 100.0 %
     Test CRC 42094682
     Copy CRC 42094682
     Accurately ripped (confidence 1)  [677FA73F]  (AR v2)
     Copy OK
Track  2
     Filename C:\Users\User-1\Music\New folder\02 - Blow Dry.wav
     Peak level 98.8 %
     Extraction speed 4.6 X
     Track quality 100.0 %
     Test CRC B4580757
     Copy CRC B4580757
     Accurately ripped (confidence 1)  [B3EDE6EA]  (AR v2)
     Copy OK
Track  3
     Filename C:\Users\User-1\Music\New folder\03 - Reality Breakdown.wav
     Peak level 98.7 %
     Extraction speed 1.8 X
     Track quality 99.9 %
     Test CRC 12FAFEDC
     Copy CRC 12FAFEDC
     Accurately ripped (confidence 1)  [73180A7B]  (AR v2)
     Copy OK
Track  4
     Filename C:\Users\User-1\Music\New folder\04 - Kiss Ass to Your Peer Group.wav
     Peak level 98.7 %
     Extraction speed 1.9 X
     Track quality 99.9 %
     Test CRC 0E8C731D
     Copy CRC 0E8C731D
     Accurately ripped (confidence 1)  [255A1495]  (AR v2)
     Copy OK
Track  5
     Filename C:\Users\User-1\Music\New folder\05 - Fashion Tips for the '80s.wav
     Peak level 98.7 %
     Extraction speed 1.9 X
     Track quality 100.0 %
     Test CRC 27D80CBD
     Copy CRC 27D80CBD
     Accurately ripped (confidence 1)  [961B3B86]  (AR v2)
     Copy OK
Track  6
     Filename C:\Users\User-1\Music\New folder\06 - Do as You're Told.wav
     Peak level 98.7 %
     Extraction speed 1.1 X
     Track quality 99.8 %
     Test CRC 8BFFFB1A
     Copy CRC 8BFFFB1A
     Accurately ripped (confidence 1)  [87132589]  (AR v2)
     Copy OK
Track  7
     Filename C:\Users\User-1\Music\New folder\07 - Too Many Humans.wav
     Peak level 98.7 %
     Extraction speed 2.4 X
     Track quality 100.0 %
     Test CRC BB019CDF
     Copy CRC BB019CDF
     Accurately ripped (confidence 1)  [EEA616B6]  (AR v2)
     Copy OK
Track  8
     Filename C:\Users\User-1\Music\New folder\08 - For the Fun of It All.wav
     Peak level 98.7 %
     Extraction speed 2.4 X
     Track quality 100.0 %
     Test CRC 0B68C9D9
     Copy CRC 0B68C9D9
     Accurately ripped (confidence 1)  [66B78AA0]  (AR v2)
     Copy OK
Track  9
     Filename C:\Users\User-1\Music\New folder\09 - Mindless Little Insects.wav
     Peak level 98.7 %
     Extraction speed 2.2 X
     Track quality 99.9 %
     Test CRC 57E3CB18
     Copy CRC 57E3CB18
     Accurately ripped (confidence 1)  [97E23435]  (AR v2)
     Copy OK
Track 10
     Filename C:\Users\User-1\Music\New folder\10 - Happiness Is....wav
     Peak level 98.7 %
     Extraction speed 2.7 X
     Track quality 99.9 %
     Test CRC F17F4F60
     Copy CRC F17F4F60
     Accurately ripped (confidence 1)  [541E2B10]  (AR v2)
     Copy OK
Track 11
     Filename C:\Users\User-1\Music\New folder\11 - Mass Sterilization Caused by Venereal Disease.wav
     Peak level 96.6 %
     Extraction speed 2.8 X
     Track quality 100.0 %
     Test CRC 946F7B14
     Copy CRC 946F7B14
     Accurately ripped (confidence 1)  [1F4F2DD6]  (AR v2)
     Copy OK
Track 12
     Filename C:\Users\User-1\Music\New folder\12 - Cancer.wav
     Peak level 96.6 %
     Extraction speed 2.8 X
     Track quality 100.0 %
     Test CRC CCA0199F
     Copy CRC CCA0199F
     Accurately ripped (confidence 1)  [80DB1C25]  (AR v2)
     Copy OK
Track 13
     Filename C:\Users\User-1\Music\New folder\13 - Die.wav
     Peak level 96.6 %
     Extraction speed 2.8 X
     Track quality 100.0 %
     Test CRC 13E1B3B4
     Copy CRC 13E1B3B4
     Accurately ripped (confidence 1)  [9C1F65EC]  (AR v2)
     Copy OK
Track 14
     Filename C:\Users\User-1\Music\New folder\14 - Teen Love.wav
     Peak level 96.6 %
     Extraction speed 3.0 X
     Track quality 99.9 %
     Test CRC 4FD08384
     Copy CRC 4FD08384
     Accurately ripped (confidence 1)  [88A2C8FE]  (AR v2)
     Copy OK
Track 15
     Filename C:\Users\User-1\Music\New folder\15 - -.wav
     Peak level 96.6 %
     Extraction speed 3.4 X
     Track quality 100.0 %
     Test CRC D6152817
     Copy CRC D6152817
     Accurately ripped (confidence 1)  [8A7B3F7A]  (AR v2)
     Copy OK
All tracks accurately ripped
No errors occurred
End of status report
---- CUETools DB Plugin V2.1.6
[CTDB TOCID: G7cFTOTEUcOdUWD8y3rTjT5DyWI-] disk not present in database
Submit result: G7cFTOTEUcOdUWD8y3rTjT5DyWI- has been uploaded
==== Log checksum 2A546B98C85898503B867F90C6357D2D6009F8B3E8CBF30C6C92C7A854F68BEC ====
Код:
[b][color=#5d3954]REM GENRE "Noise Rock"
REM DATE 2020
REM DISCID DE0D4A0F
REM COMMENT "ExactAudioCopy v1.6"
PERFORMER "No Trend"
TITLE "Too Many Humans..... / Teen Love"
FILE "01. Family Style.wav" WAVE
  TRACK 01 AUDIO
    TITLE "Family Style"
    PERFORMER "No Trend"
    INDEX 01 00:00:00
FILE "02. Blow Dry.wav" WAVE
  TRACK 02 AUDIO
    TITLE "Blow Dry"
    PERFORMER "No Trend"
    INDEX 01 00:00:00
FILE "03. Reality Breakdown.wav" WAVE
  TRACK 03 AUDIO
    TITLE "Reality Breakdown"
    PERFORMER "No Trend"
    INDEX 01 00:00:00
FILE "04. Kiss Ass to Your Peer Group.wav" WAVE
  TRACK 04 AUDIO
    TITLE "Kiss Ass to Your Peer Group"
    PERFORMER "No Trend"
    INDEX 01 00:00:00
FILE "05. Fashion Tips for the '80s.wav" WAVE
  TRACK 05 AUDIO
    TITLE "Fashion Tips for the '80s"
    PERFORMER "No Trend"
    INDEX 01 00:00:00
FILE "06. Do as You're Told.wav" WAVE
  TRACK 06 AUDIO
    TITLE "Do as You're Told"
    PERFORMER "No Trend"
    INDEX 01 00:00:00
FILE "07. Too Many Humans.wav" WAVE
  TRACK 07 AUDIO
    TITLE "Too Many Humans"
    PERFORMER "No Trend"
    INDEX 01 00:00:00
FILE "08. For the Fun of It All.wav" WAVE
  TRACK 08 AUDIO
    TITLE "For the Fun of It All"
    PERFORMER "No Trend"
    INDEX 01 00:00:00
FILE "09. Mindless Little Insects.wav" WAVE
  TRACK 09 AUDIO
    TITLE "Mindless Little Insects"
    PERFORMER "No Trend"
    INDEX 01 00:00:00
FILE "10. Happiness Is....wav" WAVE
  TRACK 10 AUDIO
    TITLE "Happiness Is..."
    PERFORMER "No Trend"
    INDEX 01 00:00:00
FILE "11. Mass Sterilization Caused by Venereal Disease.wav" WAVE
  TRACK 11 AUDIO
    TITLE "Mass Sterilization Caused by Venereal Disease"
    PERFORMER "No Trend"
    INDEX 01 00:00:00
FILE "12. Cancer.wav" WAVE
  TRACK 12 AUDIO
    TITLE "Cancer"
    PERFORMER "No Trend"
    INDEX 01 00:00:00
FILE "13. Die.wav" WAVE
  TRACK 13 AUDIO
    TITLE "Die"
    PERFORMER "No Trend"
    INDEX 01 00:00:00
FILE "14. Teen Love.wav" WAVE
  TRACK 14 AUDIO
    TITLE "Teen Love"
    PERFORMER "No Trend"
    INDEX 01 00:00:00
FILE "15. Untitled.wav" WAVE
  TRACK 15 AUDIO
    TITLE "Untitled"
    PERFORMER "No Trend"
    INDEX 01 00:00:00[/color][/b]
01. Cancer (Demo) (03:00)
02. Mass Sterilization Caused by Venereal Disease (Demo) (03:03)
03. Teen Love (Demo) (06:36)
04. Hanging Out in Georgetown (Demo) (02:08)
05. Kiss Ass to Your Peer Group (Demo) (04:02)
06. Family Style (Demo) (04:35)
07. Reality Breakdown (Demo) (04:47)
08. Human Garbage (Demo) (02:58)
09. Purple Paisleys Make Me Happy (Demo) (03:03)
10. Do as You're Told (Live at Mabuhay Gardens) (00:50)
11. Fashion Tips for the '80s (Live at Mabuhay Gardens) (01:09)
12. Mindless Little Insects (Live at Mabuhay Gardens) (02:24)
13. Reality Breakdown (Live at Mabuhay Gardens) (02:09)
14. Teen Love (Live at Mabuhay Gardens) (04:10)
15. Cancer (Live at Mabuhay Gardens) (02:18)
16. Family Style (Live at Mabuhay Gardens) (02:41)
17. Blow Dry (Live at Mabuhay Gardens) (02:06)
18. Kiss Ass to Your Peer Group (Live at Mabuhay Gardens) (03:14)
19. Mass Sterilization Caused by Venereal Disease (Live at Mabuhay Gardens) (01:39)
20. Do as You're Told (Live at Cathay de Grande) (01:11)
21. Fashion Tips for the '80s (Live at Cathay de Grande) (01:07)
22. Mindless Little Insects (Live at Cathay de Grande) (02:06)
23. Reality Breakdown (Live at Cathay de Grande) (02:20)
24. Cancer (Live at Cathay de Grande) (02:40)
25. Family Style (Live at Cathay de Grande) (03:20)
26. Kiss Ass to Your Peer Group (Live at Cathay de Grande) (02:52)
27. Teen Love (Live at Cathay de Grande) (04:15)
28. Mass Sterilization Caused by Venereal Disease (Live at Cathay de Grande) (02:42)
время звучания (01:19:13)

Код:
[b][color=#5d3954]Exact Audio Copy V1.6 from 23. October 2020
[/color]EAC extraction logfile from 11. December 2020, 17:16
[/b]No Trend / Too Many Humans / Teen Love
Used drive  : TSSTcorpCDDVDW SH-224FB   Adapter: 1  ID: 0
Read mode               : Secure
Utilize accurate stream : Yes
Defeat audio cache      : Yes
Make use of C2 pointers : No
Read offset correction                      : 6
Overread into Lead-In and Lead-Out          : No
Fill up missing offset samples with silence : Yes
Delete leading and trailing silent blocks   : No
Null samples used in CRC calculations       : Yes
Used interface                              : Native Win32 interface for Win NT & 2000
Gap handling                                : Appended to previous track
Used output format              : User Defined Encoder
Selected bitrate                : 768 kBit/s
Quality                         : High
Add ID3 tag                     : No
Command line compressor         : C:\Program Files (x86)\Exact Audio Copy\FLAC\FLAC.EXE
Additional command line options : -8 -V -T "ARTIST=%artist%" -T "TITLE=%title%" -T "ALBUM=%albumtitle%" -T "DATE=%year%" -T "TRACKNUMBER=%tracknr%" -T "GENRE=%genre%" -T "COMMENT=%comment%" -T "BAND=%albuminterpret%" -T "ALBUMARTIST=%albuminterpret%" -T "COMPOSER=%composer%" %haslyrics%--tag-from-file=LYRICS="%lyricsfile%"%haslyrics% -T "DISCNUMBER=%cdnumber%" -T "TOTALDISCS=%totalcds%" -T "TOTALTRACKS=%numtracks%" %hascover%--picture="%coverfile%"%hascover% %source% -o %dest%
TOC of the extracted CD
     Track |   Start  |  Length  | Start sector | End sector
    ---------------------------------------------------------
        1  |  0:00.00 |  2:59.64 |         0    |    13488
        2  |  2:59.64 |  3:02.42 |     13489    |    27180
        3  |  6:02.31 |  6:35.32 |     27181    |    56837
        4  | 12:37.63 |  2:07.63 |     56838    |    66425
        5  | 14:45.51 |  4:01.66 |     66426    |    84566
        6  | 18:47.42 |  4:34.60 |     84567    |   105176
        7  | 23:22.27 |  4:46.03 |    105177    |   126629
        8  | 28:08.30 |  2:57.68 |    126630    |   139972
        9  | 31:06.23 |  3:02.69 |    139973    |   153691
       10  | 34:09.17 |  0:50.00 |    153692    |   157441
       11  | 34:59.17 |  1:08.36 |    157442    |   162577
       12  | 36:07.53 |  2:23.30 |    162578    |   173332
       13  | 38:31.08 |  2:08.09 |    173333    |   182941
       14  | 40:39.17 |  4:09.65 |    182942    |   201681
       15  | 44:49.07 |  2:17.09 |    201682    |   211965
       16  | 47:06.16 |  2:40.43 |    211966    |   224008
       17  | 49:46.59 |  2:05.66 |    224009    |   233449
       18  | 51:52.50 |  3:13.51 |    233450    |   247975
       19  | 55:06.26 |  1:38.64 |    247976    |   255389
       20  | 56:45.15 |  1:10.34 |    255390    |   260673
       21  | 57:55.49 |  1:06.05 |    260674    |   265628
       22  | 59:01.54 |  2:05.04 |    265629    |   275007
       23  | 61:06.58 |  2:19.50 |    275008    |   285482
       24  | 63:26.33 |  2:39.41 |    285483    |   297448
       25  | 66:05.74 |  3:19.47 |    297449    |   312420
       26  | 69:25.46 |  2:51.24 |    312421    |   325269
       27  | 72:16.70 |  4:14.05 |    325270    |   344324
       28  | 76:31.00 |  2:41.28 |    344325    |   356427
Track  1
     Filename C:\Users\User-1\Music\No Trend - Too Many Humans-Teen Love (2020)\CD 2\01 - Cancer.wav
     Pre-gap length  0:00:02.00
     Peak level 96.6 %
     Extraction speed 4.3 X
     Track quality 100.0 %
     Test CRC EBE012AF
     Copy CRC EBE012AF
     Accurately ripped (confidence 1)  [42396931]  (AR v2)
     Copy OK
Track  2
     Filename C:\Users\User-1\Music\No Trend - Too Many Humans-Teen Love (2020)\CD 2\02 - Mass Sterilization Caused by Venereal Disease.wav
     Peak level 96.6 %
     Extraction speed 3.6 X
     Track quality 99.9 %
     Test CRC F05E1776
     Copy CRC F05E1776
     Accurately ripped (confidence 1)  [32608DD9]  (AR v2)
     Copy OK
Track  3
     Filename C:\Users\User-1\Music\No Trend - Too Many Humans-Teen Love (2020)\CD 2\03 - Teen Love.wav
     Peak level 96.6 %
     Extraction speed 4.9 X
     Track quality 99.9 %
     Test CRC FE65145E
     Copy CRC FE65145E
     Accurately ripped (confidence 1)  [1E5D86F4]  (AR v2)
     Copy OK
Track  4
     Filename C:\Users\User-1\Music\No Trend - Too Many Humans-Teen Love (2020)\CD 2\04 - Hanging Out in Georgetown.wav
     Peak level 96.6 %
     Extraction speed 2.0 X
     Track quality 100.0 %
     Test CRC 3E9CC560
     Copy CRC 3E9CC560
     Accurately ripped (confidence 1)  [F3AEB8E4]  (AR v2)
     Copy OK
Track  5
     Filename C:\Users\User-1\Music\No Trend - Too Many Humans-Teen Love (2020)\CD 2\05 - Kiss Ass to Your Peer Group.wav
     Peak level 96.6 %
     Extraction speed 2.5 X
     Track quality 100.0 %
     Test CRC 34B4EB28
     Copy CRC 34B4EB28
     Accurately ripped (confidence 1)  [770455CB]  (AR v2)
     Copy OK
Track  6
     Filename C:\Users\User-1\Music\No Trend - Too Many Humans-Teen Love (2020)\CD 2\06 - Family Style.wav
     Peak level 96.6 %
     Extraction speed 2.7 X
     Track quality 100.0 %
     Test CRC BE69EB62
     Copy CRC BE69EB62
     Accurately ripped (confidence 1)  [39798085]  (AR v2)
     Copy OK
Track  7
     Filename C:\Users\User-1\Music\No Trend - Too Many Humans-Teen Love (2020)\CD 2\07 - Reality Breakdown.wav
     Peak level 96.6 %
     Extraction speed 2.9 X
     Track quality 100.0 %
     Test CRC F5600C2C
     Copy CRC F5600C2C
     Accurately ripped (confidence 1)  [9DD829AE]  (AR v2)
     Copy OK
Track  8
     Filename C:\Users\User-1\Music\No Trend - Too Many Humans-Teen Love (2020)\CD 2\08 - Human Garbage.wav
     Peak level 96.6 %
     Extraction speed 2.8 X
     Track quality 100.0 %
     Test CRC D6084A3C
     Copy CRC D6084A3C
     Accurately ripped (confidence 1)  [34F0D55B]  (AR v2)
     Copy OK
Track  9
     Filename C:\Users\User-1\Music\No Trend - Too Many Humans-Teen Love (2020)\CD 2\09 - Purple Paisleys Make Me Happy.wav
     Peak level 96.6 %
     Extraction speed 2.1 X
     Track quality 99.9 %
     Test CRC 1E37FECF
     Copy CRC 1E37FECF
     Accurately ripped (confidence 1)  [7EAB0A7F]  (AR v2)
     Copy OK
Track 10
     Filename C:\Users\User-1\Music\No Trend - Too Many Humans-Teen Love (2020)\CD 2\10 - Do As You're Told.wav
     Peak level 99.4 %
     Extraction speed 2.0 X
     Track quality 100.0 %
     Test CRC F3E7473A
     Copy CRC F3E7473A
     Accurately ripped (confidence 1)  [532116CC]  (AR v2)
     Copy OK
Track 11
     Filename C:\Users\User-1\Music\No Trend - Too Many Humans-Teen Love (2020)\CD 2\11 - Fashion Tips for the '80s.wav
     Peak level 99.4 %
     Extraction speed 2.3 X
     Track quality 100.0 %
     Test CRC C0C431C1
     Copy CRC C0C431C1
     Accurately ripped (confidence 1)  [EE964BB2]  (AR v2)
     Copy OK
Track 12
     Filename C:\Users\User-1\Music\No Trend - Too Many Humans-Teen Love (2020)\CD 2\12 - Mindless Little Insects.wav
     Peak level 99.4 %
     Extraction speed 2.0 X
     Track quality 99.9 %
     Test CRC 062D1D18
     Copy CRC 062D1D18
     Accurately ripped (confidence 1)  [6449FEFF]  (AR v2)
     Copy OK
Track 13
     Filename C:\Users\User-1\Music\No Trend - Too Many Humans-Teen Love (2020)\CD 2\13 - Reality Breakdown.wav
     Peak level 99.4 %
     Extraction speed 2.0 X
     Track quality 99.9 %
     Test CRC 93AE5C1F
     Copy CRC 93AE5C1F
     Accurately ripped (confidence 1)  [FBDA1C14]  (AR v2)
     Copy OK
Track 14
     Filename C:\Users\User-1\Music\No Trend - Too Many Humans-Teen Love (2020)\CD 2\14 - Teen Love.wav
     Peak level 99.4 %
     Extraction speed 3.3 X
     Track quality 100.0 %
     Test CRC 05ED1E23
     Copy CRC 05ED1E23
     Accurately ripped (confidence 1)  [248DA4A7]  (AR v2)
     Copy OK
Track 15
     Filename C:\Users\User-1\Music\No Trend - Too Many Humans-Teen Love (2020)\CD 2\15 - Cancer.wav
     Peak level 99.4 %
     Extraction speed 2.2 X
     Track quality 99.9 %
     Test CRC 9049EA14
     Copy CRC 9049EA14
     Accurately ripped (confidence 1)  [F51AD444]  (AR v2)
     Copy OK
Track 16
     Filename C:\Users\User-1\Music\No Trend - Too Many Humans-Teen Love (2020)\CD 2\16 - Family Style.wav
     Peak level 99.4 %
     Extraction speed 3.2 X
     Track quality 100.0 %
     Test CRC 4498B406
     Copy CRC 4498B406
     Accurately ripped (confidence 1)  [4F35236D]  (AR v2)
     Copy OK
Track 17
     Filename C:\Users\User-1\Music\No Trend - Too Many Humans-Teen Love (2020)\CD 2\17 - Blow Dry.wav
     Peak level 99.4 %
     Extraction speed 3.1 X
     Track quality 100.0 %
     Test CRC 1D220BBD
     Copy CRC 1D220BBD
     Accurately ripped (confidence 1)  [B0C236F8]  (AR v2)
     Copy OK
Track 18
     Filename C:\Users\User-1\Music\No Trend - Too Many Humans-Teen Love (2020)\CD 2\18 - Kiss Ass to Your Peer Group.wav
     Peak level 99.4 %
     Extraction speed 3.4 X
     Track quality 100.0 %
     Test CRC D1E795D3
     Copy CRC D1E795D3
     Accurately ripped (confidence 1)  [6DD6DF22]  (AR v2)
     Copy OK
Track 19
     Filename C:\Users\User-1\Music\No Trend - Too Many Humans-Teen Love (2020)\CD 2\19 - Mass Sterilization Caused by Venereal Disease.wav
     Peak level 99.4 %
     Extraction speed 3.0 X
     Track quality 100.0 %
     Test CRC 4FA2C7CD
     Copy CRC 4FA2C7CD
     Accurately ripped (confidence 1)  [D84F5A6C]  (AR v2)
     Copy OK
Track 20
     Filename C:\Users\User-1\Music\No Trend - Too Many Humans-Teen Love (2020)\CD 2\20 - Do As You're Told.wav
     Peak level 96.6 %
     Extraction speed 2.7 X
     Track quality 100.0 %
     Test CRC 5190A0F5
     Copy CRC 5190A0F5
     Accurately ripped (confidence 1)  [FF3F6173]  (AR v2)
     Copy OK
Track 21
     Filename C:\Users\User-1\Music\No Trend - Too Many Humans-Teen Love (2020)\CD 2\21 - Fashion Tips for the '80s.wav
     Peak level 96.6 %
     Extraction speed 1.4 X
     Track quality 99.8 %
     Test CRC 2642E8A0
     Copy CRC 2642E8A0
     Accurately ripped (confidence 1)  [67AAC4AF]  (AR v2)
     Copy OK
Track 22
     Filename C:\Users\User-1\Music\No Trend - Too Many Humans-Teen Love (2020)\CD 2\22 - Mindless Little Insects.wav
     Peak level 96.6 %
     Extraction speed 3.3 X
     Track quality 100.0 %
     Test CRC D3464A5C
     Copy CRC D3464A5C
     Accurately ripped (confidence 1)  [DB22D044]  (AR v2)
     Copy OK
Track 23
     Filename C:\Users\User-1\Music\No Trend - Too Many Humans-Teen Love (2020)\CD 2\23 - Reality Breakdown.wav
     Peak level 96.6 %
     Extraction speed 3.4 X
     Track quality 100.0 %
     Test CRC AB62A8A3
     Copy CRC AB62A8A3
     Accurately ripped (confidence 1)  [AE0C995A]  (AR v2)
     Copy OK
Track 24
     Filename C:\Users\User-1\Music\No Trend - Too Many Humans-Teen Love (2020)\CD 2\24 - Cancer.wav
     Peak level 96.6 %
     Extraction speed 3.6 X
     Track quality 100.0 %
     Test CRC 315C7E42
     Copy CRC 315C7E42
     Accurately ripped (confidence 1)  [5CEC08A3]  (AR v2)
     Copy OK
Track 25
     Filename C:\Users\User-1\Music\No Trend - Too Many Humans-Teen Love (2020)\CD 2\25 - Family Style.wav
     Peak level 96.6 %
     Extraction speed 3.7 X
     Track quality 100.0 %
     Test CRC E6D37A8C
     Copy CRC E6D37A8C
     Accurately ripped (confidence 1)  [7821716E]  (AR v2)
     Copy OK
Track 26
     Filename C:\Users\User-1\Music\No Trend - Too Many Humans-Teen Love (2020)\CD 2\26 - Kiss Ass to Your Peer Group.wav
     Peak level 96.6 %
     Extraction speed 2.6 X
     Track quality 99.9 %
     Test CRC 6D8E8CD0
     Copy CRC 6D8E8CD0
     Accurately ripped (confidence 1)  [190FD887]  (AR v2)
     Copy OK
Track 27
     Filename C:\Users\User-1\Music\No Trend - Too Many Humans-Teen Love (2020)\CD 2\27 - Teen Love.wav
     Peak level 96.6 %
     Extraction speed 4.0 X
     Track quality 100.0 %
     Test CRC B3529C47
     Copy CRC B3529C47
     Accurately ripped (confidence 1)  [8AE1146C]  (AR v2)
     Copy OK
Track 28
     Filename C:\Users\User-1\Music\No Trend - Too Many Humans-Teen Love (2020)\CD 2\28 - Mass Sterilization Caused by Venereal Disease.wav
     Peak level 96.6 %
     Extraction speed 2.6 X
     Track quality 99.9 %
     Test CRC A93B98E4
     Copy CRC A93B98E4
     Accurately ripped (confidence 1)  [4A27BA3B]  (AR v2)
     Copy OK
All tracks accurately ripped
No errors occurred
End of status report
---- CUETools DB Plugin V2.1.6
[CTDB TOCID: IswgByKjIU1WUHWzNMIhn5uBBsw-] disk not present in database
Submit result: IswgByKjIU1WUHWzNMIhn5uBBsw- has been uploaded
==== Log checksum 88C11A7A8AB72337472536ACD394565E648924681BD4A63B4D2D2D15EADD9FF2 ====
Код:
[b][color=#5d3954]REM GENRE "Noise Rock"
REM DATE 2020
REM DISCID BB12901C
REM COMMENT "ExactAudioCopy v1.6"
PERFORMER "No Trend"
TITLE "Too Many Humans..... / Teen Love"
FILE "01. Cancer (Demo).wav" WAVE
  TRACK 01 AUDIO
    TITLE "Cancer (Demo)"
    PERFORMER "No Trend"
    INDEX 01 00:00:00
FILE "02. Mass Sterilization Caused by Venereal Disease (Demo).wav" WAVE
  TRACK 02 AUDIO
    TITLE "Mass Sterilization Caused by Venereal Disease (Demo)"
    PERFORMER "No Trend"
    INDEX 01 00:00:00
FILE "03. Teen Love (Demo).wav" WAVE
  TRACK 03 AUDIO
    TITLE "Teen Love (Demo)"
    PERFORMER "No Trend"
    INDEX 01 00:00:00
FILE "04. Hanging Out in Georgetown (Demo).wav" WAVE
  TRACK 04 AUDIO
    TITLE "Hanging Out in Georgetown (Demo)"
    PERFORMER "No Trend"
    INDEX 01 00:00:00
FILE "05. Kiss Ass to Your Peer Group (Demo).wav" WAVE
  TRACK 05 AUDIO
    TITLE "Kiss Ass to Your Peer Group (Demo)"
    PERFORMER "No Trend"
    INDEX 01 00:00:00
FILE "06. Family Style (Demo).wav" WAVE
  TRACK 06 AUDIO
    TITLE "Family Style (Demo)"
    PERFORMER "No Trend"
    INDEX 01 00:00:00
FILE "07. Reality Breakdown (Demo).wav" WAVE
  TRACK 07 AUDIO
    TITLE "Reality Breakdown (Demo)"
    PERFORMER "No Trend"
    INDEX 01 00:00:00
FILE "08. Human Garbage (Demo).wav" WAVE
  TRACK 08 AUDIO
    TITLE "Human Garbage (Demo)"
    PERFORMER "No Trend"
    INDEX 01 00:00:00
FILE "09. Purple Paisleys Make Me Happy (Demo).wav" WAVE
  TRACK 09 AUDIO
    TITLE "Purple Paisleys Make Me Happy (Demo)"
    PERFORMER "No Trend"
    INDEX 01 00:00:00
FILE "10. Do as You're Told (Live at Mabuhay Gardens).wav" WAVE
  TRACK 10 AUDIO
    TITLE "Do as You're Told (Live at Mabuhay Gardens)"
    PERFORMER "No Trend"
    INDEX 01 00:00:00
FILE "11. Fashion Tips for the '80s (Live at Mabuhay Gardens).wav" WAVE
  TRACK 11 AUDIO
    TITLE "Fashion Tips for the '80s (Live at Mabuhay Gardens)"
    PERFORMER "No Trend"
    INDEX 01 00:00:00
FILE "12. Mindless Little Insects (Live at Mabuhay Gardens).wav" WAVE
  TRACK 12 AUDIO
    TITLE "Mindless Little Insects (Live at Mabuhay Gardens)"
    PERFORMER "No Trend"
    INDEX 01 00:00:00
FILE "13. Reality Breakdown (Live at Mabuhay Gardens).wav" WAVE
  TRACK 13 AUDIO
    TITLE "Reality Breakdown (Live at Mabuhay Gardens)"
    PERFORMER "No Trend"
    INDEX 01 00:00:00
FILE "14. Teen Love (Live at Mabuhay Gardens).wav" WAVE
  TRACK 14 AUDIO
    TITLE "Teen Love (Live at Mabuhay Gardens)"
    PERFORMER "No Trend"
    INDEX 01 00:00:00
FILE "15. Cancer (Live at Mabuhay Gardens).wav" WAVE
  TRACK 15 AUDIO
    TITLE "Cancer (Live at Mabuhay Gardens)"
    PERFORMER "No Trend"
    INDEX 01 00:00:00
FILE "16. Family Style (Live at Mabuhay Gardens).wav" WAVE
  TRACK 16 AUDIO
    TITLE "Family Style (Live at Mabuhay Gardens)"
    PERFORMER "No Trend"
    INDEX 01 00:00:00
FILE "17. Blow Dry (Live at Mabuhay Gardens).wav" WAVE
  TRACK 17 AUDIO
    TITLE "Blow Dry (Live at Mabuhay Gardens)"
    PERFORMER "No Trend"
    INDEX 01 00:00:00
FILE "18. Kiss Ass to Your Peer Group (Live at Mabuhay Gardens).wav" WAVE
  TRACK 18 AUDIO
    TITLE "Kiss Ass to Your Peer Group (Live at Mabuhay Gardens)"
    PERFORMER "No Trend"
    INDEX 01 00:00:00
FILE "19. Mass Sterilization Caused by Venereal Disease (Live at Mabuhay Gardens).wav" WAVE
  TRACK 19 AUDIO
    TITLE "Mass Sterilization Caused by Venereal Disease (Live at Mabuhay Gardens)"
    PERFORMER "No Trend"
    INDEX 01 00:00:00
FILE "20. Do as You're Told (Live at Cathay de Grande).wav" WAVE
  TRACK 20 AUDIO
    TITLE "Do as You're Told (Live at Cathay de Grande)"
    PERFORMER "No Trend"
    INDEX 01 00:00:00
FILE "21. Fashion Tips for the '80s (Live at Cathay de Grande).wav" WAVE
  TRACK 21 AUDIO
    TITLE "Fashion Tips for the '80s (Live at Cathay de Grande)"
    PERFORMER "No Trend"
    INDEX 01 00:00:00
FILE "22. Mindless Little Insects (Live at Cathay de Grande).wav" WAVE
  TRACK 22 AUDIO
    TITLE "Mindless Little Insects (Live at Cathay de Grande)"
    PERFORMER "No Trend"
    INDEX 01 00:00:00
FILE "23. Reality Breakdown (Live at Cathay de Grande).wav" WAVE
  TRACK 23 AUDIO
    TITLE "Reality Breakdown (Live at Cathay de Grande)"
    PERFORMER "No Trend"
    INDEX 01 00:00:00
FILE "24. Cancer (Live at Cathay de Grande).wav" WAVE
  TRACK 24 AUDIO
    TITLE "Cancer (Live at Cathay de Grande)"
    PERFORMER "No Trend"
    INDEX 01 00:00:00
FILE "25. Family Style (Live at Cathay de Grande).wav" WAVE
  TRACK 25 AUDIO
    TITLE "Family Style (Live at Cathay de Grande)"
    PERFORMER "No Trend"
    INDEX 01 00:00:00
FILE "26. Kiss Ass to Your Peer Group (Live at Cathay de Grande).wav" WAVE
  TRACK 26 AUDIO
    TITLE "Kiss Ass to Your Peer Group (Live at Cathay de Grande)"
    PERFORMER "No Trend"
    INDEX 01 00:00:00
FILE "27. Teen Love (Live at Cathay de Grande).wav" WAVE
  TRACK 27 AUDIO
    TITLE "Teen Love (Live at Cathay de Grande)"
    PERFORMER "No Trend"
    INDEX 01 00:00:00
FILE "28. Mass Sterilization Caused by Venereal Disease (Live at Cathay de Grande).wav" WAVE
  TRACK 28 AUDIO
    TITLE "Mass Sterilization Caused by Venereal Disease (Live at Cathay de Grande)"
    PERFORMER "No Trend"
    INDEX 01 00:00:00[/color][/b]
CD1 - дебютный LP группы "Too Many Humans", 1984 года + сингл "Teen Love", 1983 года (вернее, его переиздание 1984 с двумя бонус-треками)
CD2 - Demo и Live-версии композиций представленных на CD1
Правила, инструкции, FAQ!!!
Торрент  Добавлен [07 янв 2021, 12:28] Скачать торрент Магнет ссылка
Скачать торрент
[ Размер 19.52 КБ / Просмотров 20 ]

Статус
Проверен 
 
Размер  795.7 МБ
Приватный: Нет (DHT включён)
.torrent скачан  1
 


     Отправить личное сообщение
   
Страница 1 из 1
Показать сообщения за:  Поле сортировки  
Начать новую тему Ответить на тему


Сейчас этот форум просматривают: нет зарегистрированных пользователей и гости: 0


Вы не можете начинать темы
Вы не можете отвечать на сообщения
Вы не можете редактировать свои сообщения
Вы не можете удалять свои сообщения
Вы не можете добавлять вложения

Перейти:  
cron