Начать новую тему Ответить на тему
Статистика раздачи
Размер: 524.63 МБ | Добавлен: 26 мар 2019, 19:18 | Скачали: 1
Сидеров: 0  [0 байт/сек]    Личеров: 0  [0 байт/сек]
Пред. тема | След. тема 

Автор
Сообщение

СообщениеДобавлено: 26 мар 2019, 19:18 

Ответить с цитатой 

Original Mirrors (Ian Broudie) - Heartbeat. The Best Of
Жанр: new wave, pop-rock
Страна-производитель диска: UK
Год издания диска: 1996
Издатель (лейбл): Mercury
Номер по каталогу: 532 594-2
Страна: UK
Аудиокодек: FLAC (*.flac)
Тип рипа: tracks+.cue
Битрейт аудио: lossless
Продолжительность: 01:16:20
Источник (релизер): CD
Наличие сканов в содержимом раздачи: да
Треклист:
01. Sharp Words
02. Reflections
03. The Boys, The Boys
04. Flying
05. Chains Of Love
06. Could This Be Heaven
07. Boys Cry
08. Night Of The Angels
09. Panic In The Night
10. Feel Like A Train
11. Heart, Twango And Rawbeat
12. Dancing With The Rebels
13. Teenbeat
14. When You're Young
15. Things To Come
16. Darling In London
17. Don't Cry Baby
18. Don't Wear Red
19. Swing Together
20. Time Has Come
Код:
Exact Audio Copy V0.99 prebeta 5 from 4. May 2009
Отчёт EAC об извлечении, выполненном 24. октября 2011, 0:24
Original Mirrors / HEARTBEAT  The Best Of Original Mirrors
Дисковод: Optiarc DVD RW AD-5240S   Adapter: 3  ID: 1
Режим чтения                 : Достоверность
Использование точного потока : Да
Отключение кэша аудио        : Да
Использование указателей C2  : Нет
Коррекция смещения при чтении                     : 48
Способность читать области Lead-in и Lead-out     : Нет
Заполнение пропущенных сэмплов тишиной            : Да
Удаление блоков с тишиной в начале и конце        : Нет
При вычислениях CRC использовались нулевые сэмплы : Да
Интерфейс                                         : Встроенный Win32-интерфейс для Win NT/2000
Обработка зазоров                                 : Добавлено к предыдущему треку
Выходной формат          : Пользовательский кодировщик
Выбранный битрейт        : 768 kBit/s
Качество                 : Высокий
Добавление ID3-тэга      : Нет
Утилита сжатия           : L:\программы\Exact Audio Copy\FLAC\FLAC.EXE
Дополнительные параметры : -6 -V -T "ARTIST=%a" -T "TITLE=%t" -T "ALBUM=%g" -T "DATE=%y" -T "TRACKNUMBER=%n" -T "GENRE=%m" -T "COMMENT=%e" %s -o %d
TOC извлечённого CD
     Трек |   Старт  | Длительность | Начальный сектор | Конечный сектор
    ---------------------------------------------------------------------
       1  |  0:00.00 |    4:29.05   |           0      |      20179
       2  |  4:29.05 |    4:09.72   |       20180      |      38926
       3  |  8:39.02 |    3:28.45   |       38927      |      54571
       4  | 12:07.47 |    4:04.58   |       54572      |      72929
       5  | 16:12.30 |    4:08.27   |       72930      |      91556
       6  | 20:20.57 |    5:10.23   |       91557      |     114829
       7  | 25:31.05 |    2:34.27   |      114830      |     126406
       8  | 28:05.32 |    3:37.73   |      126407      |     142754
       9  | 31:43.30 |    3:17.70   |      142755      |     157599
      10  | 35:01.25 |    4:37.22   |      157600      |     178396
      11  | 39:38.47 |    1:58.13   |      178397      |     187259
      12  | 41:36.60 |    3:32.40   |      187260      |     203199
      13  | 45:09.25 |    2:49.72   |      203200      |     215946
      14  | 47:59.22 |    4:00.40   |      215947      |     233986
      15  | 51:59.62 |    5:03.48   |      233987      |     256759
      16  | 57:03.35 |    3:59.65   |      256760      |     274749
      17  | 61:03.25 |    3:57.10   |      274750      |     292534
      18  | 65:00.35 |    4:31.45   |      292535      |     312904
      19  | 69:32.05 |    3:21.20   |      312905      |     327999
      20  | 72:53.25 |    3:20.30   |      328000      |     343029
Трек  1
     Имя файла L:\Новая папка\01. Original Mirrors - Sharp Words.wav
     Длина предзазора  0:00:02.00
     Пиковый уровень 99.6 %
     Качество трека 100.0 %
     CRC теста 31B1A90F
     CRC копии 31B1A90F
     Точность не определена (достоверность 2)  [44FF74A8], AccurateRip вернул [F1056FB5]
     Копирование... OK
Трек  2
     Имя файла L:\Новая папка\02. Original Mirrors - Reflections.wav
     Длина предзазора  0:00:00.05
     Пиковый уровень 100.0 %
     Качество трека 100.0 %
     CRC теста CAE6BDB5
     CRC копии CAE6BDB5
     Точность не определена (достоверность 2)  [EB0F5EF3], AccurateRip вернул [241C9D90]
     Копирование... OK
Трек  3
     Имя файла L:\Новая папка\03. Original Mirrors - The Boys, The Boys.wav
     Длина предзазора  0:00:00.37
     Пиковый уровень 100.0 %
     Качество трека 100.0 %
     CRC теста D2219B83
     CRC копии D2219B83
     Точность не определена (достоверность 1)  [09B1C2D4], AccurateRip вернул [86E7E608]
     Копирование... OK
Трек  4
     Имя файла L:\Новая папка\04. Original Mirrors - Flying.wav
     Длина предзазора  0:00:00.12
     Пиковый уровень 100.0 %
     Качество трека 100.0 %
     CRC теста FEEB6D14
     CRC копии FEEB6D14
     Точность не определена (достоверность 1)  [FB83FCD7], AccurateRip вернул [A0046458]
     Копирование... OK
Трек  5
     Имя файла L:\Новая папка\05. Original Mirrors - Chains Of Love.wav
     Длина предзазора  0:00:00.18
     Пиковый уровень 98.8 %
     Качество трека 99.9 %
     CRC теста 24D2329F
     CRC копии 24D2329F
     Точность не определена (достоверность 1)  [44B13AB9], AccurateRip вернул [8CD73EEF]
     Копирование... OK
Трек  6
     Имя файла L:\Новая папка\06. Original Mirrors - Could This Be Heaven.wav
     Длина предзазора  0:00:00.40
     Пиковый уровень 100.0 %
     Качество трека 100.0 %
     CRC теста 50D41D76
     CRC копии 50D41D76
     Точность не определена (достоверность 2)  [DE41AAF0], AccurateRip вернул [2EA04777]
     Копирование... OK
Трек  7
     Имя файла L:\Новая папка\07. Original Mirrors - Boys Cry.wav
     Пиковый уровень 99.2 %
     Качество трека 100.0 %
     CRC теста DCA13F8C
     CRC копии DCA13F8C
     Точность не определена (достоверность 1)  [7CA17AEB], AccurateRip вернул [A2B98778]
     Копирование... OK
Трек  8
     Имя файла L:\Новая папка\08. Original Mirrors - Night Of The Angels.wav
     Пиковый уровень 100.0 %
     Качество трека 100.0 %
     CRC теста 72DE3C60
     CRC копии 72DE3C60
     Точность не определена (достоверность 1)  [B10B282D], AccurateRip вернул [7E7635CC]
     Копирование... OK
Трек  9
     Имя файла L:\Новая папка\09. Original Mirrors - Panic In The Night.wav
     Пиковый уровень 100.0 %
     Качество трека 100.0 %
     CRC теста 4D59207A
     CRC копии 4D59207A
     Точность не определена (достоверность 1)  [94C29E8F], AccurateRip вернул [59159CB5]
     Копирование... OK
Трек 10
     Имя файла L:\Новая папка\10. Original Mirrors - Feel Like A Train.wav
     Пиковый уровень 100.0 %
     Качество трека 99.9 %
     CRC теста 79D1C165
     CRC копии 79D1C165
     Точность не определена (достоверность 1)  [6F883929], AccurateRip вернул [53D37D1E]
     Копирование... OK
Трек 11
     Имя файла L:\Новая папка\11. Original Mirrors - Heart, Twango And Rawbeat.wav
     Длина предзазора  0:00:02.10
     Пиковый уровень 100.0 %
     Качество трека 100.0 %
     CRC теста CAA91CC7
     CRC копии CAA91CC7
     Точность не определена (достоверность 1)  [96498EF5], AccurateRip вернул [EBBF25B8]
     Копирование... OK
Трек 12
     Имя файла L:\Новая папка\12. Original Mirrors - Dancing With The Rebels.wav
     Пиковый уровень 99.2 %
     Качество трека 99.9 %
     CRC теста 01BB000A
     CRC копии 01BB000A
     Точность не определена (достоверность 1)  [9DC4611A], AccurateRip вернул [647435BC]
     Копирование... OK
Трек 13
     Имя файла L:\Новая папка\13. Original Mirrors - Teenbeat.wav
     Длина предзазора  0:00:01.33
     Пиковый уровень 99.6 %
     Качество трека 100.0 %
     CRC теста 4B31715D
     CRC копии 4B31715D
     Точность не определена (достоверность 1)  [31F832C8], AccurateRip вернул [51505356]
     Копирование... OK
Трек 14
     Имя файла L:\Новая папка\14. Original Mirrors - When You're Young.wav
     Длина предзазора  0:00:00.45
     Пиковый уровень 99.6 %
     Качество трека 100.0 %
     CRC теста F54E8370
     CRC копии F54E8370
     Точность не определена (достоверность 1)  [1B60A859], AccurateRip вернул [260F739D]
     Копирование... OK
Трек 15
     Имя файла L:\Новая папка\15. Original Mirrors - Things To Come.wav
     Длина предзазора  0:00:00.57
     Пиковый уровень 100.0 %
     Качество трека 100.0 %
     CRC теста 39503359
     CRC копии 39503359
     Точность не определена (достоверность 1)  [2CB97C1C], AccurateRip вернул [5DF7DA89]
     Копирование... OK
Трек 16
     Имя файла L:\Новая папка\16. Original Mirrors - Darling In London.wav
     Длина предзазора  0:00:00.20
     Пиковый уровень 99.4 %
     Качество трека 100.0 %
     CRC теста D0FB483D
     CRC копии D0FB483D
     Точность не определена (достоверность 1)  [F37BA911], AccurateRip вернул [5978354F]
     Копирование... OK
Трек 17
     Имя файла L:\Новая папка\17. Original Mirrors - Don't Cry Baby.wav
     Длина предзазора  0:00:00.53
     Пиковый уровень 99.6 %
     Качество трека 100.0 %
     CRC теста FAA1128B
     CRC копии FAA1128B
     Точность не определена (достоверность 1)  [E8C76DAF], AccurateRip вернул [1A74F7AA]
     Копирование... OK
Трек 18
     Имя файла L:\Новая папка\18. Original Mirrors - Don't Wear Red.wav
     Длина предзазора  0:00:01.53
     Пиковый уровень 99.2 %
     Качество трека 100.0 %
     CRC теста 7B7A222C
     CRC копии 7B7A222C
     Точность не определена (достоверность 1)  [71620239], AccurateRip вернул [4BD3C6F7]
     Копирование... OK
Трек 19
     Имя файла L:\Новая папка\19. Original Mirrors - Swing Together.wav
     Длина предзазора  0:00:03.28
     Пиковый уровень 100.0 %
     Качество трека 100.0 %
     CRC теста F8B69669
     CRC копии F8B69669
     Точность не определена (достоверность 1)  [5C39C8C2], AccurateRip вернул [CFB2DD91]
     Копирование... OK
Трек 20
     Имя файла L:\Новая папка\20. Original Mirrors - Time Has Come.wav
     Пиковый уровень 99.8 %
     Качество трека 100.0 %
     CRC теста 763F6C27
     CRC копии 763F6C27
     Точность не определена (достоверность 1)  [2F18381D], AccurateRip вернул [D4247A33]
     Копирование... OK
Ни один трек не прошёл проверки на точность
В вашей базе может быть иной вариант штамповки диска
Ошибок не произошло
Конец отчёта
Код:
REM GENRE "New Wave"
REM DISCID 1511DD14
REM COMMENT "ExactAudioCopy v0.99pb5"
CATALOG 0731453259423
PERFORMER "Original Mirrors"
TITLE "HEARTBEAT  The Best Of Original Mirrors"
FILE "01. Original Mirrors - Sharp Words.wav" WAVE
  TRACK 01 AUDIO
    TITLE "Sharp Words"
    PERFORMER "Original Mirrors"
    ISRC GBFO88000651
    INDEX 01 00:00:00
  TRACK 02 AUDIO
    TITLE "Reflections"
    PERFORMER "Original Mirrors"
    ISRC GBFO88000652
    INDEX 00 04:29:00
FILE "02. Original Mirrors - Reflections.wav" WAVE
    INDEX 01 00:00:00
  TRACK 03 AUDIO
    TITLE "The Boys, The Boys"
    PERFORMER "Original Mirrors"
    ISRC GBFO88000657
    INDEX 00 04:09:35
FILE "03. Original Mirrors - The Boys, The Boys.wav" WAVE
    INDEX 01 00:00:00
  TRACK 04 AUDIO
    TITLE "Flying"
    PERFORMER "Original Mirrors"
    ISRC GBFO88000654
    INDEX 00 03:28:33
FILE "04. Original Mirrors - Flying.wav" WAVE
    INDEX 01 00:00:00
  TRACK 05 AUDIO
    TITLE "Chains Of Love"
    PERFORMER "Original Mirrors"
    ISRC GBFO88000655
    INDEX 00 04:04:40
FILE "05. Original Mirrors - Chains Of Love.wav" WAVE
    INDEX 01 00:00:00
  TRACK 06 AUDIO
    TITLE "Could This Be Heaven"
    PERFORMER "Original Mirrors"
    ISRC GBFO88000656
    INDEX 00 04:07:62
FILE "06. Original Mirrors - Could This Be Heaven.wav" WAVE
    INDEX 01 00:00:00
FILE "07. Original Mirrors - Boys Cry.wav" WAVE
  TRACK 07 AUDIO
    TITLE "Boys Cry"
    PERFORMER "Original Mirrors"
    ISRC GBFO88000653
    INDEX 01 00:00:00
FILE "08. Original Mirrors - Night Of The Angels.wav" WAVE
  TRACK 08 AUDIO
    TITLE "Night Of The Angels"
    PERFORMER "Original Mirrors"
    ISRC GBFO88000658
    INDEX 01 00:00:00
FILE "09. Original Mirrors - Panic In The Night.wav" WAVE
  TRACK 09 AUDIO
    TITLE "Panic In The Night"
    PERFORMER "Original Mirrors"
    ISRC GBFO88000659
    INDEX 01 00:00:00
FILE "10. Original Mirrors - Feel Like A Train.wav" WAVE
  TRACK 10 AUDIO
    TITLE "Feel Like A Train"
    PERFORMER "Original Mirrors"
    ISRC GBFO88000660
    INDEX 01 00:00:00
  TRACK 11 AUDIO
    TITLE "Heart, Twango And Rawbeat"
    PERFORMER "Original Mirrors"
    ISRC GBFO88100776
    INDEX 00 04:35:12
FILE "11. Original Mirrors - Heart, Twango And Rawbeat.wav" WAVE
    INDEX 01 00:00:00
FILE "12. Original Mirrors - Dancing With The Rebels.wav" WAVE
  TRACK 12 AUDIO
    TITLE "Dancing With The Rebels"
    PERFORMER "Original Mirrors"
    ISRC GBFO88100777
    INDEX 01 00:00:00
  TRACK 13 AUDIO
    TITLE "Teenbeat"
    PERFORMER "Original Mirrors"
    ISRC GBFO88100778
    INDEX 00 03:31:07
FILE "13. Original Mirrors - Teenbeat.wav" WAVE
    INDEX 01 00:00:00
  TRACK 14 AUDIO
    TITLE "When You're Young"
    PERFORMER "Original Mirrors"
    ISRC GBFO88100779
    INDEX 00 02:49:27
FILE "14. Original Mirrors - When You're Young.wav" WAVE
    INDEX 01 00:00:00
  TRACK 15 AUDIO
    TITLE "Things To Come"
    PERFORMER "Original Mirrors"
    ISRC GBFO88100780
    INDEX 00 03:59:58
FILE "15. Original Mirrors - Things To Come.wav" WAVE
    INDEX 01 00:00:00
  TRACK 16 AUDIO
    TITLE "Darling In London"
    PERFORMER "Original Mirrors"
    ISRC GBFO88100781
    INDEX 00 05:03:28
FILE "16. Original Mirrors - Darling In London.wav" WAVE
    INDEX 01 00:00:00
  TRACK 17 AUDIO
    TITLE "Don't Cry Baby"
    PERFORMER "Original Mirrors"
    ISRC GBFO88100782
    INDEX 00 03:59:12
FILE "17. Original Mirrors - Don't Cry Baby.wav" WAVE
    INDEX 01 00:00:00
  TRACK 18 AUDIO
    TITLE "Don't Wear Red"
    PERFORMER "Original Mirrors"
    ISRC GBFO88100783
    INDEX 00 03:55:32
FILE "18. Original Mirrors - Don't Wear Red.wav" WAVE
    INDEX 01 00:00:00
  TRACK 19 AUDIO
    TITLE "Swing Together"
    PERFORMER "Original Mirrors"
    ISRC GBFO88100784
    INDEX 00 04:28:17
FILE "19. Original Mirrors - Swing Together.wav" WAVE
    INDEX 01 00:00:00
FILE "20. Original Mirrors - Time Has Come.wav" WAVE
  TRACK 20 AUDIO
    TITLE "Time Has Come"
    PERFORMER "Original Mirrors"
    ISRC GBFO88100785
    INDEX 01 00:00:00
#777
Ян Броуди (основатель и лидер "The Lightning Seeds") основал Original Mirrors в своем родном Ливерпуле, призвав в ее ряды вокалиста Стива Аллена из распавшейся в 1978 группы Deaf School. Первый альбом группы «Original Mirrors» (1980) и последовавший за ним «Heart Twango & Raw Beat» (1981) не имели особого коммерческого успеха. Группа прекратила существование. Броуди занялся продюсированием Echo & the Bunnymen и The Fall. Интересно, что вышедший в 1996 на волне успеха Lightning Seeds сборник лучших вещей Original Mirrors (в него на самом деле вошли не лучшие вещи, а оба альбома целиком) продавался куда лучше, чем тот же материал в период существования группы.
All tracks written by S. Allen/I. Broudie, except 2: Holland/Dozier/Holland, 7: S. Allen/I. Broudie/Ward, 11 & 18: I. Broudie.
Producer - Alan Winstanley (tracks: 1 - 7, 9 and 10) , Bill Nelson (tracks: 8) , Ian Broudie (tracks: 1 - 7, 9 and 10) , Mike Howlett (tracks: 11 - 20) , Steve Allen (tracks: 1 - 7, 9 and 10).
Tracks 1 - 10: ® 1980 Mercury Records ltd. Tracks 11 - 20: ® 1981 Mercury Records ltd.
Ian Broudie (guitar)
Steve Allen (vocals)
Phil Spalding (bass)
Peter Kircher (drums)
Правила, инструкции, FAQ!!!
Торрент  Добавлен [26 мар 2019, 19:18] Скачать торрент Магнет ссылка
Скачать торрент
[ Размер 24.36 КБ / Просмотров 2 ]

Статус
Проверен 
 
Размер  524.63 МБ
Приватный: Нет (DHT включён)
.torrent скачан  1
 


     Отправить личное сообщение
   
Страница 1 из 1
Показать сообщения за:  Поле сортировки  
Начать новую тему Ответить на тему


Сейчас этот форум просматривают: нет зарегистрированных пользователей и гости: 0


Вы не можете начинать темы
Вы не можете отвечать на сообщения
Вы не можете редактировать свои сообщения
Вы не можете удалять свои сообщения
Вы не можете добавлять вложения

Перейти:  
cron