Начать новую тему Ответить на тему
Статистика раздачи
Размер: 322.31 МБ | Добавлен: 26 июн 2020, 16:48 | Скачали: 0
Сидеров: 0  [0 байт/сек]    Личеров: 0  [0 байт/сек]
Пред. тема | След. тема 

Автор
Сообщение

СообщениеДобавлено: 26 июн 2020, 16:48 

Ответить с цитатой 

Peragon / Es ist Zeit


Жанр
: Neue Deutsche Härte / Industrial Metal
Носитель
: CD
Страна-производитель диска (релиза): Германия
Год издания: 2008
Издатель (лейбл): PERAGON
Страна исполнителя (группы): Германия
Аудиокодек: FLAC (*.flac)
Тип рипа: image+.cue
Битрейт аудио: lossless
Продолжительность: 00:47:27
Источник (релизер): astennu
Наличие сканов в содержимом раздачи: да, только буклет


Треклист:
01. Intro
02. Es Ist Zeit
03. Titanik
04. Wach Auf
05. Dein Schatten
06. Eifersucht
07. Kauf Mich
08. Der Weite Ozean
09. Liebe Kann
10. Ein Mensch Der Lernt
11. Attentaeter
12. Das Licht
Код:
Exact Audio Copy V1.0 beta 3 from 29. August 2011
Отчёт EAC об извлечении, выполненном 2. декабря 2014, 22:22
- / Es ist Zeit
Дисковод: ATAPI   iHAS122   Adapter: 1  ID: 1
Режим чтения                 : Достоверность
Использование точного потока : Да
Отключение кэша аудио        : Да
Использование указателей C2  : Нет
Коррекция смещения при чтении                     : 6
Способность читать области Lead-in и Lead-out     : Нет
Заполнение пропущенных сэмплов тишиной            : Да
Удаление блоков с тишиной в начале и конце        : Нет
При вычислениях CRC использовались нулевые сэмплы : Да
Интерфейс                                         : Установленный внешний ASPI-интерфейс
Выходной формат : Внутренние WAV-операции
Формат сэмплов  : 44.100 Гц; 16 бит; стерео
TOC извлечённого CD
     Трек |   Старт  | Длительность | Начальный сектор | Конечный сектор
    ---------------------------------------------------------------------
       1  |  0:00.00 |    2:25.29   |           0      |      10903
       2  |  2:25.29 |    3:35.00   |       10904      |      27028
       3  |  6:00.29 |    4:24.18   |       27029      |      46846
       4  | 10:24.47 |    4:26.40   |       46847      |      66836
       5  | 14:51.12 |    3:47.39   |       66837      |      83900
       6  | 18:38.51 |    3:10.01   |       83901      |      98151
       7  | 21:48.52 |    4:03.39   |       98152      |     116415
       8  | 25:52.16 |    5:28.25   |      116416      |     141040
       9  | 31:20.41 |    4:56.06   |      141041      |     163246
      10  | 36:16.47 |    3:52.22   |      163247      |     180668
      11  | 40:08.69 |    3:49.06   |      180669      |     197849
      12  | 43:58.00 |    3:29.10   |      197850      |     213534
Характеристики диапазона извлечения и сообщения об ошибках
Выбранный диапазон
     Имя файла I:\яндексДиск\Музыка\Peragon Lossless\Es ist Zeit.wav
     Пиковый уровень 86.1 %
     Скорость извлечения 5.3 X
     Качество диапазона 100.0 %
     CRC теста 6B68DC3D
     CRC копии 6B68DC3D
     Копирование... OK
Ошибок не произошло
Конец отчёта


Правила, инструкции, FAQ!!!
Торрент  Добавлен [26 июн 2020, 16:48] Скачать торрент Магнет ссылка
Скачать торрент
[ Размер 13.36 КБ / Просмотров 3 ]

Статус
Проверен 
 
Размер  322.31 МБ
Приватный: Нет (DHT включён)
.torrent скачан  0
 


     Отправить личное сообщение
   
Страница 1 из 1
Показать сообщения за:  Поле сортировки  
Начать новую тему Ответить на тему


Сейчас этот форум просматривают: нет зарегистрированных пользователей и гости: 0


Вы не можете начинать темы
Вы не можете отвечать на сообщения
Вы не можете редактировать свои сообщения
Вы не можете удалять свои сообщения
Вы не можете добавлять вложения

Перейти:  
cron