Начать новую тему Ответить на тему
Статистика раздачи
Размер: 262.05 МБ | Добавлен: 26 июн 2020, 17:15 | Скачали: 0
Сидеров: 0  [0 байт/сек]    Личеров: 0  [0 байт/сек]
Пред. тема | След. тема 

Автор
Сообщение

СообщениеДобавлено: 26 июн 2020, 17:15 

Ответить с цитатой 

Attrition - Étude: Interpretations To A Classical Form
Жанр: Neoclassical / Gothic
Год выпуска диска: 1997
Производитель диска: USA
Аудио кодек: FLAC
Тип рипа: tracks+.cue
Битрейт аудио: lossless
Продолжительность: 54:59
Трэклист:
1 Tune Up (1:02)
2 Vigil / Scenario (A Medley) (2:12)
3 Dreamsleep (6:28)
4 Feel The Backlash (3:49)
5 Into The Waves (4:28)
6 Cold Genius (3:56)
7 A Girl Called Harmony (Estranged) (5:26)
8 Which Hand? (3:37)
9 I Am (4:11)
10 A'dam & Eva (Refrain) (3:38)
11 Cold Genius (Sans Vox) (3:33)
12 Fate Is Smiling (4:32)
13 Fusillade I (8:06)
Доп. информация: "Leaving behind both the punky, experimental goth of their early recordings and the muscular industrial-dance of their more recent material, Attrition tackle the classical form on Étude, a disc of string interpretations of several of their more well-known tracks from the '80s and early '90s."
Exact Audio Copy V0.99 prebeta 4 from 23. January 2008
EAC extraction logfile from 5. April 2009, 22:55
Attrition / Étude
Used drive : ATAPI iHAP322 8 Adapter: 1 ID: 1
Read mode : Secure
Utilize accurate stream : Yes
Defeat audio cache : Yes
Make use of C2 pointers : No
Read offset correction : 6
Overread into Lead-In and Lead-Out : No
Fill up missing offset samples with silence : Yes
Delete leading and trailing silent blocks : No
Null samples used in CRC calculations : Yes
Used interface : Installed external ASPI interface
Gap handling : Appended to previous track
Used output format : User Defined Encoder
Selected bitrate : 1024 kBit/s
Quality : High
Add ID3 tag : No
Command line compressor : C:\Program Files\Exact Audio Copy\FLAC\FLAC.EXE
Additional command line options : --best -T "ARTIST=%a" -T "TITLE=%t" -T "ALBUM=%g" -T "DATE=%y" -T "TRACKNUMBER=%n" -T "GENRE=%m" %s
TOC of the extracted CD
Track | Start | Length | Start sector | End sector
---------------------------------------------------------
1 | 0:00.00 | 1:01.20 | 0 | 4594
2 | 1:01.20 | 2:12.45 | 4595 | 14539
3 | 3:13.65 | 6:27.74 | 14540 | 43638
4 | 9:41.64 | 3:48.28 | 43639 | 60766
5 | 13:30.17 | 4:28.33 | 60767 | 80899
6 | 17:58.50 | 3:55.67 | 80900 | 98591
7 | 21:54.42 | 5:26.18 | 98592 | 123059
8 | 27:20.60 | 3:36.25 | 123060 | 139284
9 | 30:57.10 | 4:11.22 | 139285 | 158131
10 | 35:08.32 | 3:38.15 | 158132 | 174496
11 | 38:46.47 | 3:32.35 | 174497 | 190431
12 | 42:19.07 | 4:32.18 | 190432 | 210849
13 | 46:51.25 | 8:06.25 | 210850 | 247324
Track 1
Filename C:\Documents and Settings\Hrafnkat\Desktop\EAC Music\Attrition\Attrition - Étude\01 Tune Up.wav
Pre-gap length 0:00:02.00
Peak level 31.7 %
Track quality 100.0 %
Test CRC 9E8E36E9
Copy CRC 9E8E36E9
Track not present in AccurateRip database
Copy OK
Track 2
Filename C:\Documents and Settings\Hrafnkat\Desktop\EAC Music\Attrition\Attrition - Étude\02 Vigil-Scenario (a medley).wav
Peak level 59.0 %
Track quality 100.0 %
Test CRC 9ACFBA4C
Copy CRC 9ACFBA4C
Track not present in AccurateRip database
Copy OK
Track 3
Filename C:\Documents and Settings\Hrafnkat\Desktop\EAC Music\Attrition\Attrition - Étude\03 Dreamsleep.wav
Peak level 76.6 %
Track quality 100.0 %
Test CRC D9E14D55
Copy CRC D9E14D55
Track not present in AccurateRip database
Copy OK
Track 4
Filename C:\Documents and Settings\Hrafnkat\Desktop\EAC Music\Attrition\Attrition - Étude\04 Feel The Backlash.wav
Peak level 83.9 %
Track quality 100.0 %
Test CRC 56A9202C
Copy CRC 56A9202C
Track not present in AccurateRip database
Copy OK
Track 5
Filename C:\Documents and Settings\Hrafnkat\Desktop\EAC Music\Attrition\Attrition - Étude\05 Into The Waves.wav
Peak level 75.8 %
Track quality 100.0 %
Test CRC DCF05BFB
Copy CRC DCF05BFB
Track not present in AccurateRip database
Copy OK
Track 6
Filename C:\Documents and Settings\Hrafnkat\Desktop\EAC Music\Attrition\Attrition - Étude\06 Cold Genius.wav
Peak level 84.4 %
Track quality 100.0 %
Test CRC FFD04CFD
Copy CRC FFD04CFD
Track not present in AccurateRip database
Copy OK
Track 7
Filename C:\Documents and Settings\Hrafnkat\Desktop\EAC Music\Attrition\Attrition - Étude\07 A Girl Called Harmony (estranged).wav
Peak level 80.8 %
Track quality 100.0 %
Test CRC 9F5FD1C4
Copy CRC 9F5FD1C4
Track not present in AccurateRip database
Copy OK
Track 8
Filename C:\Documents and Settings\Hrafnkat\Desktop\EAC Music\Attrition\Attrition - Étude\08 Which Hand.wav
Peak level 68.4 %
Track quality 100.0 %
Test CRC 18CA6F12
Copy CRC 18CA6F12
Track not present in AccurateRip database
Copy OK
Track 9
Filename C:\Documents and Settings\Hrafnkat\Desktop\EAC Music\Attrition\Attrition - Étude\09 I Am.wav
Peak level 86.2 %
Track quality 100.0 %
Test CRC 80693315
Copy CRC 80693315
Track not present in AccurateRip database
Copy OK
Track 10
Filename C:\Documents and Settings\Hrafnkat\Desktop\EAC Music\Attrition\Attrition - Étude\10 A'dam & Eva (refrain).wav
Peak level 72.8 %
Track quality 100.0 %
Test CRC 514EE286
Copy CRC 514EE286
Track not present in AccurateRip database
Copy OK
Track 11
Filename C:\Documents and Settings\Hrafnkat\Desktop\EAC Music\Attrition\Attrition - Étude\11 Cold Genius (sans vox).wav
Peak level 47.9 %
Track quality 100.0 %
Test CRC FFF543BE
Copy CRC FFF543BE
Track not present in AccurateRip database
Copy OK
Track 12
Filename C:\Documents and Settings\Hrafnkat\Desktop\EAC Music\Attrition\Attrition - Étude\12 Fate Is Smiling.wav
Peak level 85.5 %
Track quality 100.0 %
Test CRC 440F3617
Copy CRC 440F3617
Track not present in AccurateRip database
Copy OK
Track 13
Filename C:\Documents and Settings\Hrafnkat\Desktop\EAC Music\Attrition\Attrition - Étude\13 Fusillade I.wav
Peak level 51.4 %
Track quality 100.0 %
Test CRC 9E0B2ED6
Copy CRC 9E0B2ED6
Track not present in AccurateRip database
Copy OK
None of the tracks are present in the AccurateRip database
No errors occurred
End of status report
Правила, инструкции, FAQ!!!
Торрент  Добавлен [26 июн 2020, 17:15] Скачать торрент Магнет ссылка
Скачать торрент
[ Размер 11.5 КБ / Просмотров 12 ]

Статус
Проверен 
 
Размер  262.05 МБ
Приватный: Нет (DHT включён)
.torrent скачан  0
 


     Отправить личное сообщение
   
Страница 1 из 1
Показать сообщения за:  Поле сортировки  
Начать новую тему Ответить на тему


Сейчас этот форум просматривают: нет зарегистрированных пользователей и гости: 0


Вы не можете начинать темы
Вы не можете отвечать на сообщения
Вы не можете редактировать свои сообщения
Вы не можете удалять свои сообщения
Вы не можете добавлять вложения

Перейти:  
cron