Начать новую тему Ответить на тему
Статистика раздачи
Размер: 230.06 МБ | Добавлен: 26 мар 2019, 20:58 | Скачали: 0
Сидеров: 0  [0 байт/сек]    Личеров: 0  [0 байт/сек]
Пред. тема | След. тема 

Автор
Сообщение

СообщениеДобавлено: 26 мар 2019, 20:58 

Ответить с цитатой 

Element of Crime - An einem Sonntag im April
Жанр: Neo-Romantic, Pop-Rock, Deutsche Rock, Chanson
Год выпуска диска: 1994
Производитель диска: Germany (Motor Music, Hamburg)
Аудио кодек: FLAC
Тип рипа: tracks+.cue
Битрейт аудио: lossless
Продолжительность: 40:57
Трэклист:
Mein Dein Tag (3:33)
Ein Mann (4:03)
Unter Brüdern (4:32)
Ich kann warten (4:07)
An einem Sonntag im April (3:20)
Verraten (3:58)
Im vorigen Jahr (4:02)
Ganz leicht (4:33)
Weil du nicht da bist (2:50)
Bis du zu mir kommst (3:26)
An Land (2:29)
Доп. информация: В папке Scan обложки диска. Рип снимался с диска из собственной коллекции программой xLD, отчет прилагается.
X Lossless Decoder version 20090829 (109.6)
XLD extraction logfile from 2009-08-31 02:47:48 +0400
Element of Crime / An einem Sonntag im April
Used drive : PIONEER DVD-RW DVR-112D (revision AC08)
Use cdparanoia mode : YES (CDParanoia III 9.8 engine)
Disable audio cache : OK for the drive with cache less than 370KB
Make use of C2 pointers : YES
Read offset correction : 48
Max retry count : 100
TOC of the extracted CD
Track | Start | Length | Start sector | End sector
---------------------------------------------------------
1 | 00:00:32 | 03:33:13 | 32 | 16019
2 | 03:33:45 | 04:03:20 | 16020 | 34264
3 | 07:36:65 | 04:32:00 | 34265 | 54664
4 | 12:08:65 | 04:07:00 | 54665 | 73189
5 | 16:15:65 | 03:20:35 | 73190 | 88224
6 | 19:36:25 | 03:58:35 | 88225 | 106109
7 | 23:34:60 | 04:02:35 | 106110 | 124294
8 | 27:37:20 | 04:33:17 | 124295 | 144786
9 | 32:10:37 | 02:50:25 | 144787 | 157561
10 | 35:00:62 | 03:26:23 | 157562 | 173034
11 | 38:27:10 | 02:28:65 | 173035 | 184199
List of alternate offset correction values
# | Absolute | Relative | Confidence
------------------------------------------
1 | -1285 | -1333 | 4
2 | -621 | -669 | 3
Track 01
Filename : /Volumes/My Book/Music For Mac IX/Flac-Tracks/01 Element of Crime - Mein dein Tag - Element of Crime.flac
CRC32 hash (test run) : 3750A74B
CRC32 hash : 3750A74B
CRC32 hash (skip zero) : 27A0782A
AccurateRip signature : E6D2385D
->Accurately ripped! (confidence 47)
Statistics
Read error : 0
Skipped (treated as error) : 0
Edge jitter error (maybe fixed) : 0
Atom jitter error (maybe fixed) : 0
Drift error (maybe fixed) : 0
Dropped bytes error (maybe fixed) : 0
Duplicated bytes error (maybe fixed) : 0
Inconsistency in error sectors : 0
Track 02
Filename : /Volumes/My Book/Music For Mac IX/Flac-Tracks/02 Element of Crime - Ein Mann - Element of Crime.flac
CRC32 hash (test run) : 6204F81D
CRC32 hash : 6204F81D
CRC32 hash (skip zero) : 0DA5B259
AccurateRip signature : 3E9E7197
->Accurately ripped! (confidence 46)
Statistics
Read error : 0
Skipped (treated as error) : 0
Edge jitter error (maybe fixed) : 0
Atom jitter error (maybe fixed) : 0
Drift error (maybe fixed) : 0
Dropped bytes error (maybe fixed) : 0
Duplicated bytes error (maybe fixed) : 0
Inconsistency in error sectors : 0
Track 03
Filename : /Volumes/My Book/Music For Mac IX/Flac-Tracks/03 Element of Crime - Unter Br√Љdern - Element of Crime.flac
CRC32 hash (test run) : E27E28D4
CRC32 hash : E27E28D4
CRC32 hash (skip zero) : E7F1C864
AccurateRip signature : 895CE0D1
->Accurately ripped! (confidence 47)
Statistics
Read error : 0
Skipped (treated as error) : 0
Edge jitter error (maybe fixed) : 0
Atom jitter error (maybe fixed) : 0
Drift error (maybe fixed) : 0
Dropped bytes error (maybe fixed) : 0
Duplicated bytes error (maybe fixed) : 0
Inconsistency in error sectors : 0
Track 04
Filename : /Volumes/My Book/Music For Mac IX/Flac-Tracks/04 Element of Crime - Ich kann warten - Element of Crime.flac
CRC32 hash (test run) : 957E5EAE
CRC32 hash : 957E5EAE
CRC32 hash (skip zero) : 1A0E58FB
AccurateRip signature : 428B19F5
->Accurately ripped! (confidence 48)
Statistics
Read error : 0
Skipped (treated as error) : 0
Edge jitter error (maybe fixed) : 0
Atom jitter error (maybe fixed) : 0
Drift error (maybe fixed) : 0
Dropped bytes error (maybe fixed) : 0
Duplicated bytes error (maybe fixed) : 0
Inconsistency in error sectors : 0
Track 05
Filename : /Volumes/My Book/Music For Mac IX/Flac-Tracks/05 Element of Crime - An einem Sonntag im April - Element of Crime.flac
CRC32 hash (test run) : A9032397
CRC32 hash : A9032397
CRC32 hash (skip zero) : FE4A9B0E
AccurateRip signature : 5FAE216B
->Accurately ripped! (confidence 47)
Statistics
Read error : 0
Skipped (treated as error) : 0
Edge jitter error (maybe fixed) : 0
Atom jitter error (maybe fixed) : 0
Drift error (maybe fixed) : 0
Dropped bytes error (maybe fixed) : 0
Duplicated bytes error (maybe fixed) : 0
Inconsistency in error sectors : 0
Track 06
Filename : /Volumes/My Book/Music For Mac IX/Flac-Tracks/06 Element of Crime - Verraten - Element of Crime.flac
CRC32 hash (test run) : C84A07F8
CRC32 hash : C84A07F8
CRC32 hash (skip zero) : 82931DE7
AccurateRip signature : CA123AAC
->Accurately ripped! (confidence 48)
Statistics
Read error : 0
Skipped (treated as error) : 0
Edge jitter error (maybe fixed) : 0
Atom jitter error (maybe fixed) : 0
Drift error (maybe fixed) : 0
Dropped bytes error (maybe fixed) : 0
Duplicated bytes error (maybe fixed) : 0
Inconsistency in error sectors : 0
Track 07
Filename : /Volumes/My Book/Music For Mac IX/Flac-Tracks/07 Element of Crime - Im vorigen Jahr - Element of Crime.flac
CRC32 hash (test run) : 4803E2EA
CRC32 hash : 4803E2EA
CRC32 hash (skip zero) : 0963C5C9
AccurateRip signature : 76DD35C8
->Accurately ripped! (confidence 47)
Statistics
Read error : 0
Skipped (treated as error) : 0
Edge jitter error (maybe fixed) : 0
Atom jitter error (maybe fixed) : 0
Drift error (maybe fixed) : 0
Dropped bytes error (maybe fixed) : 0
Duplicated bytes error (maybe fixed) : 0
Inconsistency in error sectors : 0
Track 08
Filename : /Volumes/My Book/Music For Mac IX/Flac-Tracks/08 Element of Crime - Ganz leicht - Element of Crime.flac
CRC32 hash (test run) : F6A83CC5
CRC32 hash : F6A83CC5
CRC32 hash (skip zero) : F391CABA
AccurateRip signature : E856BDF6
->Accurately ripped! (confidence 45)
Statistics
Read error : 0
Skipped (treated as error) : 0
Edge jitter error (maybe fixed) : 0
Atom jitter error (maybe fixed) : 0
Drift error (maybe fixed) : 0
Dropped bytes error (maybe fixed) : 0
Duplicated bytes error (maybe fixed) : 0
Inconsistency in error sectors : 0
Track 09
Filename : /Volumes/My Book/Music For Mac IX/Flac-Tracks/09 Element of Crime - Weil du nicht da bist - Element of Crime.flac
CRC32 hash (test run) : CC87B7EB
CRC32 hash : CC87B7EB
CRC32 hash (skip zero) : 6E65AFFE
AccurateRip signature : 27E52C94
->Accurately ripped! (confidence 45)
Statistics
Read error : 0
Skipped (treated as error) : 0
Edge jitter error (maybe fixed) : 0
Atom jitter error (maybe fixed) : 0
Drift error (maybe fixed) : 0
Dropped bytes error (maybe fixed) : 0
Duplicated bytes error (maybe fixed) : 0
Inconsistency in error sectors : 0
Track 10
Filename : /Volumes/My Book/Music For Mac IX/Flac-Tracks/10 Element of Crime - Bis du zu mir kommst - Element of Crime.flac
CRC32 hash (test run) : A8C24D27
CRC32 hash : A8C24D27
CRC32 hash (skip zero) : C4BB4B73
AccurateRip signature : 9E09D7C7
->Accurately ripped! (confidence 44)
Statistics
Read error : 0
Skipped (treated as error) : 0
Edge jitter error (maybe fixed) : 0
Atom jitter error (maybe fixed) : 0
Drift error (maybe fixed) : 0
Dropped bytes error (maybe fixed) : 0
Duplicated bytes error (maybe fixed) : 0
Inconsistency in error sectors : 0
Track 11
Filename : /Volumes/My Book/Music For Mac IX/Flac-Tracks/11 Element of Crime - An Land - Element of Crime.flac
CRC32 hash (test run) : BF837EAC
CRC32 hash : BF837EAC
CRC32 hash (skip zero) : 9DAD98A9
AccurateRip signature : 583437B2
->Accurately ripped! (confidence 48)
Statistics
Read error : 0
Skipped (treated as error) : 0
Edge jitter error (maybe fixed) : 0
Atom jitter error (maybe fixed) : 0
Drift error (maybe fixed) : 0
Dropped bytes error (maybe fixed) : 0
Duplicated bytes error (maybe fixed) : 0
Inconsistency in error sectors : 0
No errors occurred
End of status report
Правила, инструкции, FAQ!!!
Торрент  Добавлен [26 мар 2019, 20:58] Скачать торрент Магнет ссылка
Скачать торрент
[ Размер 20.37 КБ / Просмотров 7 ]

Статус
Проверен 
 
Размер  230.06 МБ
Приватный: Нет (DHT включён)
.torrent скачан  0
 


     Отправить личное сообщение
   
Страница 1 из 1
Показать сообщения за:  Поле сортировки  
Начать новую тему Ответить на тему


Сейчас этот форум просматривают: нет зарегистрированных пользователей и гости: 0


Вы не можете начинать темы
Вы не можете отвечать на сообщения
Вы не можете редактировать свои сообщения
Вы не можете удалять свои сообщения
Вы не можете добавлять вложения

Перейти:  
cron