Начать новую тему Ответить на тему
Статистика раздачи
Размер: 257.91 МБ | Добавлен: 26 мар 2019, 20:58 | Скачали: 0
Сидеров: 0  [0 байт/сек]    Личеров: 0  [0 байт/сек]
Пред. тема | След. тема 

Автор
Сообщение

СообщениеДобавлено: 26 мар 2019, 20:58 

Ответить с цитатой 

Element Of Crime - Romantik
Жанр: Neo-Romantic, Chanson
Год выпуска диска: 2001
Производитель диска: Germany
Аудио кодек: FLAC
Тип рипа: image+.cue
Битрейт аудио: lossless
Продолжительность: 43:58
Трэклист:
01 - Die Hoffnung die du bringst (4:14)
02 - Narzissen und Kakteen(5:13)
03 - Seit der Himmel (3:42)
04 - Warte auf mich (4:44)
05 - Alle vier Minuten (5:21)
06 - Fallende Blätter (4:06)
07 - Bring den Vorschlaghammer mit (4:13)
08 - Gelohnt hat es sich nicht (3:43)
09 - Es regnet (3:15)
10 - Wann kommt der Wind (5:23)
Exact Audio Copy V0.99 prebeta 5 from 4. May 2009
EAC extraction logfile from 26. August 2009, 23:29
Element Of Crime / Romantik
Used drive : PIONEER DVD-RW DVR-112D Adapter: 0 ID: 1
Read mode : Secure
Utilize accurate stream : Yes
Defeat audio cache : Yes
Make use of C2 pointers : No
Read offset correction : 48
Overread into Lead-In and Lead-Out : No
Fill up missing offset samples with silence : Yes
Delete leading and trailing silent blocks : No
Null samples used in CRC calculations : Yes
Used interface : Installed external ASPI interface
Used output format : User Defined Encoder
Selected bitrate : 768 kBit/s
Quality : High
Add ID3 tag : No
Command line compressor : C:\Program Files\Exact Audio Copy\FLAC\FLAC.EXE
Additional command line options : -8 -V -T "ARTIST=%a" -T "TITLE=%t" -T "ALBUM=%g" -T "DATE=%y" -T "TRACKNUMBER=%n" -T "GENRE=%m" -T "COMMENT=EAC FLAC -8" %
TOC of the extracted CD
Track | Start | Length | Start sector | End sector
---------------------------------------------------------
1 | 0:00.00 | 4:17.59 | 0 | 19333
2 | 4:17.59 | 5:14.00 | 19334 | 42883
3 | 9:31.59 | 3:42.54 | 42884 | 59587
4 | 13:14.38 | 4:44.05 | 59588 | 80892
5 | 17:58.43 | 5:21.35 | 80893 | 105002
6 | 23:20.03 | 4:06.58 | 105003 | 123510
7 | 27:26.61 | 4:13.63 | 123511 | 142548
8 | 31:40.49 | 3:42.42 | 142549 | 159240
9 | 35:23.16 | 3:15.32 | 159241 | 173897
10 | 38:38.48 | 5:20.13 | 173898 | 197910
Range status and errors
Selected range
Peak level 100.0 %
Range quality 100.0 %
Test CRC 2AF44C71
Copy CRC 2AF44C71
Copy OK
No errors occurred
AccurateRip summary
Track 1 accurately ripped (confidence 12) [0672D800]
Track 2 accurately ripped (confidence 13) [20A4E3AC]
Track 3 accurately ripped (confidence 13) [A707E2DC]
Track 4 accurately ripped (confidence 13) [9D143427]
Track 5 accurately ripped (confidence 13) [18F665DA]
Track 6 accurately ripped (confidence 13) [D0F3D0B9]
Track 7 accurately ripped (confidence 13) [6E242594]
Track 8 accurately ripped (confidence 13) [B03F65CF]
Track 9 accurately ripped (confidence 13) [74754298]
Track 10 accurately ripped (confidence 12) [869B45F8]
All tracks accurately ripped
End of status report
Правила, инструкции, FAQ!!!
Торрент  Добавлен [26 мар 2019, 20:58] Скачать торрент Магнет ссылка
Скачать торрент
[ Размер 21.15 КБ / Просмотров 1 ]

Статус
Проверен 
 
Размер  257.91 МБ
Приватный: Нет (DHT включён)
.torrent скачан  0
 


     Отправить личное сообщение
   
Страница 1 из 1
Показать сообщения за:  Поле сортировки  
Начать новую тему Ответить на тему


Сейчас этот форум просматривают: нет зарегистрированных пользователей и гости: 0


Вы не можете начинать темы
Вы не можете отвечать на сообщения
Вы не можете редактировать свои сообщения
Вы не можете удалять свои сообщения
Вы не можете добавлять вложения

Перейти:  
cron