Начать новую тему Ответить на тему
Статистика раздачи
Размер: 294.52 МБ | Добавлен: 26 мар 2019, 20:58 | Скачали: 0
Сидеров: 0  [0 байт/сек]    Личеров: 0  [0 байт/сек]
Пред. тема | След. тема 

Автор
Сообщение

СообщениеДобавлено: 26 мар 2019, 20:58 

Ответить с цитатой 

Element Of Crime - Psycho
Жанр: Neo-Romantic, Chanson,Alternative Rock, Indie Rock
Год выпуска диска: 1999
Производитель диска: Россия
Аудио кодек: APE
Тип рипа: image+.cue
Битрейт аудио: lossless
Продолжительность: 47:40
Трэклист:
1 Ich War Nicht Dabei (4:00)
2 Ferien Von Dir (4:41)
3 Jetzt Mußt Du Springen (2:42)
4 Michaela Sagt (3:48)
5 Jung Und Schön (4:48)
6 Alles Was Blieb (5:18)
7 Du Hast Mir Gesagt (4:05)
8 Nicht Dein Tag (4:05)
9 So Wie Du (4:12)
10 Kavallerie (3:32)
11 Weil Es Schön War (5:28)
Доп. информация:
Exact Audio Copy V0.99 prebeta 4 from 23. January 2008
Отчёт EAC об извлечении, выполненном 9. сентября 2009, 11:13
Element Of Crime / Psycho
Дисковод: _NEC DVD_RW ND-3550A Adapter: 0 ID: 0
Режим чтения : Достоверность
Использование точного потока : Да
Отключение кэша аудио : Да
Использование указателей C2 : Нет
Коррекция смещения при чтении : 48
Способность читать области Lead-in и Lead-out : Нет
Заполнение пропущенных сэмплов тишиной : Да
Удаление блоков с тишиной в начале и конце : Нет
При вычислениях CRC использовались нулевые сэмплы : Да
Интерфейс : Установленный внешний ASPI-интерфейс
Выходной формат : Внутренние WAV-операции
Формат сэмплов : 44.100 Гц; 16 бит; стерео
TOC извлечённого CD
Трек | Старт | Длительность | Начальный сектор | Конечный сектор
---------------------------------------------------------------------
1 | 0:00.00 | 4:06.14 | 0 | 18463
2 | 4:06.14 | 4:46.15 | 18464 | 39928
3 | 8:52.29 | 2:46.72 | 39929 | 52450
4 | 11:39.26 | 3:54.57 | 52451 | 70057
5 | 15:34.08 | 4:53.14 | 70058 | 92046
6 | 20:27.22 | 5:23.20 | 92047 | 116291
7 | 25:50.42 | 4:10.17 | 116292 | 135058
8 | 30:00.59 | 4:10.74 | 135059 | 153882
9 | 34:11.58 | 4:20.26 | 153883 | 173408
10 | 38:32.09 | 3:33.52 | 173409 | 189435
11 | 42:05.61 | 5:34.50 | 189436 | 214535
Характеристики диапазона извлечения и сообщения об ошибках
Выбранный диапазон
Имя файла D:\001-torrent\Element Of Crime - Psycho\Element Of Crime - Psycho.wav
Пиковый уровень 97.9 %
Качество диапазона 100.0 %
CRC копии 8F989D9C
Копирование... OK
Ошибок не произошло
Конец отчёта
Правила, инструкции, FAQ!!!
Торрент  Добавлен [26 мар 2019, 20:58] Скачать торрент Магнет ссылка
Скачать торрент
[ Размер 12.23 КБ / Просмотров 0 ]

Статус
Проверен 
 
Размер  294.52 МБ
Приватный: Нет (DHT включён)
.torrent скачан  0
 


     Отправить личное сообщение
   
Страница 1 из 1
Показать сообщения за:  Поле сортировки  
Начать новую тему Ответить на тему


Сейчас этот форум просматривают: нет зарегистрированных пользователей и гости: 0


Вы не можете начинать темы
Вы не можете отвечать на сообщения
Вы не можете редактировать свои сообщения
Вы не можете удалять свои сообщения
Вы не можете добавлять вложения

Перейти:  
cron