Начать новую тему Ответить на тему
Статистика раздачи
Размер: 325.58 МБ | Добавлен: 26 мар 2019, 20:57 | Скачали: 0
Сидеров: 1  [0 байт/сек]    Личеров: 0  [0 байт/сек]
Пред. тема | След. тема 

Автор
Сообщение

СообщениеДобавлено: 26 мар 2019, 20:57 

Ответить с цитатой 

Element of Crime - Crime Pays ( Live )
Жанр: Neo-Romantic, Chanson,Alternative Rock, Indie Rock
Год выпуска диска: 1990
Производитель диска: Germany
Аудио кодек: APE
Тип рипа: image+.cue
Битрейт аудио: lossless
Продолжительность: 52:39
Трэклист:
The Last Dance
Almost Dead
Murder In Your Eyes
Don't You Ever Come Back
Surabaya Johnny
Moonlight
Something Was Wrong
As Long As I Love You
Long For You
Nervous And Blue
Satellite Town
405 (And The Rest Of Today)
Доп. информация:
Exact Audio Copy V0.99 prebeta 4 from 23. January 2008
Отчёт EAC об извлечении, выполненном 9. сентября 2009, 12:21
Element of Crime / Element Of Crime - Crime Pays ( Live )
Дисковод: _NEC DVD_RW ND-3550A Adapter: 0 ID: 0
Режим чтения : Достоверность
Использование точного потока : Да
Отключение кэша аудио : Да
Использование указателей C2 : Нет
Коррекция смещения при чтении : 48
Способность читать области Lead-in и Lead-out : Нет
Заполнение пропущенных сэмплов тишиной : Да
Удаление блоков с тишиной в начале и конце : Нет
При вычислениях CRC использовались нулевые сэмплы : Да
Интерфейс : Установленный внешний ASPI-интерфейс
Выходной формат : Внутренние WAV-операции
Формат сэмплов : 44.100 Гц; 16 бит; стерео
TOC извлечённого CD
Трек | Старт | Длительность | Начальный сектор | Конечный сектор
---------------------------------------------------------------------
1 | 0:00.00 | 3:29.35 | 0 | 15709
2 | 3:29.35 | 4:51.55 | 15710 | 37589
3 | 8:21.15 | 3:36.15 | 37590 | 53804
4 | 11:57.30 | 6:01.15 | 53805 | 80894
5 | 17:58.45 | 3:30.00 | 80895 | 96644
6 | 21:28.45 | 6:25.55 | 96645 | 125574
7 | 27:54.25 | 3:39.05 | 125575 | 142004
8 | 31:33.30 | 2:42.05 | 142005 | 154159
9 | 34:15.35 | 4:44.40 | 154160 | 175499
10 | 39:00.00 | 5:12.35 | 175500 | 198934
11 | 44:12.35 | 4:24.64 | 198935 | 218798
12 | 48:37.24 | 4:02.27 | 218799 | 236975
Характеристики диапазона извлечения и сообщения об ошибках
Выбранный диапазон
Имя файла D:\001-torrent\Element of Crime - Crime Pays ( Live )\Element of Crime - Element Of Crime - Crime Pays ( Live ).wav
Пиковый уровень 99.8 %
Качество диапазона 100.0 %
CRC копии EE1888D9
Копирование... OK
Ошибок не произошло
Конец отчёта
Правила, инструкции, FAQ!!!
Торрент  Добавлен [26 мар 2019, 20:57] Скачать торрент Магнет ссылка
Скачать торрент
[ Размер 13.55 КБ / Просмотров 1 ]

Статус
Проверен 
 
Размер  325.58 МБ
Приватный: Нет (DHT включён)
.torrent скачан  0
 


     Отправить личное сообщение
   
Страница 1 из 1
Показать сообщения за:  Поле сортировки  
Начать новую тему Ответить на тему


Сейчас этот форум просматривают: нет зарегистрированных пользователей и гости: 0


Вы не можете начинать темы
Вы не можете отвечать на сообщения
Вы не можете редактировать свои сообщения
Вы не можете удалять свои сообщения
Вы не можете добавлять вложения

Перейти:  
cron