Начать новую тему Ответить на тему
Статистика раздачи
Размер: 481.43 МБ | Добавлен: 26 мар 2019, 20:57 | Скачали: 1
Сидеров: 1  [0 байт/сек]    Личеров: 0  [0 байт/сек]
Пред. тема | След. тема 

Автор
Сообщение

СообщениеДобавлено: 26 мар 2019, 20:57 

Ответить с цитатой 

Element Of Crime / Try to be Mensch + Freedom, Love And Happiness
Жанр: Neo-Romantic, Alternative Rock, Indie Rock
Год издания диска: 1999
Издатель (лейбл): Raritet Music
Аудио кодек: FLAC (*.flac)
Тип рипа: tracks+.cue
Битрейт аудио: lossless
Продолжительность: 74:05
Источник (релизер): AgeNT_Mix
Наличие сканов в содержимом раздачи: да
Треклист:
01 No God Anymore
02 She'll Never Die
03 You Shouldn't Be Lonely
04 As Long As I Love You
05 Don't You Smile
06 Something Was Wrong
07 Beware Of Strangers
08 He's Gone
09 The Last Dance
10 Nervous And Blue
11 He Wakes Up In The Morning (Daddy,Daddy)
12 Murder In Your Eyes
13 A Girl Like You
14 No Home
15 Almost Dead
16 The Way She Is
17 Long Long Summer
18 Welcome To The World
19 I Long For You
20 Love And Happiness
21 Nightmare
Код:
Exact Audio Copy V0.99 prebeta 5 from 4. May 2009
EAC extraction logfile from 26. February 2011, 23:20
Element Of Crime / Try to be Mensch + Freedom, Love And Happiness
Used drive  : Optiarc DVD RW AD-7200A   Adapter: 0  ID: 0
Read mode               : Secure
Utilize accurate stream : Yes
Defeat audio cache      : Yes
Make use of C2 pointers : No
Read offset correction                      : 48
Overread into Lead-In and Lead-Out          : No
Fill up missing offset samples with silence : Yes
Delete leading and trailing silent blocks   : No
Null samples used in CRC calculations       : Yes
Used interface                              : Native Win32 interface for Win NT & 2000
Gap handling                                : Appended to previous track
Used output format              : User Defined Encoder
Selected bitrate                : 768 kBit/s
Quality                         : High
Add ID3 tag                     : No
Command line compressor         : C:\Win\EAC\FLAC\FLAC.EXE
Additional command line options : -6 -V -T "ARTIST=%a" -T "TITLE=%t" -T "ALBUM=%g" -T "DATE=%y" -T "TRACKNUMBER=%n" -T "GENRE=%m" -T "COMMENT=EAC -8" %s
TOC of the extracted CD
     Track |   Start  |  Length  | Start sector | End sector
    ---------------------------------------------------------
        1  |  0:00.00 |  3:43.72 |         0    |    16796
        2  |  3:43.72 |  2:56.12 |     16797    |    30008
        3  |  6:40.09 |  3:08.46 |     30009    |    44154
        4  |  9:48.55 |  2:27.30 |     44155    |    55209
        5  | 12:16.10 |  5:14.06 |     55210    |    78765
        6  | 17:30.16 |  3:37.72 |     78766    |    95112
        7  | 21:08.13 |  3:34.25 |     95113    |   111187
        8  | 24:42.38 |  3:11.59 |    111188    |   125571
        9  | 27:54.22 |  3:17.23 |    125572    |   140369
       10  | 31:11.45 |  4:21.68 |    140370    |   160012
       11  | 35:33.38 |  3:01.47 |    160013    |   173634
       12  | 38:35.10 |  3:56.02 |    173635    |   191336
       13  | 42:31.12 |  2:56.73 |    191337    |   204609
       14  | 45:28.10 |  3:07.55 |    204610    |   218689
       15  | 48:35.65 |  4:08.07 |    218690    |   237296
       16  | 52:43.72 |  3:24.68 |    237297    |   252664
       17  | 56:08.65 |  3:15.12 |    252665    |   267301
       18  | 59:24.02 |  2:54.23 |    267302    |   280374
       19  | 62:18.25 |  4:35.06 |    280375    |   301005
       20  | 66:53.31 |  1:35.03 |    301006    |   308133
       21  | 68:28.34 |  5:36.43 |    308134    |   333376
Track  1
     Filename C:\Downloads\TORRENT\Newz\Element Of Crime - 2x\01. Element Of Crime - No God Anymore.wav
     Pre-gap length  0:00:02.00
     Peak level 100.0 %
     Track quality 100.0 %
     Test CRC 0F3996F2
     Copy CRC 0F3996F2
     Copy OK
Track  2
     Filename C:\Downloads\TORRENT\Newz\Element Of Crime - 2x\02. Element Of Crime - She'll Never Die.wav
     Peak level 100.0 %
     Track quality 100.0 %
     Test CRC 7E49D69E
     Copy CRC 7E49D69E
     Copy OK
Track  3
     Filename C:\Downloads\TORRENT\Newz\Element Of Crime - 2x\03. Element Of Crime - You Shouldn't Be Lonely.wav
     Peak level 100.0 %
     Track quality 99.9 %
     Test CRC 1EA03F6B
     Copy CRC 1EA03F6B
     Copy OK
Track  4
     Filename C:\Downloads\TORRENT\Newz\Element Of Crime - 2x\04. Element Of Crime - As Long As I Love You.wav
     Peak level 100.0 %
     Track quality 99.9 %
     Test CRC C8595D2D
     Copy CRC C8595D2D
     Copy OK
Track  5
     Filename C:\Downloads\TORRENT\Newz\Element Of Crime - 2x\05. Element Of Crime - Don't You Smile.wav
     Peak level 100.0 %
     Track quality 100.0 %
     Test CRC 50263D0C
     Copy CRC 50263D0C
     Copy OK
Track  6
     Filename C:\Downloads\TORRENT\Newz\Element Of Crime - 2x\06. Element Of Crime - Something Was Wrong.wav
     Peak level 100.0 %
     Track quality 100.0 %
     Test CRC 91A527D6
     Copy CRC 91A527D6
     Copy OK
Track  7
     Filename C:\Downloads\TORRENT\Newz\Element Of Crime - 2x\07. Element Of Crime - Beware Of Strangers.wav
     Peak level 100.0 %
     Track quality 100.0 %
     Test CRC 4E1AA4AF
     Copy CRC 4E1AA4AF
     Copy OK
Track  8
     Filename C:\Downloads\TORRENT\Newz\Element Of Crime - 2x\08. Element Of Crime - He's Gone.wav
     Peak level 100.0 %
     Track quality 100.0 %
     Test CRC 456D144C
     Copy CRC 456D144C
     Copy OK
Track  9
     Filename C:\Downloads\TORRENT\Newz\Element Of Crime - 2x\09. Element Of Crime - The Last Dance.wav
     Peak level 100.0 %
     Track quality 100.0 %
     Test CRC B37EA20C
     Copy CRC B37EA20C
     Copy OK
Track 10
     Filename C:\Downloads\TORRENT\Newz\Element Of Crime - 2x\10. Element Of Crime - Nervous And Blue.wav
     Peak level 100.0 %
     Track quality 100.0 %
     Test CRC 8AE15C04
     Copy CRC 8AE15C04
     Copy OK
Track 11
     Filename C:\Downloads\TORRENT\Newz\Element Of Crime - 2x\11. Element Of Crime - He Wakes Up In The Morning (Daddy,Daddy).wav
     Peak level 100.0 %
     Track quality 99.9 %
     Test CRC 80A93388
     Copy CRC 80A93388
     Copy OK
Track 12
     Filename C:\Downloads\TORRENT\Newz\Element Of Crime - 2x\12. Element Of Crime - Murder In Your Eyes.wav
     Pre-gap length  0:00:02.00
     Peak level 100.0 %
     Track quality 100.0 %
     Test CRC DEDBB019
     Copy CRC DEDBB019
     Copy OK
Track 13
     Filename C:\Downloads\TORRENT\Newz\Element Of Crime - 2x\13. Element Of Crime - A Girl Like You.wav
     Peak level 100.0 %
     Track quality 99.9 %
     Test CRC 67A7FFD5
     Copy CRC 67A7FFD5
     Copy OK
Track 14
     Filename C:\Downloads\TORRENT\Newz\Element Of Crime - 2x\14. Element Of Crime - No Home.wav
     Peak level 100.0 %
     Track quality 100.0 %
     Test CRC BD7237B8
     Copy CRC BD7237B8
     Copy OK
Track 15
     Filename C:\Downloads\TORRENT\Newz\Element Of Crime - 2x\15. Element Of Crime - Almost Dead.wav
     Peak level 100.0 %
     Track quality 100.0 %
     Test CRC 3B57C48D
     Copy CRC 3B57C48D
     Copy OK
Track 16
     Filename C:\Downloads\TORRENT\Newz\Element Of Crime - 2x\16. Element Of Crime - The Way She Is.wav
     Peak level 100.0 %
     Track quality 100.0 %
     Test CRC 1E861BF8
     Copy CRC 1E861BF8
     Copy OK
Track 17
     Filename C:\Downloads\TORRENT\Newz\Element Of Crime - 2x\17. Element Of Crime - Long Long Summer.wav
     Peak level 100.0 %
     Track quality 100.0 %
     Test CRC C4675363
     Copy CRC C4675363
     Copy OK
Track 18
     Filename C:\Downloads\TORRENT\Newz\Element Of Crime - 2x\18. Element Of Crime - Welcome To The World.wav
     Peak level 100.0 %
     Track quality 100.0 %
     Test CRC 1C057D0D
     Copy CRC 1C057D0D
     Copy OK
Track 19
     Filename C:\Downloads\TORRENT\Newz\Element Of Crime - 2x\19. Element Of Crime - I Long For You.wav
     Peak level 100.0 %
     Track quality 100.0 %
     Test CRC 3DDF92FB
     Copy CRC 3DDF92FB
     Copy OK
Track 20
     Filename C:\Downloads\TORRENT\Newz\Element Of Crime - 2x\20. Element Of Crime - Love And Happiness.wav
     Peak level 100.0 %
     Track quality 100.0 %
     Test CRC 8C2F26F4
     Copy CRC 8C2F26F4
     Copy OK
Track 21
     Filename C:\Downloads\TORRENT\Newz\Element Of Crime - 2x\21. Element Of Crime - Nightmare.wav
     Peak level 98.0 %
     Track quality 100.0 %
     Test CRC F4ECE71D
     Copy CRC F4ECE71D
     Copy OK
No errors occurred
End of status report
Код:
REM GENRE "Alt. Rock"
REM DATE 8788
REM DISCID 10115D15
REM COMMENT "ExactAudioCopy v0.99pb5"
PERFORMER "Element Of Crime"
TITLE "Try to be Mensch + Freedom, Love And Happiness"
FILE "01. Element Of Crime - No God Anymore.flac" WAVE
  TRACK 01 AUDIO
    TITLE "No God Anymore"
    PERFORMER "Element Of Crime"
    INDEX 01 00:00:00
FILE "02. Element Of Crime - She'll Never Die.flac" WAVE
  TRACK 02 AUDIO
    TITLE "She'll Never Die"
    PERFORMER "Element Of Crime"
    INDEX 01 00:00:00
FILE "03. Element Of Crime - You Shouldn't Be Lonely.flac" WAVE
  TRACK 03 AUDIO
    TITLE "You Shouldn't Be Lonely"
    PERFORMER "Element Of Crime"
    INDEX 01 00:00:00
FILE "04. Element Of Crime - As Long As I Love You.flac" WAVE
  TRACK 04 AUDIO
    TITLE "As Long As I Love You"
    PERFORMER "Element Of Crime"
    INDEX 01 00:00:00
FILE "05. Element Of Crime - Don't You Smile.flac" WAVE
  TRACK 05 AUDIO
    TITLE "Don't You Smile"
    PERFORMER "Element Of Crime"
    INDEX 01 00:00:00
FILE "06. Element Of Crime - Something Was Wrong.flac" WAVE
  TRACK 06 AUDIO
    TITLE "Something Was Wrong"
    PERFORMER "Element Of Crime"
    INDEX 01 00:00:00
FILE "07. Element Of Crime - Beware Of Strangers.flac" WAVE
  TRACK 07 AUDIO
    TITLE "Beware Of Strangers"
    PERFORMER "Element Of Crime"
    INDEX 01 00:00:00
FILE "08. Element Of Crime - He's Gone.flac" WAVE
  TRACK 08 AUDIO
    TITLE "He's Gone"
    PERFORMER "Element Of Crime"
    INDEX 01 00:00:00
FILE "09. Element Of Crime - The Last Dance.flac" WAVE
  TRACK 09 AUDIO
    TITLE "The Last Dance"
    PERFORMER "Element Of Crime"
    INDEX 01 00:00:00
FILE "10. Element Of Crime - Nervous And Blue.flac" WAVE
  TRACK 10 AUDIO
    TITLE "Nervous And Blue"
    PERFORMER "Element Of Crime"
    INDEX 01 00:00:00
FILE "11. Element Of Crime - He Wakes Up In The Morning (Daddy,Daddy).flac" WAVE
  TRACK 11 AUDIO
    TITLE "He Wakes Up In The Morning (Daddy,Daddy)"
    PERFORMER "Element Of Crime"
    INDEX 01 00:00:00
  TRACK 12 AUDIO
    TITLE "Murder In Your Eyes"
    PERFORMER "Element Of Crime"
    INDEX 00 02:59:47
FILE "12. Element Of Crime - Murder In Your Eyes.flac" WAVE
    INDEX 01 00:00:00
FILE "13. Element Of Crime - A Girl Like You.flac" WAVE
  TRACK 13 AUDIO
    TITLE "A Girl Like You"
    PERFORMER "Element Of Crime"
    INDEX 01 00:00:00
FILE "14. Element Of Crime - No Home.flac" WAVE
  TRACK 14 AUDIO
    TITLE "No Home"
    PERFORMER "Element Of Crime"
    INDEX 01 00:00:00
FILE "15. Element Of Crime - Almost Dead.flac" WAVE
  TRACK 15 AUDIO
    TITLE "Almost Dead"
    PERFORMER "Element Of Crime"
    INDEX 01 00:00:00
FILE "16. Element Of Crime - The Way She Is.flac" WAVE
  TRACK 16 AUDIO
    TITLE "The Way She Is"
    PERFORMER "Element Of Crime"
    INDEX 01 00:00:00
FILE "17. Element Of Crime - Long Long Summer.flac" WAVE
  TRACK 17 AUDIO
    TITLE "Long Long Summer"
    PERFORMER "Element Of Crime"
    INDEX 01 00:00:00
FILE "18. Element Of Crime - Welcome To The World.flac" WAVE
  TRACK 18 AUDIO
    TITLE "Welcome To The World"
    PERFORMER "Element Of Crime"
    INDEX 01 00:00:00
FILE "19. Element Of Crime - I Long For You.flac" WAVE
  TRACK 19 AUDIO
    TITLE "I Long For You"
    PERFORMER "Element Of Crime"
    INDEX 01 00:00:00
FILE "20. Element Of Crime - Love And Happiness.flac" WAVE
  TRACK 20 AUDIO
    TITLE "Love And Happiness"
    PERFORMER "Element Of Crime"
    INDEX 01 00:00:00
FILE "21. Element Of Crime - Nightmare.flac" WAVE
  TRACK 21 AUDIO
    TITLE "Nightmare"
    PERFORMER "Element Of Crime"
    INDEX 01 00:00:00
AUDIOCHECKER v2.0 beta (build 457) - by Dester - opdester@freemail.hu
~~~~~~~~~~~~~~~~~~~~~~~~~~~~~~~~~~
Начато: воскресенье, 27. 02. 2011. - 14:33.28
Найдено файлов: 21
01 -===- C:\Downloads\TORRENT\Newz\Element Of Crime - Try to be Mensch + Freedom, Love And Happiness\01. Element Of Crime - No God Anymore.flac
Извлечение успешно выполнено
Заключение: этот трек - CDDA с вероятностью 100%
Временный файл удалён.
02 -===- C:\Downloads\TORRENT\Newz\Element Of Crime - Try to be Mensch + Freedom, Love And Happiness\02. Element Of Crime - She'll Never Die.flac
Извлечение успешно выполнено
Заключение: этот трек - CDDA с вероятностью 100%
Временный файл удалён.
03 -===- C:\Downloads\TORRENT\Newz\Element Of Crime - Try to be Mensch + Freedom, Love And Happiness\03. Element Of Crime - You Shouldn't Be Lonely.flac
Извлечение успешно выполнено
Заключение: этот трек - CDDA с вероятностью 100%
Временный файл удалён.
04 -===- C:\Downloads\TORRENT\Newz\Element Of Crime - Try to be Mensch + Freedom, Love And Happiness\04. Element Of Crime - As Long As I Love You.flac
Извлечение успешно выполнено
Заключение: этот трек - CDDA с вероятностью 100%
Временный файл удалён.
05 -===- C:\Downloads\TORRENT\Newz\Element Of Crime - Try to be Mensch + Freedom, Love And Happiness\05. Element Of Crime - Don't You Smile.flac
Извлечение успешно выполнено
Заключение: этот трек - CDDA с вероятностью 100%
Временный файл удалён.
06 -===- C:\Downloads\TORRENT\Newz\Element Of Crime - Try to be Mensch + Freedom, Love And Happiness\06. Element Of Crime - Something Was Wrong.flac
Извлечение успешно выполнено
Заключение: этот трек - CDDA с вероятностью 100%
Временный файл удалён.
07 -===- C:\Downloads\TORRENT\Newz\Element Of Crime - Try to be Mensch + Freedom, Love And Happiness\07. Element Of Crime - Beware Of Strangers.flac
Извлечение успешно выполнено
Заключение: этот трек - CDDA с вероятностью 100%
Временный файл удалён.
08 -===- C:\Downloads\TORRENT\Newz\Element Of Crime - Try to be Mensch + Freedom, Love And Happiness\08. Element Of Crime - He's Gone.flac
Извлечение успешно выполнено
Заключение: этот трек - CDDA с вероятностью 99%
Временный файл удалён.
09 -===- C:\Downloads\TORRENT\Newz\Element Of Crime - Try to be Mensch + Freedom, Love And Happiness\09. Element Of Crime - The Last Dance.flac
Извлечение успешно выполнено
Заключение: этот трек - CDDA с вероятностью 99%
Временный файл удалён.
10 -===- C:\Downloads\TORRENT\Newz\Element Of Crime - Try to be Mensch + Freedom, Love And Happiness\10. Element Of Crime - Nervous And Blue.flac
Извлечение успешно выполнено
Заключение: этот трек - CDDA с вероятностью 100%
Временный файл удалён.
11 -===- C:\Downloads\TORRENT\Newz\Element Of Crime - Try to be Mensch + Freedom, Love And Happiness\11. Element Of Crime - He Wakes Up In The Morning (Daddy,Daddy).flac
Извлечение успешно выполнено
Заключение: этот трек - CDDA с вероятностью 99%
Временный файл удалён.
12 -===- C:\Downloads\TORRENT\Newz\Element Of Crime - Try to be Mensch + Freedom, Love And Happiness\12. Element Of Crime - Murder In Your Eyes.flac
Извлечение успешно выполнено
Заключение: этот трек - CDDA с вероятностью 100%
Временный файл удалён.
13 -===- C:\Downloads\TORRENT\Newz\Element Of Crime - Try to be Mensch + Freedom, Love And Happiness\13. Element Of Crime - A Girl Like You.flac
Извлечение успешно выполнено
Заключение: этот трек - CDDA с вероятностью 100%
Временный файл удалён.
14 -===- C:\Downloads\TORRENT\Newz\Element Of Crime - Try to be Mensch + Freedom, Love And Happiness\14. Element Of Crime - No Home.flac
Извлечение успешно выполнено
Заключение: этот трек - CDDA с вероятностью 100%
Временный файл удалён.
15 -===- C:\Downloads\TORRENT\Newz\Element Of Crime - Try to be Mensch + Freedom, Love And Happiness\15. Element Of Crime - Almost Dead.flac
Извлечение успешно выполнено
Заключение: этот трек - CDDA с вероятностью 99%
Временный файл удалён.
16 -===- C:\Downloads\TORRENT\Newz\Element Of Crime - Try to be Mensch + Freedom, Love And Happiness\16. Element Of Crime - The Way She Is.flac
Извлечение успешно выполнено
Заключение: этот трек - CDDA с вероятностью 100%
Временный файл удалён.
17 -===- C:\Downloads\TORRENT\Newz\Element Of Crime - Try to be Mensch + Freedom, Love And Happiness\17. Element Of Crime - Long Long Summer.flac
Извлечение успешно выполнено
Заключение: этот трек - CDDA с вероятностью 99%
Временный файл удалён.
18 -===- C:\Downloads\TORRENT\Newz\Element Of Crime - Try to be Mensch + Freedom, Love And Happiness\18. Element Of Crime - Welcome To The World.flac
Извлечение успешно выполнено
Заключение: этот трек - CDDA с вероятностью 100%
Временный файл удалён.
19 -===- C:\Downloads\TORRENT\Newz\Element Of Crime - Try to be Mensch + Freedom, Love And Happiness\19. Element Of Crime - I Long For You.flac
Извлечение успешно выполнено
Заключение: этот трек - CDDA с вероятностью 100%
Временный файл удалён.
20 -===- C:\Downloads\TORRENT\Newz\Element Of Crime - Try to be Mensch + Freedom, Love And Happiness\20. Element Of Crime - Love And Happiness.flac
Извлечение успешно выполнено
Заключение: этот трек - CDDA с вероятностью 100%
Временный файл удалён.
21 -===- C:\Downloads\TORRENT\Newz\Element Of Crime - Try to be Mensch + Freedom, Love And Happiness\21. Element Of Crime - Nightmare.flac
Извлечение успешно выполнено
Заключение: этот трек - CDDA с вероятностью 100%
Временный файл удалён.
Завершено: воскресенье, 27. 02. 2011. - 14:39.31 (Время операции: 0:06.03)
Disclaimer (Отмазка)
Данный диск был записан лет 10-12 назад в магазине "Меломан" в Новосибе. Хозяин (он же продавец) уверял, что пишется всё с фирмы. Оснований не доверять нет, т.к. в своих меломанских кругах он весьма известен.
Правила, инструкции, FAQ!!!
Торрент  Добавлен [26 мар 2019, 20:57] Скачать торрент Магнет ссылка
Скачать торрент
[ Размер 21.22 КБ / Просмотров 7 ]

Статус
Проверен 
 
Размер  481.43 МБ
Приватный: Нет (DHT включён)
.torrent скачан  1
 


     Отправить личное сообщение
   
Страница 1 из 1
Показать сообщения за:  Поле сортировки  
Начать новую тему Ответить на тему


Сейчас этот форум просматривают: нет зарегистрированных пользователей и гости: 0


Вы не можете начинать темы
Вы не можете отвечать на сообщения
Вы не можете редактировать свои сообщения
Вы не можете удалять свои сообщения
Вы не можете добавлять вложения

Перейти:  
cron