Начать новую тему Ответить на тему
Статистика раздачи
Размер: 235.74 МБ | Добавлен: 26 мар 2019, 20:57 | Скачали: 0
Сидеров: 0  [0 байт/сек]    Личеров: 0  [0 байт/сек]
Пред. тема | След. тема 

Автор
Сообщение

СообщениеДобавлено: 26 мар 2019, 20:57 

Ответить с цитатой 

Element of Crime / Lieblingsfarben und Tiere
Жанр: Neo-Romantic, Alternative Rock, Indie Rock
Носитель: CD
Страна-производитель диска (релиза): Германия
Год издания: 2014
Издатель (лейбл): Vertigo Berlin (Universal Music)
Страна исполнителя (группы): Германия
Аудиокодек: FLAC (*.flac)
Тип рипа: tracks+.cue
Битрейт аудио: lossless
Продолжительность: 00:37:14
Источник (релизер): pkn (what.cd)
Наличие сканов в содержимом раздачи: нет
Треклист:
1. Am Morgen Danach
2. Lieblingsfarben Und Tiere
3. Schade Dass Ich Das Nicht War
4. Rette Mich (Vor Mir Selber)
5. Liebe Ist Kälter Als Der Tod
6. Schwert, Schild Und Fahrrad
7. Immer So Weiter
8. Dunkle Wolke
9. Dieselben Sterne
10. Wenn Der Wolf Schläft Müssen Alle Schafe Ruhen
Код:
Exact Audio Copy V1.0 beta 3 from 29. August 2011
EAC extraction logfile from 6. November 2014, 18:41
Element Of Crime / Lieblingsfarben und Tiere
Used drive  : TSSTcorpCDDVDW SE-208DB   Adapter: 0  ID: 0
Read mode               : Secure
Utilize accurate stream : Yes
Defeat audio cache      : Yes
Make use of C2 pointers : No
Read offset correction                      : 6
Overread into Lead-In and Lead-Out          : No
Fill up missing offset samples with silence : Yes
Delete leading and trailing silent blocks   : No
Null samples used in CRC calculations       : Yes
Used interface                              : Native Win32 interface for Win NT & 2000
Gap handling                                : Appended to previous track
Used output format              : User Defined Encoder
Selected bitrate                : 1024 kBit/s
Quality                         : High
Add ID3 tag                     : No
Command line compressor         : D:\Programme\Exact Audio Copy\Flac\flac.exe
Additional command line options : -8 -V -T "ARTIST=%artist%" -T "TITLE=%title%" -T "ALBUM=%albumtitle%" -T "DATE=%year%" -T "TRACKNUMBER=%tracknr%" -T "GENRE=%genre%" -T "PERFORMER=%albuminterpret%" -T "COMPOSER=%composer%" %haslyrics%--tag-from-file=LYRICS="%lyricsfile%"%haslyrics% -T "ALBUMARTIST=%albumartist%" -T "DISCNUMBER=%cdnumber%" -T "TOTALDISCS=%totalcds%" -T "TOTALTRACKS=%numtracks%" -T "COMMENT=%comment%" %source% -o %dest%
TOC of the extracted CD
     Track |   Start  |  Length  | Start sector | End sector
    ---------------------------------------------------------
        1  |  0:00.00 |  3:42.12 |         0    |    16661
        2  |  3:42.12 |  4:13.00 |     16662    |    35636
        3  |  7:55.12 |  2:31.16 |     35637    |    46977
        4  | 10:26.28 |  3:57.58 |     46978    |    64810
        5  | 14:24.11 |  4:10.30 |     64811    |    83590
        6  | 18:34.41 |  4:46.33 |     83591    |   105073
        7  | 23:20.74 |  3:15.60 |    105074    |   119758
        8  | 26:36.59 |  3:46.47 |    119759    |   136755
        9  | 30:23.31 |  3:06.37 |    136756    |   150742
       10  | 33:29.68 |  3:43.50 |    150743    |   167517
Track  1
     Filename E:\EAC\Element of Crime - Lieblingsfarben und Tiere (2014) - FLAC\01 Am Morgen Danach.wav
     Pre-gap length  0:00:02.00
     Peak level 98.8 %
     Extraction speed 2.6 X
     Track quality 100.0 %
     Test CRC 76F53EE3
     Copy CRC 76F53EE3
     Track not present in AccurateRip database
     Copy OK
Track  2
     Filename E:\EAC\Element of Crime - Lieblingsfarben und Tiere (2014) - FLAC\02 Lieblingsfarben und Tiere.wav
     Peak level 98.8 %
     Extraction speed 2.9 X
     Track quality 100.0 %
     Test CRC B2485DCF
     Copy CRC B2485DCF
     Track not present in AccurateRip database
     Copy OK
Track  3
     Filename E:\EAC\Element of Crime - Lieblingsfarben und Tiere (2014) - FLAC\03 Schade Dass Ich Das Nicht War.wav
     Peak level 98.8 %
     Extraction speed 2.9 X
     Track quality 100.0 %
     Test CRC 74694108
     Copy CRC 74694108
     Track not present in AccurateRip database
     Copy OK
Track  4
     Filename E:\EAC\Element of Crime - Lieblingsfarben und Tiere (2014) - FLAC\04 Rette Mich (Vor Mir Selber).wav
     Peak level 98.8 %
     Extraction speed 3.3 X
     Track quality 100.0 %
     Test CRC 30A454D6
     Copy CRC 30A454D6
     Track not present in AccurateRip database
     Copy OK
Track  5
     Filename E:\EAC\Element of Crime - Lieblingsfarben und Tiere (2014) - FLAC\05 Liebe Ist Kälter Als Der Tod.wav
     Peak level 98.8 %
     Extraction speed 3.6 X
     Track quality 100.0 %
     Test CRC 2ECCFED2
     Copy CRC 2ECCFED2
     Track not present in AccurateRip database
     Copy OK
Track  6
     Filename E:\EAC\Element of Crime - Lieblingsfarben und Tiere (2014) - FLAC\06 Schwert, Schild und Fahrrad.wav
     Peak level 98.8 %
     Extraction speed 3.8 X
     Track quality 100.0 %
     Test CRC 0F26774E
     Copy CRC 0F26774E
     Track not present in AccurateRip database
     Copy OK
Track  7
     Filename E:\EAC\Element of Crime - Lieblingsfarben und Tiere (2014) - FLAC\07 Immer So Weiter.wav
     Peak level 98.8 %
     Extraction speed 3.8 X
     Track quality 100.0 %
     Test CRC 32DADF0F
     Copy CRC 32DADF0F
     Track not present in AccurateRip database
     Copy OK
Track  8
     Filename E:\EAC\Element of Crime - Lieblingsfarben und Tiere (2014) - FLAC\08 Dunkle Wolke.wav
     Peak level 97.7 %
     Extraction speed 4.0 X
     Track quality 100.0 %
     Test CRC E0946204
     Copy CRC E0946204
     Track not present in AccurateRip database
     Copy OK
Track  9
     Filename E:\EAC\Element of Crime - Lieblingsfarben und Tiere (2014) - FLAC\09 Dieselben Sterne.wav
     Peak level 98.8 %
     Extraction speed 4.1 X
     Track quality 100.0 %
     Test CRC C408EB52
     Copy CRC C408EB52
     Track not present in AccurateRip database
     Copy OK
Track 10
     Filename E:\EAC\Element of Crime - Lieblingsfarben und Tiere (2014) - FLAC\10 Wenn Der Wolf Schläft Müssen Alle Schafe Ruhen.wav
     Peak level 98.8 %
     Extraction speed 4.3 X
     Track quality 100.0 %
     Test CRC 2BC2BBA7
     Copy CRC 2BC2BBA7
     Track not present in AccurateRip database
     Copy OK
None of the tracks are present in the AccurateRip database
No errors occurred
End of status report
---- CUETools DB Plugin V2.1.3
[CTDB TOCID: Bj7H3958cynGdy7xrF45q2LbhFw-] found, Submit result: Bj7H3958cynGdy7xrF45q2LbhFw- has been confirmed
[0c70dbb9] (43/45) Accurately ripped
[54eca956] (01/45) No match
[574f3991] (01/45) No match
==== Log checksum F93277480D2E32AF21CBEFF4F1C2281661B725790A6D955D2DBC433A24288C25 ====
Код:
REM GENRE Deutsch-Rock
REM DATE 2014
REM DISCID 7B08B90A
REM COMMENT "ExactAudioCopy v1.0b3"
CATALOG 0602537896745
PERFORMER "Element Of Crime"
TITLE "Lieblingsfarben und Tiere"
FILE "01 Am Morgen Danach.flac" WAVE
  TRACK 01 AUDIO
    TITLE "Am Morgen Danach"
    PERFORMER "Element Of Crime"
    ISRC DEUM71402516
    FLAGS DCP
    INDEX 01 00:00:00
FILE "02 Lieblingsfarben und Tiere.flac" WAVE
  TRACK 02 AUDIO
    TITLE "Lieblingsfarben und Tiere"
    PERFORMER "Element Of Crime"
    ISRC DEUM71402517
    FLAGS DCP
    INDEX 01 00:00:00
FILE "03 Schade Dass Ich Das Nicht War.flac" WAVE
  TRACK 03 AUDIO
    TITLE "Schade Dass Ich Das Nicht War"
    PERFORMER "Element Of Crime"
    ISRC DEUM71402518
    FLAGS DCP
    INDEX 01 00:00:00
FILE "04 Rette Mich (Vor Mir Selber).flac" WAVE
  TRACK 04 AUDIO
    TITLE "Rette Mich (Vor Mir Selber)"
    PERFORMER "Element Of Crime"
    ISRC DEUM71402519
    FLAGS DCP
    INDEX 01 00:00:00
FILE "05 Liebe Ist Kälter Als Der Tod.flac" WAVE
  TRACK 05 AUDIO
    TITLE "Liebe Ist Kälter Als Der Tod"
    PERFORMER "Element Of Crime"
    ISRC DEUM71402520
    FLAGS DCP
    INDEX 01 00:00:00
FILE "06 Schwert, Schild und Fahrrad.flac" WAVE
  TRACK 06 AUDIO
    TITLE "Schwert, Schild und Fahrrad"
    PERFORMER "Element Of Crime"
    ISRC DEUM71402521
    FLAGS DCP
    INDEX 01 00:00:00
FILE "07 Immer So Weiter.flac" WAVE
  TRACK 07 AUDIO
    TITLE "Immer So Weiter"
    PERFORMER "Element Of Crime"
    ISRC DEUM71402522
    FLAGS DCP
    INDEX 01 00:00:00
FILE "08 Dunkle Wolke.flac" WAVE
  TRACK 08 AUDIO
    TITLE "Dunkle Wolke"
    PERFORMER "Element Of Crime"
    ISRC DEUM71402523
    FLAGS DCP
    INDEX 01 00:00:00
FILE "09 Dieselben Sterne.flac" WAVE
  TRACK 09 AUDIO
    TITLE "Dieselben Sterne"
    PERFORMER "Element Of Crime"
    ISRC DEUM71402524
    FLAGS DCP
    INDEX 01 00:00:00
FILE "10 Wenn Der Wolf Schläft Müssen Alle Schafe Ruhen.flac" WAVE
  TRACK 10 AUDIO
    TITLE "Wenn Der Wolf Schläft Müssen Alle Schafe Ruhen"
    PERFORMER "Element Of Crime"
    ISRC DEUM71402525
    FLAGS DCP
    INDEX 01 00:00:00
Правила, инструкции, FAQ!!!
Торрент  Добавлен [26 мар 2019, 20:57] Скачать торрент Магнет ссылка
Скачать торрент
[ Размер 38.24 КБ / Просмотров 2 ]

Статус
Проверен 
 
Размер  235.74 МБ
Приватный: Нет (DHT включён)
.torrent скачан  0
 


     Отправить личное сообщение
   
Страница 1 из 1
Показать сообщения за:  Поле сортировки  
Начать новую тему Ответить на тему


Сейчас этот форум просматривают: нет зарегистрированных пользователей и гости: 0


Вы не можете начинать темы
Вы не можете отвечать на сообщения
Вы не можете редактировать свои сообщения
Вы не можете удалять свои сообщения
Вы не можете добавлять вложения

Перейти:  
cron