Начать новую тему Ответить на тему
Статистика раздачи
Размер: 410.39 МБ | Добавлен: 14 сен 2020, 00:25 | Скачали: 1
Сидеров: 1  [0 байт/сек]    Личеров: 0  [0 байт/сек]
Пред. тема | След. тема 

Автор
Сообщение

СообщениеДобавлено: 30 авг 2016, 00:58 

Ответить с цитатой 

Groves (Salem Hill, singer, guitarist and songwriter Carl Groves) / Branch Upon The Ground

Жанр: Neo-Progressive
Страна-производитель диска: USA
Год издания диска: 2000
Издатель (лейбл): Lazarus Records
Номер по каталогу: Barcode 783707335827
Страна: United States
Аудиокодек: FLAC (*.flac)
Тип рипа: image+.cue
Битрейт аудио: lossless
Продолжительность: 0:58:11.02
Источник (релизер): диск из личной коллекции
Наличие сканов в содержимом раздачи: да
Треклист:
01. Pompous Bastards [0:04:21.42]
02. Hmm [0:04:08.32]
03. Hopeless Circles [0:07:34.52]
04. Unless You Want It To [0:05:08.41]
05. A Prayer [0:02:46.03]
06. Melt Me [0:05:36.35]
07. Walking On Diamonds [0:03:40.59]
08. Mine For The Taking, I. Path, II. Pathos, III. Pathological [0:09:10.11]
09. Branch Upon The Ground [0:03:12.53]
10. Norwegian Ire [0:04:14.21]
11. Over The Hill [0:08:17.28]
Код:
Exact Audio Copy V1.0 beta 3 from 29. August 2011

Отчёт EAC об извлечении, выполненном 2. февраля 2012, 21:50

Groves / Branch Upon The Ground

Дисковод: TSSTcorpCDDVDW TS-L633J   Adapter: 0  ID: 1

Режим чтения                 : Достоверность
Использование точного потока : Да
Отключение кэша аудио        : Да
Использование указателей C2  : Нет

Коррекция смещения при чтении                     : 6
Способность читать области Lead-in и Lead-out     : Нет
Заполнение пропущенных сэмплов тишиной            : Да
Удаление блоков с тишиной в начале и конце        : Нет
При вычислениях CRC использовались нулевые сэмплы : Да
Интерфейс                                         : Установленный внешний ASPI-интерфейс

Выходной формат          : Пользовательский кодировщик
Выбранный битрейт        : 128 kBit/s
Качество                 : Высокий
Добавление ID3-тега      : Нет
Утилита сжатия           : C:\Program Files\Exact Audio Copy\FLAC\FLAC.EXE
Дополнительные параметры : -6 -V -T "ARTIST=%artist%" -T "TITLE=%title%" -T "ALBUM=%albumtitle%" -T "DATE=%year%" -T "TRACKNUMBER=%tracknr%" -T "GENRE=%genre%" -T "COMMENT=%comment%" -T "BAND=%albuminterpret%" -T "ALBUMARTIST=%albuminterpret%" -T "COMPOSER=%composer%" %haslyrics%--tag-from-file=LYRICS="%lyricsfile%"%haslyrics% -T "DISCNUMBER=%cdnumber%" -T "TOTALDISCS=%totalcds%" -T "TOTALTRACKS=%numtracks%" %hascover%--picture="%coverfile%"%hascover% %source% -o %dest%

TOC извлечённого CD

     Трек |   Старт  | Длительность | Начальный сектор | Конечный сектор
    ---------------------------------------------------------------------
       1  |  0:00.00 |    4:21.42   |           0      |      19616
       2  |  4:21.42 |    4:08.32   |       19617      |      38248
       3  |  8:29.74 |    7:34.52   |       38249      |      72350
       4  | 16:04.51 |    5:08.41   |       72351      |      95491
       5  | 21:13.17 |    2:46.03   |       95492      |     107944
       6  | 23:59.20 |    5:36.35   |      107945      |     133179
       7  | 29:35.55 |    3:40.59   |      133180      |     149738
       8  | 33:16.39 |    9:10.11   |      149739      |     190999
       9  | 42:26.50 |    3:12.53   |      191000      |     205452
      10  | 45:39.28 |    4:14.21   |      205453      |     224523
      11  | 49:53.49 |    8:17.28   |      224524      |     261826

Характеристики диапазона извлечения и сообщения об ошибках

Выбранный диапазон

     Имя файла C:\GROVES\Groves - Branch Upon The Ground.wav

     Пиковый уровень 96.5 %
     Скорость извлечения 2.9 X
     Качество диапазона 100.0 %
     CRC теста 9B2B908B
     CRC копии 9B2B908B
     Копирование... OK

Ошибок не произошло

AccurateRip: сводка

Трек  1  : извлечено точно (доверие 1)  [2169AD9A]  (AR v1)
Трек  2  : извлечено точно (доверие 1)  [5B4F62FB]  (AR v1)
Трек  3  : извлечено точно (доверие 1)  [D7EA705E]  (AR v1)
Трек  4  : извлечено точно (доверие 1)  [550021B7]  (AR v1)
Трек  5  : извлечено точно (доверие 1)  [1286496E]  (AR v1)
Трек  6  : извлечено точно (доверие 1)  [622C20E8]  (AR v1)
Трек  7  : извлечено точно (доверие 1)  [0AEE6724]  (AR v1)
Трек  8  : извлечено точно (доверие 1)  [56D1AA64]  (AR v1)
Трек  9  : извлечено точно (доверие 1)  [61E1EC7A]  (AR v1)
Трек 10  : извлечено точно (доверие 1)  [D28644AF]  (AR v1)
Трек 11  : извлечено точно (доверие 1)  [039E4C06]  (AR v1)

Все треки извлечены точно

Конец отчёта

---- CUETools DB Plugin V2.1.3

[CTDB TOCID: nMqplfgZDZA55.2V.TRhZISoQRA-] found, Submit result: already submitted
[47d3ee93] (1/1) Accurately ripped

==== Контрольная сумма отчёта 3BFD89708B7CE95FA6ECE542888D0A8A7C261376DA73063A50B5DBB439AED1D8 ====
Один из основателей славной нео-прог группы Salem Hill, гитарист, певец и автор композиций
довольно интересный сольник лидера salem hill
Правила, инструкции, FAQ!!!
Торрент  Добавлен [14 сен 2020, 00:25] Скачать торрент Магнет ссылка
Скачать торрент
[ Размер 16.97 КБ / Просмотров 14 ]

Статус
Проверен 
 
Размер  410.39 МБ
Приватный: Нет (DHT включён)
.torrent скачан  1
 


     Отправить личное сообщение
   

СообщениеДобавлено: 13 сен 2020, 15:49 

Ответить с цитатой 

Зарегистрированные пользователи
Зарегистрированные пользователи

Стаж: 2 года 8 месяцев 3 дня
Раздал: 0 байт
Скачал: 0 байт
Ратио: Inf.
Торренты: 0
Раздайте пожалуйста (Neo-Progressive) Groves (Salem Hill, singer, guitarist and songwriter Carl Groves) - Branch Upon The Ground - 2000, FLAC (image+.cue), lossless


Профиль     Отправить личное сообщение
   

СообщениеДобавлено: 14 сен 2020, 00:28 

Ответить с цитатой 

Администратор
Администратор

Стаж: 7 лет 11 месяцев 6 дней
Раздал: 296.18 ГБ
Скачал: 158.38 ГБ
Ратио: 1.870
Торренты: 13
Обновил торрент-файл, перекачайте заново, сид был сегодня днем.

_________________
Не скачивается раздача? напишите об этом в теме!


Профиль     Отправить личное сообщение
   
Страница 1 из 1
Показать сообщения за:  Поле сортировки  
Начать новую тему Ответить на тему


Сейчас этот форум просматривают: нет зарегистрированных пользователей и гости: 0


Вы не можете начинать темы
Вы не можете отвечать на сообщения
Вы не можете редактировать свои сообщения
Вы не можете удалять свои сообщения
Вы не можете добавлять вложения

Перейти:  
cron