Начать новую тему Ответить на тему
Статистика раздачи
Размер: 99.91 МБ | Добавлен: 15 май 2020, 16:39 | Скачали: 0
Сидеров: 0  [0 байт/сек]    Личеров: 0  [0 байт/сек]
Пред. тема | След. тема 

Автор
Сообщение

СообщениеДобавлено: 15 май 2020, 16:39 

Ответить с цитатой 

Каталог Neue Deutsche Welle / Deutschrock[/spoiler]


Bernward Büker


Wenn Ein Stern Vom Himmelszelt Dir Direkt Vor Die Füße Fällt (Fuesse faellt)


Жанр: NDW, Pop Rock, Synth-pop
Носитель: CD https://www.discogs.com/Bernward-B%C3%BCker-Wenn-Ein-Stern-Vom-Himmelszelt-Dir-Di.../release/3672012
Страна-производитель диска (релиза): West Germany
Год издания: 1988
Издатель (лейбл): Mercury
Номер по каталогу: 870516-2
Страна исполнителя (группы): West Germany
Аудиокодек: FLAC (*.flac)
Тип рипа: image+.cue
Продолжительность: 00:15:36
Источник: интернет (неизвестен)
Наличие сканов в содержимом раздачи: да
Треклист:
01 - Bernward Büker - Wenn Ein Stern Vom Himmelszelt Dir Direkt Vor Die Füße Fällt (Kometen-Mix) (06:04)[/spoiler]
02 - Bernward Büker - Die Kleinen Grünen Männchen (Ufo-Mix) (05:50)[/spoiler]
03 - Bernward Büker - Wenn Ein Stern Vom Himmelszelt Dir Direkt Vor Die Füße Fällt (Single-Mix) (03:42)[/spoiler]
Код:
Exact Audio Copy V1.0 beta 3 from 29. August 2011
Отчёт EAC об извлечении, выполненном 24. апреля 2014, 1:26
Bernward Büker / Wenn ein Stern vom Himmelszelt...
Дисковод: TSSTcorpCDDVDW SE-S084F   Adapter: 1  ID: 0
Режим чтения                 : Достоверность
Использование точного потока : Да
Отключение кэша аудио        : Да
Использование указателей C2  : Нет
Коррекция смещения при чтении                     : 0
Способность читать области Lead-in и Lead-out     : Нет
Заполнение пропущенных сэмплов тишиной            : Да
Удаление блоков с тишиной в начале и конце        : Нет
При вычислениях CRC использовались нулевые сэмплы : Да
Интерфейс                                         : Встроенный Win32-интерфейс для Win NT/2000
Выходной формат          : Пользовательский кодировщик
Выбранный битрейт        : 128 kBit/s
Качество                 : Высокий
Добавление ID3-тега      : Да
Утилита сжатия           : C:\Program Files (x86)\Exact Audio Copy\Flac\flac.exe
Дополнительные параметры : -V -8 -T "Date=%year%" -T "Genre=%genre%" %source%
TOC извлечённого CD
     Трек |   Старт  | Длительность | Начальный сектор | Конечный сектор
    ---------------------------------------------------------------------
       1  |  0:00.33 |    6:03.60   |          33      |      27317
       2  |  6:04.18 |    5:49.65   |       27318      |      53557
       3  | 11:54.08 |    3:41.67   |       53558      |      70199
Характеристики диапазона извлечения и сообщения об ошибках
Выбранный диапазон
     Имя файла D:\Flac\Новая папка\Bernward Büker - Wenn ein Stern vom Himmelszelt....wav
     Пиковый уровень 95.1 %
     Скорость извлечения 1.2 X
     Качество диапазона 100.0 %
     CRC теста 7F2FA115
     CRC копии 7F2FA115
     Копирование... OK
Ошибок не произошло
Конец отчёта
==== Контрольная сумма отчёта 0E207F79874C96405056DDC1EBFEA423D77CA3414A1931FB8238CDA14E23571E ====
Код:
REM GENRE Pop Rock
REM DATE 1988
REM DISCID 1F03A803
REM COMMENT "ExactAudioCopy v1.0b3"
PERFORMER "Bernward Buker"
TITLE "Wenn Ein Stern Vom Himmelszelt Dir Direkt Vor Die Fuesse Faellt "
FILE "Bernward Buker - Wenn ein Stern vom Himmelszelt....Flac" WAVE
  TRACK 01 AUDIO
    TITLE "Wenn ein Stern vom Himmelszelt dir direkt vor die Fu.e fallt (Kometen-Mix)"
    PERFORMER "Bernward Buker"
    INDEX 00 00:00:00
    INDEX 01 00:00:33
  TRACK 02 AUDIO
    TITLE "Die kleinen grunen Mannchen (Ufo-Mix)"
    PERFORMER "Bernward Buker"
    INDEX 00 06:01:40
    INDEX 01 06:04:18
  TRACK 03 AUDIO
    TITLE "Wenn ein Stern vom Himmelszelt dir direkt vor die Fu.e fallt (Single-Mix)"
    PERFORMER "Bernward Buker"
    INDEX 00 11:51:28
    INDEX 01 11:54:08
Правила, инструкции, FAQ!!!
Торрент  Добавлен [15 май 2020, 16:39] Скачать торрент Магнет ссылка
Скачать торрент
[ Размер 16.46 КБ / Просмотров 0 ]

Статус
Проверен 
 
Размер  99.91 МБ
Приватный: Нет (DHT включён)
.torrent скачан  0
 


     Отправить личное сообщение
   
Страница 1 из 1
Показать сообщения за:  Поле сортировки  
Начать новую тему Ответить на тему


Сейчас этот форум просматривают: нет зарегистрированных пользователей и гости: 0


Вы не можете начинать темы
Вы не можете отвечать на сообщения
Вы не можете редактировать свои сообщения
Вы не можете удалять свои сообщения
Вы не можете добавлять вложения

Перейти:  
cron