Начать новую тему Ответить на тему
Статистика раздачи
Размер: 184.52 МБ | Добавлен: 26 июн 2020, 20:42 | Скачали: 0
Сидеров: 0  [0 байт/сек]    Личеров: 0  [0 байт/сек]
Пред. тема | След. тема 

Автор
Сообщение

СообщениеДобавлено: 26 июн 2020, 20:42 

Ответить с цитатой 

Deutsch Amerikanische Freundschaft-Gold Und Liebe
Жанр: NDW
Год выпуска диска: 1981
Производитель диска: Germany
Аудио кодек: FLAC
Тип рипа: image+.cue
Битрейт аудио: lossless
Продолжительность: 35:40
Трэклист:
01 Liebe Auf Den Ersten Blick 3:58
02 El Que 3:33
03 Sex Unter Wasser 3:04
04 Was Ziehst Du An Heute Nacht 3:46
05 Goldenes Spielzeug 3:56
06 Ich Will 3:19
07 Muskel 3:23
08 Absolute Körperkontrolle 3:12
09 Verschwende Deine Jugend 3:48
10 Greif Nach Den Sternen 3:41
Exact Audio Copy V0.99 prebeta 5 from 4. May 2009
Отчёт EAC об извлечении, выполненном 1. февраля 2010, 9:43
Deutsch Amerikanische Freundschaft / Gold Und Liebe
Дисковод: PIONEER DVD-RW DVR-115D Adapter: 1 ID: 0
Режим чтения : Достоверность
Использование точного потока : Да
Отключение кэша аудио : Да
Использование указателей C2 : Нет
Коррекция смещения при чтении : 48
Способность читать области Lead-in и Lead-out : Нет
Заполнение пропущенных сэмплов тишиной : Да
Удаление блоков с тишиной в начале и конце : Нет
При вычислениях CRC использовались нулевые сэмплы : Да
Интерфейс : Установленный внешний ASPI-интерфейс
Выходной формат : Пользовательский кодировщик
Выбранный битрейт : 768 kBit/s
Качество : Высокий
Добавление ID3-тэга : Нет
Утилита сжатия : D:\Program Files\Exact Audio Copy\FLAC\FLAC.EXE
Дополнительные параметры : -6 -V -T "ARTIST=%a" -T "TITLE=%t" -T "ALBUM=%g" -T "DATE=%y" -T "TRACKNUMBER=%n" -T "GENRE=%m" -T "COMMENT=%e" %s -o %d
TOC извлечённого CD
Трек | Старт | Длительность | Начальный сектор | Конечный сектор
---------------------------------------------------------------------
1 | 0:00.32 | 3:58.18 | 32 | 17899
2 | 3:58.50 | 3:33.15 | 17900 | 33889
3 | 7:31.65 | 3:04.25 | 33890 | 47714
4 | 10:36.15 | 3:46.67 | 47715 | 64731
5 | 14:23.07 | 3:56.13 | 64732 | 82444
6 | 18:19.20 | 3:19.57 | 82445 | 97426
7 | 21:39.02 | 3:23.43 | 97427 | 112694
8 | 25:02.45 | 3:12.47 | 112695 | 127141
9 | 28:15.17 | 3:48.48 | 127142 | 144289
10 | 32:03.65 | 3:41.42 | 144290 | 160906
Характеристики диапазона извлечения и сообщения об ошибках
Выбранный диапазон
Имя файла D:\1\01-Torrents\DAF\Deutsch Amerikanische Freundschaft - Gold Und Liebe.wav
Пиковый уровень 99.9 %
Качество диапазона 99.7 %
CRC копии A63DDA3A
Копирование... OK
Ошибок не произошло
Конец отчёта
Доп. информация: Gold Und Liebe (CD, Album, RE) Virgin, Virgin CDV 2218, 254 165 UK & Europe 1989
Правила, инструкции, FAQ!!!
Торрент  Добавлен [26 июн 2020, 20:42] Скачать торрент Магнет ссылка
Скачать торрент
[ Размер 15.26 КБ / Просмотров 9 ]

Статус
Проверен 
 
Размер  184.52 МБ
Приватный: Нет (DHT включён)
.torrent скачан  0
 


     Отправить личное сообщение
   
Страница 1 из 1
Показать сообщения за:  Поле сортировки  
Начать новую тему Ответить на тему


Сейчас этот форум просматривают: нет зарегистрированных пользователей и гости: 0


Вы не можете начинать темы
Вы не можете отвечать на сообщения
Вы не можете редактировать свои сообщения
Вы не можете удалять свои сообщения
Вы не можете добавлять вложения

Перейти:  
cron