Начать новую тему Ответить на тему
Статистика раздачи
Размер: 546.56 МБ | Добавлен: 17 июн 2020, 22:53 | Скачали: 2
Сидеров: 12  [0 байт/сек]    Личеров: 0  [0 байт/сек]
Пред. тема | След. тема 

Автор
Сообщение

СообщениеДобавлено: 29 июн 2014, 00:21 

Ответить с цитатой 

Настя - Звездная серия. Рок Энциклопедия (2003)

Год: 2003
Жанр: Rock
Лейбл: S.T.R. Records. Made in UA.
Каталог #: ZSR CD 125-1011-02
Продолжительность: 01:16:37
Кодек: FLAC
Тип рипа: image + .cue
Битрейт: Lossless
Треклист:
01. Снежные Волки (2:26)
02. Ариандна (4:50)
03. Невеста (5:08)
04. Москва (4:32)
05. На Счастье (6:01)
06. Тацу (6:07)
07. Золотой Дождь (4:38)
08. Бабочка (4:35)
09. Том Сойер (5:18)
10. Ноа, Ноа (4:32)
11. Я Молчу (5:43)
12. С Тобой, Но Без Тебя (5:07)
13. Клипсо Калипсо (3:27)
14. Море Сиам (4:58)
15. Стратосфера (5:26)
16. Летучий Фрегат (3:50)
Код:
Код:
Exact Audio Copy V1.0 beta 3 from 29. August 2011

EAC extraction logfile from 27. June 2013, 18:54

Настя / Рок Энциклопедия

Used drive  : PLEXTOR CD-R   PX-W4824A   Adapter: 6  ID: 1

Read mode               : Secure
Utilize accurate stream : Yes
Defeat audio cache      : Yes
Make use of C2 pointers : No

Read offset correction                      : 98
Overread into Lead-In and Lead-Out          : No
Fill up missing offset samples with silence : Yes
Delete leading and trailing silent blocks   : No
Null samples used in CRC calculations       : Yes
Used interface                              : Installed external ASPI interface

Used output format : Internal WAV Routines
Sample format      : 44.100 Hz; 16 Bit; Stereo

TOC of the extracted CD

     Track |   Start  |  Length  | Start sector | End sector
    ---------------------------------------------------------
        1  |  0:00.00 |  2:25.69 |         0    |    10943
        2  |  2:25.69 |  4:49.69 |     10944    |    32687
        3  |  7:15.63 |  5:07.61 |     32688    |    55773
        4  | 12:23.49 |  4:32.10 |     55774    |    76183
        5  | 16:55.59 |  6:00.63 |     76184    |   103246
        6  | 22:56.47 |  6:06.61 |    103247    |   130757
        7  | 29:03.33 |  4:37.57 |    130758    |   151589
        8  | 33:41.15 |  4:34.61 |    151590    |   172200
        9  | 38:16.01 |  5:18.36 |    172201    |   196086
       10  | 43:34.37 |  4:31.56 |    196087    |   216467
       11  | 48:06.18 |  5:43.08 |    216468    |   242200
       12  | 53:49.26 |  5:06.65 |    242201    |   265215
       13  | 58:56.16 |  3:27.37 |    265216    |   280777
       14  | 62:23.53 |  4:57.60 |    280778    |   303112
       15  | 67:21.38 |  5:25.67 |    303113    |   327554
       16  | 72:47.30 |  3:49.67 |    327555    |   344796

Range status and errors

Selected range

     Filename C:\rip-flacmusic.ru\Настя - Рок Энциклопедия.wav

     Peak level 98.8 %
     Extraction speed 10.2 X
     Range quality 100.0 %
     Test CRC 14BEDC5F
     Copy CRC 14BEDC5F
     Copy OK

No errors occurred

AccurateRip summary

Track  1  not present in database
Track  2  not present in database
Track  3  not present in database
Track  4  not present in database
Track  5  not present in database
Track  6  not present in database
Track  7  not present in database
Track  8  not present in database
Track  9  not present in database
Track 10  not present in database
Track 11  not present in database
Track 12  not present in database
Track 13  not present in database
Track 14  not present in database
Track 15  not present in database
Track 16  not present in database

None of the tracks are present in the AccurateRip database

End of status report

==== Log checksum C18E6F1C531DCC54A5EE0322E0F1DDBF12BA8C2DEF3421743AA6E6396A809D04 ====

Код:
Код:
-----------------------

DON'T MODIFY THIS FILE

-----------------------

PERFORMER: auCDtect Task Manager, ver. 1.6.0 RC1 build 1.6.0.1
Copyright (c) 2008-2010 y-soft. All rights reserved
http:/y-soft.org

ANALYZER: auCDtect: CD records authenticity detector, version 0.8.2
Copyright (c) 2004 Oleg Berngardt. All rights reserved.
Copyright (c) 2004 Alexander Djourik. All rights reserved.

FILE: Настя - Рок Энциклопедия.flac
  Size: 516771972 Hash: 100EF3ED1460874277E2689A38770C11 Accuracy: -m0
  Conclusion: CDDA 100%
  Signature: 38C4D92247E4CA3FB751F8EDBBB458E2A512839F

Код:
Код:
REM GENRE Rock
REM DATE 2003
REM DISCID EE11F510
REM COMMENT "ExactAudioCopy v1.0b3"
PERFORMER "Настя"
TITLE "Рок Энциклопедия"
FILE "Настя - Рок Энциклопедия.flac" WAVE
  TRACK 01 AUDIO
    TITLE "Снежные Волки"
    PERFORMER "Настя"
    INDEX 01 00:00:00
  TRACK 02 AUDIO
    TITLE "Ариандна"
    PERFORMER "Настя"
    INDEX 00 02:23:69
    INDEX 01 02:25:69
  TRACK 03 AUDIO
    TITLE "Невеста"
    PERFORMER "Настя"
    INDEX 00 07:13:62
    INDEX 01 07:15:63
  TRACK 04 AUDIO
    TITLE "Москва"
    PERFORMER "Настя"
    INDEX 00 12:21:48
    INDEX 01 12:23:49
  TRACK 05 AUDIO
    TITLE "На Счастье"
    PERFORMER "Настя"
    INDEX 00 16:53:59
    INDEX 01 16:55:59
  TRACK 06 AUDIO
    TITLE "Тацу"
    PERFORMER "Настя"
    INDEX 00 22:54:47
    INDEX 01 22:56:47
  TRACK 07 AUDIO
    TITLE "Золотой Дождь"
    PERFORMER "Настя"
    INDEX 00 29:01:32
    INDEX 01 29:03:33
  TRACK 08 AUDIO
    TITLE "Бабочка"
    PERFORMER "Настя"
    INDEX 00 33:39:14
    INDEX 01 33:41:15
  TRACK 09 AUDIO
    TITLE "Том Сойер"
    PERFORMER "Настя"
    INDEX 00 38:14:00
    INDEX 01 38:16:01
  TRACK 10 AUDIO
    TITLE "Ноа, Ноа"
    PERFORMER "Настя"
    INDEX 00 43:32:37
    INDEX 01 43:34:37
  TRACK 11 AUDIO
    TITLE "Я Молчу"
    PERFORMER "Настя"
    INDEX 00 48:04:17
    INDEX 01 48:06:18
  TRACK 12 AUDIO
    TITLE "С Тобой, Но Без Тебя"
    PERFORMER "Настя"
    INDEX 00 53:47:26
    INDEX 01 53:49:26
  TRACK 13 AUDIO
    TITLE "Клипсо Калипсо"
    PERFORMER "Настя"
    INDEX 00 58:54:16
    INDEX 01 58:56:16
  TRACK 14 AUDIO
    TITLE "Море Сиам"
    PERFORMER "Настя"
    INDEX 00 62:21:53
    INDEX 01 62:23:53
  TRACK 15 AUDIO
    TITLE "Стратосфера"
    PERFORMER "Настя"
    INDEX 00 67:19:37
    INDEX 01 67:21:38
  TRACK 16 AUDIO
    TITLE "Летучий Фрегат"
    PERFORMER "Настя"
    INDEX 00 72:45:30
    INDEX 01 72:47:30

Правила, инструкции, FAQ!!!
Торрент  Добавлен [17 июн 2020, 22:53] Скачать торрент Магнет ссылка
Скачать торрент
[ Размер 12.17 КБ / Просмотров 5 ]

Статус
Проверен 
 
Размер  546.56 МБ
Приватный: Нет (DHT включён)
.torrent скачан  2
 


     Отправить личное сообщение
   

СообщениеДобавлено: 17 июн 2020, 21:58 

Ответить с цитатой 

Зарегистрированные пользователи
Зарегистрированные пользователи

Стаж: 1 месяц 3 дня
Раздал: 292.01 МБ
Скачал: 0 байт
Ратио: Seed.
Торренты: 0
Большое спасибо.Замечательная группа 80-х. :bs:


Профиль     Отправить личное сообщение
   
Страница 1 из 1
Показать сообщения за:  Поле сортировки  
Начать новую тему Ответить на тему


Сейчас этот форум просматривают: нет зарегистрированных пользователей и гости: 0


Вы не можете начинать темы
Вы не можете отвечать на сообщения
Вы не можете редактировать свои сообщения
Вы не можете удалять свои сообщения
Вы не можете добавлять вложения

Перейти:  
cron