Начать новую тему Ответить на тему
Статистика раздачи
Размер: 42.83 ГБ | Добавлен: 05 июн 2020, 23:05 | Скачали: 0
Сидеров: 0  [0 байт/сек]    Личеров: 0  [0 байт/сек]
Пред. тема | След. тема 

Автор
Сообщение

СообщениеДобавлено: 05 июн 2020, 23:05 

Ответить с цитатой 

Mozart: Idomeneo / В.А. Моцарт: Идоменео - Live at the Cuvillies Theatre, Munich
Год выпуска: 2012
Лейбл: EuroArts
Страна-производитель: Германия
Жанр: Opera
Продолжительность: 02:54:09 + 00:10:20 (бонусы)
Язык: Italian
Перевод: нет
Субтитры: Italian, English, German, French, Spanish
Режиссер: Dieter Dorn
Дирижер: Kent Nagano
Исполнители:
John Mark Ainsley - Idomeneo
Pavol Breslik - Idamante
Juliane Banse - Ilia
Annette Dasch - Elettra
Rainer Trost - Arbace
Guy de Mey - Gran Sacerdote di Nettuno
Steven Humes - La Voce
Bayerisches Staatsorchester, Chor Der Bayerischen Staatsoper
Треклист: Опера в трех действиях.
01. Wolfgang Amadeus Mozart: Idiomen, K366
Дополнительно на диске 3 трейлера EuroArts [00:10:20]
Описание: В основу сюжета положен древнегреческий миф о царе Крита Идоменее, участнике Троянской войны, на которую он отправился во главе могущественного флота. В одной из версий повествования о возвращении Идоменея на родину используется распространенный фольклорный мотив рокового обета: принести в жертву богу или чудовищу первое встреченное существо, которым оказывается сын или дочь. То ли Идоменей испугался такого жертвоприношения, то ли жертва оказалась неугодной богам, но они наслали на Крит моровую язву. Чтобы смягчить гнев богов, критяне изгнали царя, и он умер далеко от родины, на юге Италии.
With this wonderful production, Mozart’s “Munich” opera returns to the place where it was first performed in 1781, the lovingly restored Cuvilliés Theatre, a veritable jewel of Rococo architecture. In Dieter Dorn’s production, the characters are real people of flesh and blood, their emotions and conflicts intelligible to every member of the audience. The fantastic cast includes some of the finest Mozart singers of our day, headed by the British tenor John Mark Ainsley in the title role, while Kent Nagano in the orchestra pit appears to unleash an elemental force of nature.
Качество видео: Blu-ray
Формат/Контейнер: BDMV
Видео кодек: MPEG2
Аудио кодек: PCM, DTS
Видео поток: MPEG-2 Video / 24978 kbps / 1080i / 29.970 fps / 16:9
Аудио#1: Italian / LPCM Audio / 2.0 / 48 kHz / 2304 kbps / 24-bit
Аудио#2: Italian / DTS-HD Master Audio / 5.1 / 48 kHz / 3993 kbps / 24-bit (DTS Core: 5.1 / 48 kHz / 1509 kbps / 24-bit)
Аудио#3: Undetermined / LPCM Audio / 2.0 / 48 kHz / 1536 kbps / 16-bit ( только бонусы)
Код:
Disc Label:     MOZART_IDOMENEO
Disc Size:      45,983,869,287 bytes
Protection:     AACS
Extras:         BD-Java
BDInfo:         0.7.5.5
Notes:
BDINFO HOME:
  Cinema Squid (old)
    [url=http://www.cinemasquid.com/blu-ray/tools/bdinfo]http://www.cinemasquid.com/blu-ray/tools/bdinfo[/url]
  UniqProject GitHub (new)
   [url=https://github.com/UniqProject/BDInfo]https://github.com/UniqProject/BDInfo[/url]
INCLUDES FORUMS REPORT FOR:
  AVS Forum Blu-ray Audio and Video Specifications Thread
    [url=http://www.avsforum.com/avs-vb/showthread.php?t=1155731]http://www.avsforum.com/avs-vb/showthread.php?t=1155731[/url]
********************
PLAYLIST: 00003.MPLS
********************
<--- BEGIN FORUMS PASTE --->
Код:
Код:
                                                                                Total   Video
Title                                                           Codec   Length  Movie Size      Disc Size       Bitrate Bitrate Main Audio Track                          Secondary Audio Track
-----                                                           ------  ------- --------------  --------------  ------- ------- ------------------                        ---------------------
00003.MPLS                                                      MPEG-2  2:54:09 43,215,857,664  45,983,869,287  33.09   24.98   LPCM 2.0 2304Kbps (48kHz/24-bit)          DTS-HD Master 5.1 3993Kbps (48kHz/24-bit)

Код:
Код:
DISC INFO:
Disc Label:     MOZART_IDOMENEO
Disc Size:      45,983,869,287 bytes
Protection:     AACS
Extras:         BD-Java
BDInfo:         0.7.5.5
PLAYLIST REPORT:
Name:                   00003.MPLS
Length:                 2:54:09.205 (h:m:s.ms)
Size:                   43,215,857,664 bytes
Total Bitrate:          33.09 Mbps
VIDEO:
Codec                   Bitrate             Description
-----                   -------             -----------
MPEG-2 Video            24978 kbps          1080i / 29.970 fps / 16:9
AUDIO:
Codec                           Language        Bitrate         Description
-----                           --------        -------         -----------
LPCM Audio                      Italian         2304 kbps       2.0 / 48 kHz /  2304 kbps / 24-bit
DTS-HD Master Audio             Italian         3993 kbps       5.1 / 48 kHz /  3993 kbps / 24-bit (DTS Core: 5.1 / 48 kHz /  1509 kbps / 24-bit)
SUBTITLES:
Codec                           Language        Bitrate         Description
-----                           --------        -------         -----------
Presentation Graphics           Italian         10.627 kbps
Presentation Graphics           English         11.825 kbps
Presentation Graphics           German          13.223 kbps
Presentation Graphics           French          12.561 kbps
Presentation Graphics           Spanish         12.073 kbps
FILES:
Name            Time In         Length          Size            Total Bitrate
----            -------         ------          ----            -------------
00003.M2TS      0:00:00.000     2:54:09.205     43,215,857,664  33,086
CHAPTERS:
Number          Time In         Length          Avg Video Rate  Max 1-Sec Rate  Max 1-Sec Time  Max 5-Sec Rate  Max 5-Sec Time  Max 10Sec Rate  Max 10Sec Time  Avg Frame Size  Max Frame Size  Max Frame Time
------          -------         ------          --------------  --------------  --------------  --------------  --------------  --------------  --------------  --------------  --------------  --------------
1               0:00:00.000     0:01:46.606     27,190 kbps     30,477 kbps     00:00:25.892    28,311 kbps     00:01:36.996    28,120 kbps     00:00:25.125    113,371 bytes   536,072 bytes   00:00:32.532
2               0:01:46.606     0:04:23.096     25,029 kbps     29,826 kbps     00:04:16.489    27,684 kbps     00:04:15.121    27,181 kbps     00:02:46.332    104,393 bytes   490,519 bytes   00:06:02.762
3               0:06:09.702     0:03:36.249     24,773 kbps     30,311 kbps     00:08:06.385    27,861 kbps     00:08:06.285    27,695 kbps     00:08:06.919    103,322 bytes   493,698 bytes   00:08:11.290
4               0:09:45.952     0:03:28.541     24,766 kbps     29,708 kbps     00:12:59.945    27,522 kbps     00:10:30.696    27,331 kbps     00:10:27.827    103,296 bytes   477,418 bytes   00:09:48.120
5               0:13:14.493     0:03:39.986     25,123 kbps     29,854 kbps     00:16:04.530    27,840 kbps     00:16:39.965    27,477 kbps     00:15:45.344    104,785 bytes   429,748 bytes   00:16:45.371
6               0:16:54.480     0:05:27.460     24,195 kbps     29,354 kbps     00:21:45.504    27,420 kbps     00:21:22.848    27,085 kbps     00:21:20.345    100,913 bytes   435,845 bytes   00:22:17.636
7               0:22:21.940     0:01:00.393     26,231 kbps     29,681 kbps     00:23:06.084    27,709 kbps     00:22:56.408    27,318 kbps     00:23:04.783    109,406 bytes   477,990 bytes   00:22:43.428
8               0:23:22.334     0:02:10.630     26,564 kbps     30,361 kbps     00:25:04.002    27,984 kbps     00:25:02.601    27,465 kbps     00:25:04.436    110,794 bytes   469,670 bytes   00:24:39.244
9               0:25:32.964     0:03:46.492     24,988 kbps     29,439 kbps     00:25:39.738    27,542 kbps     00:25:39.738    27,275 kbps     00:25:41.072    104,220 bytes   472,099 bytes   00:25:57.489
10              0:29:19.457     0:03:28.441     24,131 kbps     29,208 kbps     00:32:38.790    27,007 kbps     00:31:16.541    26,632 kbps     00:31:16.207    100,645 bytes   406,608 bytes   00:31:30.154
11              0:32:47.899     0:01:06.666     24,717 kbps     29,010 kbps     00:33:01.145    27,030 kbps     00:33:39.183    26,596 kbps     00:33:35.480    103,092 bytes   399,198 bytes   00:33:42.487
12              0:33:54.565     0:02:29.149     24,776 kbps     29,200 kbps     00:35:08.973    26,728 kbps     00:35:13.211    26,584 kbps     00:35:08.973    103,336 bytes   475,890 bytes   00:35:14.645
13              0:36:23.714     0:03:41.254     24,596 kbps     28,830 kbps     00:37:37.188    26,788 kbps     00:39:04.075    26,419 kbps     00:37:36.854    102,585 bytes   454,366 bytes   00:36:36.761
14              0:40:04.969     0:04:02.742     23,588 kbps     29,544 kbps     00:40:43.307    26,435 kbps     00:43:24.568    26,170 kbps     00:40:43.407    98,383 bytes    414,440 bytes   00:40:44.308
15              0:44:07.711     0:02:43.229     24,653 kbps     30,225 kbps     00:46:48.305    27,942 kbps     00:46:44.301    27,774 kbps     00:46:40.564    102,823 bytes   470,009 bytes   00:46:49.273
16              0:46:50.941     0:01:59.252     26,559 kbps     30,171 kbps     00:47:01.318    28,323 kbps     00:48:11.521    27,888 kbps     00:46:53.577    110,772 bytes   476,150 bytes   00:46:57.948
17              0:48:50.193     0:02:08.161     26,819 kbps     30,003 kbps     00:49:11.481    28,235 kbps     00:49:45.983    27,987 kbps     00:49:10.280    111,860 bytes   448,612 bytes   00:50:07.904
18              0:50:58.355     0:05:09.008     26,794 kbps     30,751 kbps     00:55:42.105    28,448 kbps     00:55:38.501    28,159 kbps     00:55:31.561    111,753 bytes   494,739 bytes   00:55:41.571
19              0:56:07.364     0:01:58.284     24,217 kbps     29,412 kbps     00:56:12.035    27,077 kbps     00:56:12.569    26,495 kbps     00:56:11.935    101,006 bytes   404,669 bytes   00:56:12.168
20              0:58:05.648     0:04:29.736     23,505 kbps     29,146 kbps     01:02:33.950    27,165 kbps     01:02:30.046    26,719 kbps     01:02:25.374    98,035 bytes    397,584 bytes   01:02:34.951
21              1:02:35.384     0:00:59.726     25,891 kbps     29,657 kbps     01:02:44.827    27,585 kbps     01:02:40.957    27,373 kbps     01:02:37.086    107,988 bytes   445,096 bytes   01:03:14.290
22              1:03:35.111     0:05:51.117     25,126 kbps     30,168 kbps     01:08:36.846    28,241 kbps     01:08:34.210    27,965 kbps     01:08:37.379    104,796 bytes   512,993 bytes   01:08:32.508
23              1:09:26.228     0:02:02.689     24,294 kbps     28,802 kbps     01:10:33.329    26,256 kbps     01:09:27.129    26,017 kbps     01:10:32.461    101,326 bytes   445,073 bytes   01:11:10.199
24              1:11:28.917     0:06:14.640     24,222 kbps     29,623 kbps     01:17:39.221    27,519 kbps     01:16:44.566    27,212 kbps     01:16:44.666    101,027 bytes   461,605 bytes   01:17:08.991
25              1:17:43.558     0:01:16.843     26,036 kbps     30,237 kbps     01:18:38.280    28,102 kbps     01:18:35.644    27,846 kbps     01:17:47.829    108,592 bytes   469,724 bytes   01:18:34.910
26              1:19:00.402     0:04:35.675     24,361 kbps     29,852 kbps     01:21:30.785    26,734 kbps     01:22:04.653    26,557 kbps     01:22:00.782    101,607 bytes   398,318 bytes   01:21:53.441
27              1:23:36.077     0:01:48.041     24,581 kbps     29,170 kbps     01:24:28.696    27,129 kbps     01:24:24.793    26,757 kbps     01:24:23.958    102,525 bytes   411,389 bytes   01:24:29.631
28              1:25:24.119     0:00:24.858     26,014 kbps     29,456 kbps     01:25:26.888    27,240 kbps     01:25:26.421    26,444 kbps     01:25:35.130    108,499 bytes   452,569 bytes   01:25:29.524
29              1:25:48.977     0:03:27.407     24,610 kbps     30,377 kbps     01:26:24.345    27,815 kbps     01:26:33.321    27,723 kbps     01:26:29.617    102,646 bytes   508,880 bytes   01:28:25.800
30              1:29:16.384     0:00:30.330     26,144 kbps     29,006 kbps     01:29:37.638    27,225 kbps     01:29:21.189    26,636 kbps     01:29:16.517    109,041 bytes   433,677 bytes   01:29:44.278
31              1:29:46.714     0:04:04.043     24,813 kbps     30,055 kbps     01:32:59.373    27,548 kbps     01:32:58.739    27,379 kbps     01:32:50.698    103,490 bytes   516,221 bytes   01:32:59.407
32              1:33:50.758     0:01:52.879     26,099 kbps     31,890 kbps     01:35:36.464    28,137 kbps     01:34:41.375    27,661 kbps     01:35:33.094    108,856 bytes   483,886 bytes   01:35:29.890
33              1:35:43.637     0:01:40.099     24,705 kbps     29,260 kbps     01:35:49.143    26,849 kbps     01:35:47.742    26,449 kbps     01:35:44.004    103,040 bytes   459,421 bytes   01:36:31.919
34              1:37:23.737     0:01:41.000     26,547 kbps     29,855 kbps     01:38:31.906    28,151 kbps     01:38:30.871    28,046 kbps     01:38:32.339    110,723 bytes   462,072 bytes   01:38:21.962
35              1:39:04.738     0:05:10.376     24,055 kbps     30,648 kbps     01:39:06.674    28,229 kbps     01:39:11.812    28,103 kbps     01:39:06.340    100,330 bytes   477,838 bytes   01:39:13.747
36              1:44:15.115     0:03:48.962     24,809 kbps     29,927 kbps     01:47:29.943    27,890 kbps     01:47:28.942    27,675 kbps     01:47:30.010    103,473 bytes   443,566 bytes   01:47:38.285
37              1:48:04.077     0:02:32.118     24,698 kbps     29,168 kbps     01:48:39.179    27,016 kbps     01:48:38.178    26,820 kbps     01:48:35.342    103,010 bytes   435,758 bytes   01:48:41.882
38              1:50:36.196     0:01:17.076     25,073 kbps     29,148 kbps     01:51:27.747    26,818 kbps     01:51:25.712    26,414 kbps     01:51:24.411    104,577 bytes   392,214 bytes   01:50:42.068
39              1:51:53.273     0:05:01.301     24,757 kbps     30,099 kbps     01:55:41.567    27,677 kbps     01:55:37.497    27,010 kbps     01:55:37.964    103,258 bytes   435,062 bytes   01:55:39.866
40              1:56:54.574     0:00:34.167     25,208 kbps     28,585 kbps     01:57:13.793    26,708 kbps     01:57:14.627    26,247 kbps     01:57:13.793    105,139 bytes   374,638 bytes   01:57:07.954
41              1:57:28.741     0:02:45.331     24,507 kbps     29,098 kbps     01:59:17.049    27,155 kbps     01:59:13.412    26,698 kbps     01:59:07.940    102,215 bytes   434,734 bytes   01:58:54.961
42              2:00:14.073     0:07:25.011     25,674 kbps     29,902 kbps     02:02:14.260    27,455 kbps     02:04:51.684    27,201 kbps     02:05:06.899    107,084 bytes   485,400 bytes   02:02:42.121
43              2:07:39.084     0:04:08.414     24,036 kbps     29,662 kbps     02:07:44.923    27,465 kbps     02:07:44.790    27,127 kbps     02:07:44.690    100,250 bytes   460,173 bytes   02:10:22.915
44              2:11:47.499     0:02:15.635     25,066 kbps     29,910 kbps     02:13:15.187    27,984 kbps     02:13:11.616    27,884 kbps     02:13:11.817    104,548 bytes   463,443 bytes   02:13:16.188
45              2:14:03.135     0:01:19.045     22,557 kbps     28,450 kbps     02:15:21.046    25,994 kbps     02:15:17.042    24,869 kbps     02:15:12.170    94,082 bytes    422,111 bytes   02:15:21.513
46              2:15:22.180     0:03:21.701     24,131 kbps     29,998 kbps     02:18:38.543    26,631 kbps     02:18:36.708    26,310 kbps     02:15:22.781    100,648 bytes   421,968 bytes   02:18:36.841
47              2:18:43.882     0:00:57.791     25,156 kbps     28,562 kbps     02:19:13.144    26,858 kbps     02:19:13.111    26,366 kbps     02:19:13.144    104,920 bytes   383,033 bytes   02:19:25.757
48              2:19:41.673     0:06:55.615     23,648 kbps     29,502 kbps     02:25:41.099    26,780 kbps     02:20:29.254    26,004 kbps     02:20:29.521    98,633 bytes    446,872 bytes   02:19:54.953
49              2:26:37.288     0:02:33.753     25,443 kbps     30,055 kbps     02:29:01.299    28,060 kbps     02:28:25.930    27,490 kbps     02:28:04.876    106,119 bytes   436,234 bytes   02:29:02.266
50              2:29:11.042     0:02:48.968     24,000 kbps     29,305 kbps     02:30:40.531    27,294 kbps     02:30:40.531    26,746 kbps     02:30:40.598    100,101 bytes   422,062 bytes   02:30:41.065
51              2:32:00.010     0:03:24.938     26,180 kbps     30,785 kbps     02:33:30.501    28,073 kbps     02:34:35.199    27,736 kbps     02:34:20.050    109,193 bytes   474,301 bytes   02:35:22.680
52              2:35:24.948     0:03:50.663     27,043 kbps     30,757 kbps     02:38:50.053    28,134 kbps     02:39:10.474    27,876 kbps     02:37:04.615    112,791 bytes   510,180 bytes   02:37:18.962
53              2:39:15.612     0:01:19.212     26,738 kbps     31,238 kbps     02:39:56.753    28,423 kbps     02:39:56.753    27,781 kbps     02:39:54.885    111,520 bytes   508,372 bytes   02:40:21.478
54              2:40:34.825     0:10:37.370     25,924 kbps     31,217 kbps     02:51:04.754    28,251 kbps     02:51:03.353    28,107 kbps     02:47:12.856    108,124 bytes   528,565 bytes   02:50:49.505
55              2:51:12.195     0:02:57.010     25,593 kbps     31,300 kbps     02:52:18.528    28,546 kbps     02:51:58.174    28,182 kbps     02:51:58.174    106,762 bytes   524,455 bytes   02:51:26.643
STREAM DIAGNOSTICS:
File            PID             Type            Codec           Language                Seconds                 Bitrate                 Bytes           Packets
----            ---             ----            -----           --------                --------------          --------------          -------------   -----
00003.M2TS      4113 (0x1011)   0x02            MPEG-2                                  10449.105               24,978                  32,624,679,156  177,490,889
00003.M2TS      4352 (0x1100)   0x80            LPCM            ita (Italian)           10449.105               2,308                   3,014,293,516   16,699,709
00003.M2TS      4353 (0x1101)   0x86            DTS-HD MA       ita (Italian)           10449.105               3,994                   5,216,112,039   29,974,568
00003.M2TS      4608 (0x1200)   0x90            PGS             ita (Italian)           10449.105               11                      13,880,300      80,390
00003.M2TS      4609 (0x1201)   0x90            PGS             eng (English)           10449.105               12                      15,445,210      88,904
00003.M2TS      4610 (0x1202)   0x90            PGS             deu (German)            10449.105               13                      17,271,540      98,826
00003.M2TS      4611 (0x1203)   0x90            PGS             fra (French)            10449.105               13                      16,406,308      94,123
00003.M2TS      4612 (0x1204)   0x90            PGS             spa (Spanish)           10449.105               12                      15,769,719      90,655

Код:
<---- END FORUMS PASTE ---->
QUICK SUMMARY:
Disc Label: MOZART_IDOMENEO
Disc Size: 45,983,869,287 bytes
Protection: AACS
Playlist: 00003.MPLS
Size: 43,215,857,664 bytes
Length: 2:54:09.205
Total Bitrate: 33.09 Mbps
Video: MPEG-2 Video / 24978 kbps / 1080i / 29.970 fps / 16:9
Audio: Italian / LPCM Audio / 2.0 / 48 kHz /  2304 kbps / 24-bit
Audio: Italian / DTS-HD Master Audio / 5.1 / 48 kHz /  3993 kbps / 24-bit (DTS Core: 5.1 / 48 kHz /  1509 kbps / 24-bit)
Subtitle: Italian / 10.627 kbps
Subtitle: English / 11.825 kbps
Subtitle: German / 13.223 kbps
Subtitle: French / 12.561 kbps
Subtitle: Spanish / 12.073 kbps
********************
PLAYLIST: 01003.MPLS
********************
<--- BEGIN FORUMS PASTE --->
Код:
Код:
                                                                                Total   Video
Title                                                           Codec   Length  Movie Size      Disc Size       Bitrate Bitrate Main Audio Track                          Secondary Audio Track
-----                                                           ------  ------- --------------  --------------  ------- ------- ------------------                        ---------------------
01003.MPLS                                                      MPEG-2  2:54:09 43,215,857,664  45,983,869,287  33.09   24.98   LPCM 2.0 2304Kbps (48kHz/24-bit)          DTS-HD Master 5.1 3993Kbps (48kHz/24-bit)

Код:
Код:
DISC INFO:
Disc Label:     MOZART_IDOMENEO
Disc Size:      45,983,869,287 bytes
Protection:     AACS
Extras:         BD-Java
BDInfo:         0.7.5.5
PLAYLIST REPORT:
Name:                   01003.MPLS
Length:                 2:54:09.205 (h:m:s.ms)
Size:                   43,215,857,664 bytes
Total Bitrate:          33.09 Mbps
VIDEO:
Codec                   Bitrate             Description
-----                   -------             -----------
MPEG-2 Video            24978 kbps          1080i / 29.970 fps / 16:9
AUDIO:
Codec                           Language        Bitrate         Description
-----                           --------        -------         -----------
LPCM Audio                      Italian         2304 kbps       2.0 / 48 kHz /  2304 kbps / 24-bit
DTS-HD Master Audio             Italian         3993 kbps       5.1 / 48 kHz /  3993 kbps / 24-bit (DTS Core: 5.1 / 48 kHz /  1509 kbps / 24-bit)
SUBTITLES:
Codec                           Language        Bitrate         Description
-----                           --------        -------         -----------
Presentation Graphics           Italian         10.627 kbps
Presentation Graphics           English         11.825 kbps
Presentation Graphics           German          13.223 kbps
Presentation Graphics           French          12.561 kbps
Presentation Graphics           Spanish         12.073 kbps
FILES:
Name            Time In         Length          Size            Total Bitrate
----            -------         ------          ----            -------------
00003.M2TS      0:00:00.000     2:54:09.205     43,215,857,664  33,086
CHAPTERS:
Number          Time In         Length          Avg Video Rate  Max 1-Sec Rate  Max 1-Sec Time  Max 5-Sec Rate  Max 5-Sec Time  Max 10Sec Rate  Max 10Sec Time  Avg Frame Size  Max Frame Size  Max Frame Time
------          -------         ------          --------------  --------------  --------------  --------------  --------------  --------------  --------------  --------------  --------------  --------------
1               0:00:00.000     0:01:46.606     27,190 kbps     30,477 kbps     00:00:25.892    28,311 kbps     00:01:36.996    28,120 kbps     00:00:25.125    113,371 bytes   536,072 bytes   00:00:32.532
2               0:01:46.606     0:04:23.096     25,029 kbps     29,826 kbps     00:04:16.489    27,684 kbps     00:04:15.121    27,181 kbps     00:02:46.332    104,393 bytes   490,519 bytes   00:06:02.762
3               0:06:09.702     0:03:36.249     24,773 kbps     30,311 kbps     00:08:06.385    27,861 kbps     00:08:06.285    27,695 kbps     00:08:06.919    103,322 bytes   493,698 bytes   00:08:11.290
4               0:09:45.952     0:03:28.541     24,766 kbps     29,708 kbps     00:12:59.945    27,522 kbps     00:10:30.696    27,331 kbps     00:10:27.827    103,296 bytes   477,418 bytes   00:09:48.120
5               0:13:14.493     0:03:39.986     25,123 kbps     29,854 kbps     00:16:04.530    27,840 kbps     00:16:39.965    27,477 kbps     00:15:45.344    104,785 bytes   429,748 bytes   00:16:45.371
6               0:16:54.480     0:05:27.460     24,195 kbps     29,354 kbps     00:21:45.504    27,420 kbps     00:21:22.848    27,085 kbps     00:21:20.345    100,913 bytes   435,845 bytes   00:22:17.636
7               0:22:21.940     0:01:00.393     26,231 kbps     29,681 kbps     00:23:06.084    27,709 kbps     00:22:56.408    27,318 kbps     00:23:04.783    109,406 bytes   477,990 bytes   00:22:43.428
8               0:23:22.334     0:02:10.630     26,564 kbps     30,361 kbps     00:25:04.002    27,984 kbps     00:25:02.601    27,465 kbps     00:25:04.436    110,794 bytes   469,670 bytes   00:24:39.244
9               0:25:32.964     0:03:46.492     24,988 kbps     29,439 kbps     00:25:39.738    27,542 kbps     00:25:39.738    27,275 kbps     00:25:41.072    104,220 bytes   472,099 bytes   00:25:57.489
10              0:29:19.457     0:03:28.441     24,131 kbps     29,208 kbps     00:32:38.790    27,007 kbps     00:31:16.541    26,632 kbps     00:31:16.207    100,645 bytes   406,608 bytes   00:31:30.154
11              0:32:47.899     0:01:06.666     24,717 kbps     29,010 kbps     00:33:01.145    27,030 kbps     00:33:39.183    26,596 kbps     00:33:35.480    103,092 bytes   399,198 bytes   00:33:42.487
12              0:33:54.565     0:02:29.149     24,776 kbps     29,200 kbps     00:35:08.973    26,728 kbps     00:35:13.211    26,584 kbps     00:35:08.973    103,336 bytes   475,890 bytes   00:35:14.645
13              0:36:23.714     0:03:41.254     24,596 kbps     28,830 kbps     00:37:37.188    26,788 kbps     00:39:04.075    26,419 kbps     00:37:36.854    102,585 bytes   454,366 bytes   00:36:36.761
14              0:40:04.969     0:04:02.742     23,588 kbps     29,544 kbps     00:40:43.307    26,435 kbps     00:43:24.568    26,170 kbps     00:40:43.407    98,383 bytes    414,440 bytes   00:40:44.308
15              0:44:07.711     0:02:43.229     24,653 kbps     30,225 kbps     00:46:48.305    27,942 kbps     00:46:44.301    27,774 kbps     00:46:40.564    102,823 bytes   470,009 bytes   00:46:49.273
16              0:46:50.941     0:01:59.252     26,559 kbps     30,171 kbps     00:47:01.318    28,323 kbps     00:48:11.521    27,888 kbps     00:46:53.577    110,772 bytes   476,150 bytes   00:46:57.948
17              0:48:50.193     0:02:08.161     26,819 kbps     30,003 kbps     00:49:11.481    28,235 kbps     00:49:45.983    27,987 kbps     00:49:10.280    111,860 bytes   448,612 bytes   00:50:07.904
18              0:50:58.355     0:05:09.008     26,794 kbps     30,751 kbps     00:55:42.105    28,448 kbps     00:55:38.501    28,159 kbps     00:55:31.561    111,753 bytes   494,739 bytes   00:55:41.571
19              0:56:07.364     0:01:58.284     24,217 kbps     29,412 kbps     00:56:12.035    27,077 kbps     00:56:12.569    26,495 kbps     00:56:11.935    101,006 bytes   404,669 bytes   00:56:12.168
20              0:58:05.648     0:04:29.736     23,505 kbps     29,146 kbps     01:02:33.950    27,165 kbps     01:02:30.046    26,719 kbps     01:02:25.374    98,035 bytes    397,584 bytes   01:02:34.951
21              1:02:35.384     0:00:59.726     25,891 kbps     29,657 kbps     01:02:44.827    27,585 kbps     01:02:40.957    27,373 kbps     01:02:37.086    107,988 bytes   445,096 bytes   01:03:14.290
22              1:03:35.111     0:05:51.117     25,126 kbps     30,168 kbps     01:08:36.846    28,241 kbps     01:08:34.210    27,965 kbps     01:08:37.379    104,796 bytes   512,993 bytes   01:08:32.508
23              1:09:26.228     0:02:02.689     24,294 kbps     28,802 kbps     01:10:33.329    26,256 kbps     01:09:27.129    26,017 kbps     01:10:32.461    101,326 bytes   445,073 bytes   01:11:10.199
24              1:11:28.917     0:06:14.640     24,222 kbps     29,623 kbps     01:17:39.221    27,519 kbps     01:16:44.566    27,212 kbps     01:16:44.666    101,027 bytes   461,605 bytes   01:17:08.991
25              1:17:43.558     0:01:16.843     26,036 kbps     30,237 kbps     01:18:38.280    28,102 kbps     01:18:35.644    27,846 kbps     01:17:47.829    108,592 bytes   469,724 bytes   01:18:34.910
26              1:19:00.402     0:04:35.675     24,361 kbps     29,852 kbps     01:21:30.785    26,734 kbps     01:22:04.653    26,557 kbps     01:22:00.782    101,607 bytes   398,318 bytes   01:21:53.441
27              1:23:36.077     0:01:48.041     24,581 kbps     29,170 kbps     01:24:28.696    27,129 kbps     01:24:24.793    26,757 kbps     01:24:23.958    102,525 bytes   411,389 bytes   01:24:29.631
28              1:25:24.119     0:00:24.858     26,014 kbps     29,456 kbps     01:25:26.888    27,240 kbps     01:25:26.421    26,444 kbps     01:25:35.130    108,499 bytes   452,569 bytes   01:25:29.524
29              1:25:48.977     0:03:27.407     24,610 kbps     30,377 kbps     01:26:24.345    27,815 kbps     01:26:33.321    27,723 kbps     01:26:29.617    102,646 bytes   508,880 bytes   01:28:25.800
30              1:29:16.384     0:00:30.330     26,144 kbps     29,006 kbps     01:29:37.638    27,225 kbps     01:29:21.189    26,636 kbps     01:29:16.517    109,041 bytes   433,677 bytes   01:29:44.278
31              1:29:46.714     0:04:04.043     24,813 kbps     30,055 kbps     01:32:59.373    27,548 kbps     01:32:58.739    27,379 kbps     01:32:50.698    103,490 bytes   516,221 bytes   01:32:59.407
32              1:33:50.758     0:01:52.879     26,099 kbps     31,890 kbps     01:35:36.464    28,137 kbps     01:34:41.375    27,661 kbps     01:35:33.094    108,856 bytes   483,886 bytes   01:35:29.890
33              1:35:43.637     0:01:40.099     24,705 kbps     29,260 kbps     01:35:49.143    26,849 kbps     01:35:47.742    26,449 kbps     01:35:44.004    103,040 bytes   459,421 bytes   01:36:31.919
34              1:37:23.737     0:01:41.000     26,547 kbps     29,855 kbps     01:38:31.906    28,151 kbps     01:38:30.871    28,046 kbps     01:38:32.339    110,723 bytes   462,072 bytes   01:38:21.962
35              1:39:04.738     0:05:10.376     24,055 kbps     30,648 kbps     01:39:06.674    28,229 kbps     01:39:11.812    28,103 kbps     01:39:06.340    100,330 bytes   477,838 bytes   01:39:13.747
36              1:44:15.115     0:03:48.962     24,809 kbps     29,927 kbps     01:47:29.943    27,890 kbps     01:47:28.942    27,675 kbps     01:47:30.010    103,473 bytes   443,566 bytes   01:47:38.285
37              1:48:04.077     0:02:32.118     24,698 kbps     29,168 kbps     01:48:39.179    27,016 kbps     01:48:38.178    26,820 kbps     01:48:35.342    103,010 bytes   435,758 bytes   01:48:41.882
38              1:50:36.196     0:01:17.076     25,073 kbps     29,148 kbps     01:51:27.747    26,818 kbps     01:51:25.712    26,414 kbps     01:51:24.411    104,577 bytes   392,214 bytes   01:50:42.068
39              1:51:53.273     0:05:01.301     24,757 kbps     30,099 kbps     01:55:41.567    27,677 kbps     01:55:37.497    27,010 kbps     01:55:37.964    103,258 bytes   435,062 bytes   01:55:39.866
40              1:56:54.574     0:00:34.167     25,208 kbps     28,585 kbps     01:57:13.793    26,708 kbps     01:57:14.627    26,247 kbps     01:57:13.793    105,139 bytes   374,638 bytes   01:57:07.954
41              1:57:28.741     0:02:45.331     24,507 kbps     29,098 kbps     01:59:17.049    27,155 kbps     01:59:13.412    26,698 kbps     01:59:07.940    102,215 bytes   434,734 bytes   01:58:54.961
42              2:00:14.073     0:07:25.011     25,674 kbps     29,902 kbps     02:02:14.260    27,455 kbps     02:04:51.684    27,201 kbps     02:05:06.899    107,084 bytes   485,400 bytes   02:02:42.121
43              2:07:39.084     0:04:08.414     24,036 kbps     29,662 kbps     02:07:44.923    27,465 kbps     02:07:44.790    27,127 kbps     02:07:44.690    100,250 bytes   460,173 bytes   02:10:22.915
44              2:11:47.499     0:02:15.635     25,066 kbps     29,910 kbps     02:13:15.187    27,984 kbps     02:13:11.616    27,884 kbps     02:13:11.817    104,548 bytes   463,443 bytes   02:13:16.188
45              2:14:03.135     0:01:19.045     22,557 kbps     28,450 kbps     02:15:21.046    25,994 kbps     02:15:17.042    24,869 kbps     02:15:12.170    94,082 bytes    422,111 bytes   02:15:21.513
46              2:15:22.180     0:03:21.701     24,131 kbps     29,998 kbps     02:18:38.543    26,631 kbps     02:18:36.708    26,310 kbps     02:15:22.781    100,648 bytes   421,968 bytes   02:18:36.841
47              2:18:43.882     0:00:57.791     25,156 kbps     28,562 kbps     02:19:13.144    26,858 kbps     02:19:13.111    26,366 kbps     02:19:13.144    104,920 bytes   383,033 bytes   02:19:25.757
48              2:19:41.673     0:06:55.615     23,648 kbps     29,502 kbps     02:25:41.099    26,780 kbps     02:20:29.254    26,004 kbps     02:20:29.521    98,633 bytes    446,872 bytes   02:19:54.953
49              2:26:37.288     0:02:33.753     25,443 kbps     30,055 kbps     02:29:01.299    28,060 kbps     02:28:25.930    27,490 kbps     02:28:04.876    106,119 bytes   436,234 bytes   02:29:02.266
50              2:29:11.042     0:02:48.968     24,000 kbps     29,305 kbps     02:30:40.531    27,294 kbps     02:30:40.531    26,746 kbps     02:30:40.598    100,101 bytes   422,062 bytes   02:30:41.065
51              2:32:00.010     0:03:24.938     26,180 kbps     30,785 kbps     02:33:30.501    28,073 kbps     02:34:35.199    27,736 kbps     02:34:20.050    109,193 bytes   474,301 bytes   02:35:22.680
52              2:35:24.948     0:03:50.663     27,043 kbps     30,757 kbps     02:38:50.053    28,134 kbps     02:39:10.474    27,876 kbps     02:37:04.615    112,791 bytes   510,180 bytes   02:37:18.962
53              2:39:15.612     0:01:19.212     26,738 kbps     31,238 kbps     02:39:56.753    28,423 kbps     02:39:56.753    27,781 kbps     02:39:54.885    111,520 bytes   508,372 bytes   02:40:21.478
54              2:40:34.825     0:10:37.370     25,924 kbps     31,217 kbps     02:51:04.754    28,251 kbps     02:51:03.353    28,107 kbps     02:47:12.856    108,124 bytes   528,565 bytes   02:50:49.505
55              2:51:12.195     0:02:57.010     25,593 kbps     31,300 kbps     02:52:18.528    28,546 kbps     02:51:58.174    28,182 kbps     02:51:58.174    106,762 bytes   524,455 bytes   02:51:26.643
STREAM DIAGNOSTICS:
File            PID             Type            Codec           Language                Seconds                 Bitrate                 Bytes           Packets
----            ---             ----            -----           --------                --------------          --------------          -------------   -----
00003.M2TS      4113 (0x1011)   0x02            MPEG-2                                  10449.105               24,978                  32,624,679,156  177,490,889
00003.M2TS      4352 (0x1100)   0x80            LPCM            ita (Italian)           10449.105               2,308                   3,014,293,516   16,699,709
00003.M2TS      4353 (0x1101)   0x86            DTS-HD MA       ita (Italian)           10449.105               3,994                   5,216,112,039   29,974,568
00003.M2TS      4608 (0x1200)   0x90            PGS             ita (Italian)           10449.105               11                      13,880,300      80,390
00003.M2TS      4609 (0x1201)   0x90            PGS             eng (English)           10449.105               12                      15,445,210      88,904
00003.M2TS      4610 (0x1202)   0x90            PGS             deu (German)            10449.105               13                      17,271,540      98,826
00003.M2TS      4611 (0x1203)   0x90            PGS             fra (French)            10449.105               13                      16,406,308      94,123
00003.M2TS      4612 (0x1204)   0x90            PGS             spa (Spanish)           10449.105               12                      15,769,719      90,655

Код:
<---- END FORUMS PASTE ---->
QUICK SUMMARY:
Disc Label: MOZART_IDOMENEO
Disc Size: 45,983,869,287 bytes
Protection: AACS
Playlist: 01003.MPLS
Size: 43,215,857,664 bytes
Length: 2:54:09.205
Total Bitrate: 33.09 Mbps
Video: MPEG-2 Video / 24978 kbps / 1080i / 29.970 fps / 16:9
Audio: Italian / LPCM Audio / 2.0 / 48 kHz /  2304 kbps / 24-bit
Audio: Italian / DTS-HD Master Audio / 5.1 / 48 kHz /  3993 kbps / 24-bit (DTS Core: 5.1 / 48 kHz /  1509 kbps / 24-bit)
Subtitle: Italian / 10.627 kbps
Subtitle: English / 11.825 kbps
Subtitle: German / 13.223 kbps
Subtitle: French / 12.561 kbps
Subtitle: Spanish / 12.073 kbps
********************
PLAYLIST: 00004.MPLS
********************
<--- BEGIN FORUMS PASTE --->
Код:
Код:
                                                                                Total   Video
Title                                                           Codec   Length  Movie Size      Disc Size       Bitrate Bitrate Main Audio Track                          Secondary Audio Track
-----                                                           ------  ------- --------------  --------------  ------- ------- ------------------                        ---------------------
00004.MPLS                                                      MPEG-2  0:03:41 766,973,952     45,983,869,287  27.68   24.67   LPCM 2.0 1536Kbps (48kHz/16-bit)

Код:
Код:
DISC INFO:
Disc Label:     MOZART_IDOMENEO
Disc Size:      45,983,869,287 bytes
Protection:     AACS
Extras:         BD-Java
BDInfo:         0.7.5.5
PLAYLIST REPORT:
Name:                   00004.MPLS
Length:                 0:03:41.688 (h:m:s.ms)
Size:                   766,973,952 bytes
Total Bitrate:          27.68 Mbps
VIDEO:
Codec                   Bitrate             Description
-----                   -------             -----------
MPEG-2 Video            24667 kbps          1080i / 29.970 fps / 16:9
AUDIO:
Codec                           Language        Bitrate         Description
-----                           --------        -------         -----------
LPCM Audio                      Undetermined    1536 kbps       2.0 / 48 kHz /  1536 kbps / 16-bit
FILES:
Name            Time In         Length          Size            Total Bitrate
----            -------         ------          ----            -------------
00004.M2TS      0:00:00.000     0:03:41.688     766,973,952     27,678
CHAPTERS:
Number          Time In         Length          Avg Video Rate  Max 1-Sec Rate  Max 1-Sec Time  Max 5-Sec Rate  Max 5-Sec Time  Max 10Sec Rate  Max 10Sec Time  Avg Frame Size  Max Frame Size  Max Frame Time
------          -------         ------          --------------  --------------  --------------  --------------  --------------  --------------  --------------  --------------  --------------  --------------
1               0:00:00.000     0:03:41.688     24,667 kbps     32,735 kbps     00:03:05.418    30,196 kbps     00:00:06.706    29,840 kbps     00:00:06.706    102,881 bytes   516,471 bytes   00:00:14.114
STREAM DIAGNOSTICS:
File            PID             Type            Codec           Language                Seconds                 Bitrate                 Bytes           Packets
----            ---             ----            -----           --------                --------------          --------------          -------------   -----
00004.M2TS      4113 (0x1011)   0x02            MPEG-2                                  221.621                 24,674                  683,543,331     3,718,751
00004.M2TS      4352 (0x1100)   0x80            LPCM            und (Undetermined)      221.621                 1,543                   42,741,468      266,026

Код:
<---- END FORUMS PASTE ---->
QUICK SUMMARY:
Disc Label: MOZART_IDOMENEO
Disc Size: 45,983,869,287 bytes
Protection: AACS
Playlist: 00004.MPLS
Size: 766,973,952 bytes
Length: 0:03:41.688
Total Bitrate: 27.68 Mbps
Video: MPEG-2 Video / 24667 kbps / 1080i / 29.970 fps / 16:9
Audio: Undetermined / LPCM Audio / 2.0 / 48 kHz /  1536 kbps / 16-bit
********************
PLAYLIST: 01004.MPLS
********************
<--- BEGIN FORUMS PASTE --->
Код:
Код:
                                                                                Total   Video
Title                                                           Codec   Length  Movie Size      Disc Size       Bitrate Bitrate Main Audio Track                          Secondary Audio Track
-----                                                           ------  ------- --------------  --------------  ------- ------- ------------------                        ---------------------
01004.MPLS                                                      MPEG-2  0:03:41 766,973,952     45,983,869,287  27.68   24.67   LPCM 2.0 1536Kbps (48kHz/16-bit)

Код:
Код:
DISC INFO:
Disc Label:     MOZART_IDOMENEO
Disc Size:      45,983,869,287 bytes
Protection:     AACS
Extras:         BD-Java
BDInfo:         0.7.5.5
PLAYLIST REPORT:
Name:                   01004.MPLS
Length:                 0:03:41.688 (h:m:s.ms)
Size:                   766,973,952 bytes
Total Bitrate:          27.68 Mbps
VIDEO:
Codec                   Bitrate             Description
-----                   -------             -----------
MPEG-2 Video            24667 kbps          1080i / 29.970 fps / 16:9
AUDIO:
Codec                           Language        Bitrate         Description
-----                           --------        -------         -----------
LPCM Audio                      Undetermined    1536 kbps       2.0 / 48 kHz /  1536 kbps / 16-bit
FILES:
Name            Time In         Length          Size            Total Bitrate
----            -------         ------          ----            -------------
00004.M2TS      0:00:00.000     0:03:41.688     766,973,952     27,678
CHAPTERS:
Number          Time In         Length          Avg Video Rate  Max 1-Sec Rate  Max 1-Sec Time  Max 5-Sec Rate  Max 5-Sec Time  Max 10Sec Rate  Max 10Sec Time  Avg Frame Size  Max Frame Size  Max Frame Time
------          -------         ------          --------------  --------------  --------------  --------------  --------------  --------------  --------------  --------------  --------------  --------------
1               0:00:00.000     0:03:41.688     24,667 kbps     32,735 kbps     00:03:05.418    30,196 kbps     00:00:06.706    29,840 kbps     00:00:06.706    102,881 bytes   516,471 bytes   00:00:14.114
STREAM DIAGNOSTICS:
File            PID             Type            Codec           Language                Seconds                 Bitrate                 Bytes           Packets
----            ---             ----            -----           --------                --------------          --------------          -------------   -----
00004.M2TS      4113 (0x1011)   0x02            MPEG-2                                  221.621                 24,674                  683,543,331     3,718,751
00004.M2TS      4352 (0x1100)   0x80            LPCM            und (Undetermined)      221.621                 1,543                   42,741,468      266,026

Код:
<---- END FORUMS PASTE ---->
QUICK SUMMARY:
Disc Label: MOZART_IDOMENEO
Disc Size: 45,983,869,287 bytes
Protection: AACS
Playlist: 01004.MPLS
Size: 766,973,952 bytes
Length: 0:03:41.688
Total Bitrate: 27.68 Mbps
Video: MPEG-2 Video / 24667 kbps / 1080i / 29.970 fps / 16:9
Audio: Undetermined / LPCM Audio / 2.0 / 48 kHz /  1536 kbps / 16-bit
********************
PLAYLIST: 00005.MPLS
********************
<--- BEGIN FORUMS PASTE --->
Код:
Код:
                                                                                Total   Video
Title                                                           Codec   Length  Movie Size      Disc Size       Bitrate Bitrate Main Audio Track                          Secondary Audio Track
-----                                                           ------  ------- --------------  --------------  ------- ------- ------------------                        ---------------------
00005.MPLS                                                      AVC     0:03:20 429,373,440     45,983,869,287  17.16   14.00   LPCM 2.0 2304Kbps (48kHz/24-bit)

Код:
Код:
DISC INFO:
Disc Label:     MOZART_IDOMENEO
Disc Size:      45,983,869,287 bytes
Protection:     AACS
Extras:         BD-Java
BDInfo:         0.7.5.5
PLAYLIST REPORT:
Name:                   00005.MPLS
Length:                 0:03:20.200 (h:m:s.ms)
Size:                   429,373,440 bytes
Total Bitrate:          17.16 Mbps
VIDEO:
Codec                   Bitrate             Description
-----                   -------             -----------
MPEG-4 AVC Video        13996 kbps          1080i / 29.970 fps / 16:9 / High Profile 4.1
AUDIO:
Codec                           Language        Bitrate         Description
-----                           --------        -------         -----------
LPCM Audio                      Undetermined    2304 kbps       2.0 / 48 kHz /  2304 kbps / 24-bit
FILES:
Name            Time In         Length          Size            Total Bitrate
----            -------         ------          ----            -------------
00005.M2TS      0:00:00.000     0:03:20.200     429,373,440     17,158
CHAPTERS:
Number          Time In         Length          Avg Video Rate  Max 1-Sec Rate  Max 1-Sec Time  Max 5-Sec Rate  Max 5-Sec Time  Max 10Sec Rate  Max 10Sec Time  Avg Frame Size  Max Frame Size  Max Frame Time
------          -------         ------          --------------  --------------  --------------  --------------  --------------  --------------  --------------  --------------  --------------  --------------
1               0:00:00.000     0:03:20.200     13,996 kbps     33,415 kbps     00:01:51.778    23,797 kbps     00:00:35.201    22,660 kbps     00:00:43.276    58,376 bytes    576,570 bytes   00:00:10.410
STREAM DIAGNOSTICS:
File            PID             Type            Codec           Language                Seconds                 Bitrate                 Bytes           Packets
----            ---             ----            -----           --------                --------------          --------------          -------------   -----
00005.M2TS      4113 (0x1011)   0x1B            AVC                                     200.100                 14,003                  350,258,624     1,907,095
00005.M2TS      4352 (0x1100)   0x80            LPCM            und (Undetermined)      200.100                 2,312                   57,817,760      320,320

Код:
<---- END FORUMS PASTE ---->
QUICK SUMMARY:
Disc Label: MOZART_IDOMENEO
Disc Size: 45,983,869,287 bytes
Protection: AACS
Playlist: 00005.MPLS
Size: 429,373,440 bytes
Length: 0:03:20.200
Total Bitrate: 17.16 Mbps
Video: MPEG-4 AVC Video / 13996 kbps / 1080i / 29.970 fps / 16:9 / High Profile 4.1
Audio: Undetermined / LPCM Audio / 2.0 / 48 kHz /  2304 kbps / 24-bit
********************
PLAYLIST: 01005.MPLS
********************
<--- BEGIN FORUMS PASTE --->
Код:
Код:
                                                                                Total   Video
Title                                                           Codec   Length  Movie Size      Disc Size       Bitrate Bitrate Main Audio Track                          Secondary Audio Track
-----                                                           ------  ------- --------------  --------------  ------- ------- ------------------                        ---------------------
01005.MPLS                                                      AVC     0:03:20 429,373,440     45,983,869,287  17.16   14.00   LPCM 2.0 2304Kbps (48kHz/24-bit)

Код:
Код:
DISC INFO:
Disc Label:     MOZART_IDOMENEO
Disc Size:      45,983,869,287 bytes
Protection:     AACS
Extras:         BD-Java
BDInfo:         0.7.5.5
PLAYLIST REPORT:
Name:                   01005.MPLS
Length:                 0:03:20.200 (h:m:s.ms)
Size:                   429,373,440 bytes
Total Bitrate:          17.16 Mbps
VIDEO:
Codec                   Bitrate             Description
-----                   -------             -----------
MPEG-4 AVC Video        13996 kbps          1080i / 29.970 fps / 16:9 / High Profile 4.1
AUDIO:
Codec                           Language        Bitrate         Description
-----                           --------        -------         -----------
LPCM Audio                      Undetermined    2304 kbps       2.0 / 48 kHz /  2304 kbps / 24-bit
FILES:
Name            Time In         Length          Size            Total Bitrate
----            -------         ------          ----            -------------
00005.M2TS      0:00:00.000     0:03:20.200     429,373,440     17,158
CHAPTERS:
Number          Time In         Length          Avg Video Rate  Max 1-Sec Rate  Max 1-Sec Time  Max 5-Sec Rate  Max 5-Sec Time  Max 10Sec Rate  Max 10Sec Time  Avg Frame Size  Max Frame Size  Max Frame Time
------          -------         ------          --------------  --------------  --------------  --------------  --------------  --------------  --------------  --------------  --------------  --------------
1               0:00:00.000     0:03:20.200     13,996 kbps     33,415 kbps     00:01:51.778    23,797 kbps     00:00:35.201    22,660 kbps     00:00:43.276    58,376 bytes    576,570 bytes   00:00:10.410
STREAM DIAGNOSTICS:
File            PID             Type            Codec           Language                Seconds                 Bitrate                 Bytes           Packets
----            ---             ----            -----           --------                --------------          --------------          -------------   -----
00005.M2TS      4113 (0x1011)   0x1B            AVC                                     200.100                 14,003                  350,258,624     1,907,095
00005.M2TS      4352 (0x1100)   0x80            LPCM            und (Undetermined)      200.100                 2,312                   57,817,760      320,320

Код:
<---- END FORUMS PASTE ---->
QUICK SUMMARY:
Disc Label: MOZART_IDOMENEO
Disc Size: 45,983,869,287 bytes
Protection: AACS
Playlist: 01005.MPLS
Size: 429,373,440 bytes
Length: 0:03:20.200
Total Bitrate: 17.16 Mbps
Video: MPEG-4 AVC Video / 13996 kbps / 1080i / 29.970 fps / 16:9 / High Profile 4.1
Audio: Undetermined / LPCM Audio / 2.0 / 48 kHz /  2304 kbps / 24-bit
********************
PLAYLIST: 00006.MPLS
********************
<--- BEGIN FORUMS PASTE --->
Код:
Код:
                                                                                Total   Video
Title                                                           Codec   Length  Movie Size      Disc Size       Bitrate Bitrate Main Audio Track                          Secondary Audio Track
-----                                                           ------  ------- --------------  --------------  ------- ------- ------------------                        ---------------------
00006.MPLS                                                      MPEG-2  0:03:18 664,793,088     45,983,869,287  26.82   23.84   LPCM 2.0 1536Kbps (48kHz/16-bit)

Код:
Код:
DISC INFO:
Disc Label:     MOZART_IDOMENEO
Disc Size:      45,983,869,287 bytes
Protection:     AACS
Extras:         BD-Java
BDInfo:         0.7.5.5
PLAYLIST REPORT:
Name:                   00006.MPLS
Length:                 0:03:18.331 (h:m:s.ms)
Size:                   664,793,088 bytes
Total Bitrate:          26.82 Mbps
VIDEO:
Codec                   Bitrate             Description
-----                   -------             -----------
MPEG-2 Video            23840 kbps          1080i / 29.970 fps / 16:9
AUDIO:
Codec                           Language        Bitrate         Description
-----                           --------        -------         -----------
LPCM Audio                      Undetermined    1536 kbps       2.0 / 48 kHz /  1536 kbps / 16-bit
FILES:
Name            Time In         Length          Size            Total Bitrate
----            -------         ------          ----            -------------
00006.M2TS      0:00:00.000     0:03:18.331     664,793,088     26,815
CHAPTERS:
Number          Time In         Length          Avg Video Rate  Max 1-Sec Rate  Max 1-Sec Time  Max 5-Sec Rate  Max 5-Sec Time  Max 10Sec Rate  Max 10Sec Time  Avg Frame Size  Max Frame Size  Max Frame Time
------          -------         ------          --------------  --------------  --------------  --------------  --------------  --------------  --------------  --------------  --------------  --------------
1               0:00:00.000     0:03:18.331     23,840 kbps     30,302 kbps     00:02:01.554    27,900 kbps     00:02:12.031    27,659 kbps     00:02:12.966    99,433 bytes    437,488 bytes   00:02:19.806
STREAM DIAGNOSTICS:
File            PID             Type            Codec           Language                Seconds                 Bitrate                 Bytes           Packets
----            ---             ----            -----           --------                --------------          --------------          -------------   -----
00006.M2TS      4113 (0x1011)   0x02            MPEG-2                                  198.231                 23,852                  591,030,411     3,215,614
00006.M2TS      4352 (0x1100)   0x80            LPCM            und (Undetermined)      198.231                 1,543                   38,243,808      238,032

Код:
<---- END FORUMS PASTE ---->
QUICK SUMMARY:
Disc Label: MOZART_IDOMENEO
Disc Size: 45,983,869,287 bytes
Protection: AACS
Playlist: 00006.MPLS
Size: 664,793,088 bytes
Length: 0:03:18.331
Total Bitrate: 26.82 Mbps
Video: MPEG-2 Video / 23840 kbps / 1080i / 29.970 fps / 16:9
Audio: Undetermined / LPCM Audio / 2.0 / 48 kHz /  1536 kbps / 16-bit
********************
PLAYLIST: 01006.MPLS
********************
<--- BEGIN FORUMS PASTE --->
Код:
Код:
                                                                                Total   Video
Title                                                           Codec   Length  Movie Size      Disc Size       Bitrate Bitrate Main Audio Track                          Secondary Audio Track
-----                                                           ------  ------- --------------  --------------  ------- ------- ------------------                        ---------------------
01006.MPLS                                                      MPEG-2  0:03:18 664,793,088     45,983,869,287  26.82   23.84   LPCM 2.0 1536Kbps (48kHz/16-bit)

Код:
Код:
DISC INFO:
Disc Label:     MOZART_IDOMENEO
Disc Size:      45,983,869,287 bytes
Protection:     AACS
Extras:         BD-Java
BDInfo:         0.7.5.5
PLAYLIST REPORT:
Name:                   01006.MPLS
Length:                 0:03:18.331 (h:m:s.ms)
Size:                   664,793,088 bytes
Total Bitrate:          26.82 Mbps
VIDEO:
Codec                   Bitrate             Description
-----                   -------             -----------
MPEG-2 Video            23840 kbps          1080i / 29.970 fps / 16:9
AUDIO:
Codec                           Language        Bitrate         Description
-----                           --------        -------         -----------
LPCM Audio                      Undetermined    1536 kbps       2.0 / 48 kHz /  1536 kbps / 16-bit
FILES:
Name            Time In         Length          Size            Total Bitrate
----            -------         ------          ----            -------------
00006.M2TS      0:00:00.000     0:03:18.331     664,793,088     26,815
CHAPTERS:
Number          Time In         Length          Avg Video Rate  Max 1-Sec Rate  Max 1-Sec Time  Max 5-Sec Rate  Max 5-Sec Time  Max 10Sec Rate  Max 10Sec Time  Avg Frame Size  Max Frame Size  Max Frame Time
------          -------         ------          --------------  --------------  --------------  --------------  --------------  --------------  --------------  --------------  --------------  --------------
1               0:00:00.000     0:03:18.331     23,840 kbps     30,302 kbps     00:02:01.554    27,900 kbps     00:02:12.031    27,659 kbps     00:02:12.966    99,433 bytes    437,488 bytes   00:02:19.806
STREAM DIAGNOSTICS:
File            PID             Type            Codec           Language                Seconds                 Bitrate                 Bytes           Packets
----            ---             ----            -----           --------                --------------          --------------          -------------   -----
00006.M2TS      4113 (0x1011)   0x02            MPEG-2                                  198.231                 23,852                  591,030,411     3,215,614
00006.M2TS      4352 (0x1100)   0x80            LPCM            und (Undetermined)      198.231                 1,543                   38,243,808      238,032

Код:
<---- END FORUMS PASTE ---->
QUICK SUMMARY:
Disc Label: MOZART_IDOMENEO
Disc Size: 45,983,869,287 bytes
Protection: AACS
Playlist: 01006.MPLS
Size: 664,793,088 bytes
Length: 0:03:18.331
Total Bitrate: 26.82 Mbps
Video: MPEG-2 Video / 23840 kbps / 1080i / 29.970 fps / 16:9
Audio: Undetermined / LPCM Audio / 2.0 / 48 kHz /  1536 kbps / 16-bit
********************
PLAYLIST: 00007.MPLS
********************
<--- BEGIN FORUMS PASTE --->
Код:
Код:
                                                                                Total   Video
Title                                                           Codec   Length  Movie Size      Disc Size       Bitrate Bitrate Main Audio Track                          Secondary Audio Track
-----                                                           ------  ------- --------------  --------------  ------- ------- ------------------                        ---------------------
00007.MPLS                                                      MPEG-2  0:02:30 537,446,400     45,983,869,287  28.51   25.46   LPCM 2.0 1536Kbps (48kHz/16-bit)

Код:
Код:
DISC INFO:
Disc Label:     MOZART_IDOMENEO
Disc Size:      45,983,869,287 bytes
Protection:     AACS
Extras:         BD-Java
BDInfo:         0.7.5.5
PLAYLIST REPORT:
Name:                   00007.MPLS
Length:                 0:02:30.817 (h:m:s.ms)
Size:                   537,446,400 bytes
Total Bitrate:          28.51 Mbps
VIDEO:
Codec                   Bitrate             Description
-----                   -------             -----------
MPEG-2 Video            25463 kbps          1080i / 29.970 fps / 16:9
AUDIO:
Codec                           Language        Bitrate         Description
-----                           --------        -------         -----------
LPCM Audio                      Undetermined    1536 kbps       2.0 / 48 kHz /  1536 kbps / 16-bit
FILES:
Name            Time In         Length          Size            Total Bitrate
----            -------         ------          ----            -------------
00007.M2TS      0:00:00.000     0:02:30.817     537,446,400     28,508
CHAPTERS:
Number          Time In         Length          Avg Video Rate  Max 1-Sec Rate  Max 1-Sec Time  Max 5-Sec Rate  Max 5-Sec Time  Max 10Sec Rate  Max 10Sec Time  Avg Frame Size  Max Frame Size  Max Frame Time
------          -------         ------          --------------  --------------  --------------  --------------  --------------  --------------  --------------  --------------  --------------  --------------
1               0:00:00.000     0:02:30.817     25,463 kbps     34,618 kbps     00:01:10.170    32,150 kbps     00:01:32.192    31,705 kbps     00:01:32.325    106,202 bytes   483,799 bytes   00:01:34.594
STREAM DIAGNOSTICS:
File            PID             Type            Codec           Language                Seconds                 Bitrate                 Bytes           Packets
----            ---             ----            -----           --------                --------------          --------------          -------------   -----
00007.M2TS      4113 (0x1011)   0x02            MPEG-2                                  150.751                 25,474                  480,032,400     2,611,491
00007.M2TS      4352 (0x1100)   0x80            LPCM            und (Undetermined)      150.751                 1,543                   29,077,580      180,981

Код:
<---- END FORUMS PASTE ---->
QUICK SUMMARY:
Disc Label: MOZART_IDOMENEO
Disc Size: 45,983,869,287 bytes
Protection: AACS
Playlist: 00007.MPLS
Size: 537,446,400 bytes
Length: 0:02:30.817
Total Bitrate: 28.51 Mbps
Video: MPEG-2 Video / 25463 kbps / 1080i / 29.970 fps / 16:9
Audio: Undetermined / LPCM Audio / 2.0 / 48 kHz /  1536 kbps / 16-bit
********************
PLAYLIST: 01007.MPLS
********************
<--- BEGIN FORUMS PASTE --->
Код:
Код:
                                                                                Total   Video
Title                                                           Codec   Length  Movie Size      Disc Size       Bitrate Bitrate Main Audio Track                          Secondary Audio Track
-----                                                           ------  ------- --------------  --------------  ------- ------- ------------------                        ---------------------
01007.MPLS                                                      MPEG-2  0:02:30 537,446,400     45,983,869,287  28.51   25.46   LPCM 2.0 1536Kbps (48kHz/16-bit)

Код:
Код:
DISC INFO:
Disc Label:     MOZART_IDOMENEO
Disc Size:      45,983,869,287 bytes
Protection:     AACS
Extras:         BD-Java
BDInfo:         0.7.5.5
PLAYLIST REPORT:
Name:                   01007.MPLS
Length:                 0:02:30.817 (h:m:s.ms)
Size:                   537,446,400 bytes
Total Bitrate:          28.51 Mbps
VIDEO:
Codec                   Bitrate             Description
-----                   -------             -----------
MPEG-2 Video            25463 kbps          1080i / 29.970 fps / 16:9
AUDIO:
Codec                           Language        Bitrate         Description
-----                           --------        -------         -----------
LPCM Audio                      Undetermined    1536 kbps       2.0 / 48 kHz /  1536 kbps / 16-bit
FILES:
Name            Time In         Length          Size            Total Bitrate
----            -------         ------          ----            -------------
00007.M2TS      0:00:00.000     0:02:30.817     537,446,400     28,508
CHAPTERS:
Number          Time In         Length          Avg Video Rate  Max 1-Sec Rate  Max 1-Sec Time  Max 5-Sec Rate  Max 5-Sec Time  Max 10Sec Rate  Max 10Sec Time  Avg Frame Size  Max Frame Size  Max Frame Time
------          -------         ------          --------------  --------------  --------------  --------------  --------------  --------------  --------------  --------------  --------------  --------------
1               0:00:00.000     0:02:30.817     25,463 kbps     34,618 kbps     00:01:10.170    32,150 kbps     00:01:32.192    31,705 kbps     00:01:32.325    106,202 bytes   483,799 bytes   00:01:34.594
STREAM DIAGNOSTICS:
File            PID             Type            Codec           Language                Seconds                 Bitrate                 Bytes           Packets
----            ---             ----            -----           --------                --------------          --------------          -------------   -----
00007.M2TS      4113 (0x1011)   0x02            MPEG-2                                  150.751                 25,474                  480,032,400     2,611,491
00007.M2TS      4352 (0x1100)   0x80            LPCM            und (Undetermined)      150.751                 1,543                   29,077,580      180,981

Код:
<---- END FORUMS PASTE ---->
QUICK SUMMARY:
Disc Label: MOZART_IDOMENEO
Disc Size: 45,983,869,287 bytes
Protection: AACS
Playlist: 01007.MPLS
Size: 537,446,400 bytes
Length: 0:02:30.817
Total Bitrate: 28.51 Mbps
Video: MPEG-2 Video / 25463 kbps / 1080i / 29.970 fps / 16:9
Audio: Undetermined / LPCM Audio / 2.0 / 48 kHz /  1536 kbps / 16-bit
********************
PLAYLIST: 00002.MPLS
********************
<--- BEGIN FORUMS PASTE --->
Код:
Код:
                                                                                Total   Video
Title                                                           Codec   Length  Movie Size      Disc Size       Bitrate Bitrate Main Audio Track                          Secondary Audio Track
-----                                                           ------  ------- --------------  --------------  ------- ------- ------------------                        ---------------------
00002.MPLS                                                      MPEG-2  0:01:23 321,460,224     45,983,869,287  30.93   26.02   LPCM 2.0 1536Kbps (48kHz/16-bit)          LPCM 2.0 1536Kbps (48kHz/16-bit)

Код:
Код:
DISC INFO:
Disc Label:     MOZART_IDOMENEO
Disc Size:      45,983,869,287 bytes
Protection:     AACS
Extras:         BD-Java
BDInfo:         0.7.5.5
PLAYLIST REPORT:
Name:                   00002.MPLS
Length:                 0:01:23.149 (h:m:s.ms)
Size:                   321,460,224 bytes
Total Bitrate:          30.93 Mbps
VIDEO:
Codec                   Bitrate             Description
-----                   -------             -----------
MPEG-2 Video            26016 kbps          1080i / 29.970 fps / 16:9
AUDIO:
Codec                           Language        Bitrate         Description
-----                           --------        -------         -----------
LPCM Audio                      Undetermined    1536 kbps       2.0 / 48 kHz /  1536 kbps / 16-bit
LPCM Audio                      Undetermined    1536 kbps       2.0 / 48 kHz /  1536 kbps / 16-bit
FILES:
Name            Time In         Length          Size            Total Bitrate
----            -------         ------          ----            -------------
00002.M2TS      0:00:00.000     0:01:23.149     321,460,224     30,928
CHAPTERS:
Number          Time In         Length          Avg Video Rate  Max 1-Sec Rate  Max 1-Sec Time  Max 5-Sec Rate  Max 5-Sec Time  Max 10Sec Rate  Max 10Sec Time  Avg Frame Size  Max Frame Size  Max Frame Time
------          -------         ------          --------------  --------------  --------------  --------------  --------------  --------------  --------------  --------------  --------------  --------------
1               0:00:00.000     0:00:01.001     2,094 kbps      1,736 kbps      00:00:00.000    0 kbps          00:00:00.000    0 kbps          00:00:00.000    8,451 bytes     103,909 bytes   00:00:01.001
2               0:00:01.001     0:00:01.000     25,902 kbps     25,902 kbps     00:00:01.001    0 kbps          00:00:00.000    0 kbps          00:00:00.000    108,034 bytes   288,889 bytes   00:00:01.935
3               0:00:02.001     0:01:21.147     26,312 kbps     31,869 kbps     00:01:02.529    29,360 kbps     00:01:01.127    28,033 kbps     00:01:00.460    109,789 bytes   503,758 bytes   00:01:03.530
STREAM DIAGNOSTICS:
File            PID             Type            Codec           Language                Seconds                 Bitrate                 Bytes           Packets
----            ---             ----            -----           --------                --------------          --------------          -------------   -----
00002.M2TS      4113 (0x1011)   0x02            MPEG-2                                  83.050                  26,047                  270,400,462     1,471,011
00002.M2TS      4352 (0x1100)   0x80            LPCM            und (Undetermined)      83.050                  1,544                   16,031,264      99,780
00002.M2TS      4353 (0x1101)   0x80            LPCM            und (Undetermined)      83.050                  1,544                   16,031,264      99,780

Код:
<---- END FORUMS PASTE ---->
QUICK SUMMARY:
Disc Label: MOZART_IDOMENEO
Disc Size: 45,983,869,287 bytes
Protection: AACS
Playlist: 00002.MPLS
Size: 321,460,224 bytes
Length: 0:01:23.149
Total Bitrate: 30.93 Mbps
Video: MPEG-2 Video / 26016 kbps / 1080i / 29.970 fps / 16:9
Audio: Undetermined / LPCM Audio / 2.0 / 48 kHz /  1536 kbps / 16-bit
Audio: Undetermined / LPCM Audio / 2.0 / 48 kHz /  1536 kbps / 16-bit
********************
PLAYLIST: 01002.MPLS
********************
<--- BEGIN FORUMS PASTE --->
Код:
Код:
                                                                                Total   Video
Title                                                           Codec   Length  Movie Size      Disc Size       Bitrate Bitrate Main Audio Track                          Secondary Audio Track
-----                                                           ------  ------- --------------  --------------  ------- ------- ------------------                        ---------------------
01002.MPLS                                                      MPEG-2  0:01:23 321,460,224     45,983,869,287  30.93   26.02   LPCM 2.0 1536Kbps (48kHz/16-bit)          LPCM 2.0 1536Kbps (48kHz/16-bit)

Код:
Код:
DISC INFO:
Disc Label:     MOZART_IDOMENEO
Disc Size:      45,983,869,287 bytes
Protection:     AACS
Extras:         BD-Java
BDInfo:         0.7.5.5
PLAYLIST REPORT:
Name:                   01002.MPLS
Length:                 0:01:23.149 (h:m:s.ms)
Size:                   321,460,224 bytes
Total Bitrate:          30.93 Mbps
VIDEO:
Codec                   Bitrate             Description
-----                   -------             -----------
MPEG-2 Video            26016 kbps          1080i / 29.970 fps / 16:9
AUDIO:
Codec                           Language        Bitrate         Description
-----                           --------        -------         -----------
LPCM Audio                      Undetermined    1536 kbps       2.0 / 48 kHz /  1536 kbps / 16-bit
LPCM Audio                      Undetermined    1536 kbps       2.0 / 48 kHz /  1536 kbps / 16-bit
FILES:
Name            Time In         Length          Size            Total Bitrate
----            -------         ------          ----            -------------
00002.M2TS      0:00:00.000     0:01:23.149     321,460,224     30,928
CHAPTERS:
Number          Time In         Length          Avg Video Rate  Max 1-Sec Rate  Max 1-Sec Time  Max 5-Sec Rate  Max 5-Sec Time  Max 10Sec Rate  Max 10Sec Time  Avg Frame Size  Max Frame Size  Max Frame Time
------          -------         ------          --------------  --------------  --------------  --------------  --------------  --------------  --------------  --------------  --------------  --------------
1               0:00:00.000     0:00:01.001     2,094 kbps      1,736 kbps      00:00:00.000    0 kbps          00:00:00.000    0 kbps          00:00:00.000    8,451 bytes     103,909 bytes   00:00:01.001
2               0:00:01.001     0:00:01.000     25,902 kbps     25,902 kbps     00:00:01.001    0 kbps          00:00:00.000    0 kbps          00:00:00.000    108,034 bytes   288,889 bytes   00:00:01.935
3               0:00:02.001     0:01:21.147     26,312 kbps     31,869 kbps     00:01:02.529    29,360 kbps     00:01:01.127    28,033 kbps     00:01:00.460    109,789 bytes   503,758 bytes   00:01:03.530
STREAM DIAGNOSTICS:
File            PID             Type            Codec           Language                Seconds                 Bitrate                 Bytes           Packets
----            ---             ----            -----           --------                --------------          --------------          -------------   -----
00002.M2TS      4113 (0x1011)   0x02            MPEG-2                                  83.050                  26,047                  270,400,462     1,471,011
00002.M2TS      4352 (0x1100)   0x80            LPCM            und (Undetermined)      83.050                  1,544                   16,031,264      99,780
00002.M2TS      4353 (0x1101)   0x80            LPCM            und (Undetermined)      83.050                  1,544                   16,031,264      99,780

Код:
<---- END FORUMS PASTE ---->
QUICK SUMMARY:
Disc Label: MOZART_IDOMENEO
Disc Size: 45,983,869,287 bytes
Protection: AACS
Playlist: 01002.MPLS
Size: 321,460,224 bytes
Length: 0:01:23.149
Total Bitrate: 30.93 Mbps
Video: MPEG-2 Video / 26016 kbps / 1080i / 29.970 fps / 16:9
Audio: Undetermined / LPCM Audio / 2.0 / 48 kHz /  1536 kbps / 16-bit
Audio: Undetermined / LPCM Audio / 2.0 / 48 kHz /  1536 kbps / 16-bit

#777
Правила, инструкции, FAQ!!!
Торрент  Добавлен [05 июн 2020, 23:05] Скачать торрент Магнет ссылка
Скачать торрент
[ Размер 219.21 КБ / Просмотров 4 ]

Статус
Проверен 
 
Размер  42.83 ГБ
Приватный: Нет (DHT включён)
.torrent скачан  0
 


     Отправить личное сообщение
   
Страница 1 из 1
Показать сообщения за:  Поле сортировки  
Начать новую тему Ответить на тему


Сейчас этот форум просматривают: нет зарегистрированных пользователей и гости: 0


Вы не можете начинать темы
Вы не можете отвечать на сообщения
Вы не можете редактировать свои сообщения
Вы не можете удалять свои сообщения
Вы не можете добавлять вложения

Перейти:  
cron