Начать новую тему Ответить на тему
Статистика раздачи
Размер: 14.47 ГБ | Добавлен: 05 июн 2020, 22:43 | Скачали: 0
Сидеров: 1  [0 байт/сек]    Личеров: 0  [0 байт/сек]
Пред. тема | След. тема 

Автор
Сообщение

СообщениеДобавлено: 05 июн 2020, 22:43 

Ответить с цитатой 

Mozart - Don Giovanni - Peter Mattei, Bryn Terfel, Анна Нетребко
Год выпуска: 2011
Страна-производитель: Italia
Жанр: Opera
Продолжительность: 03:31:50
Язык: Italiano
Субтитры: Французские
Режиссер/Хореограф: Robert Carsen
Исполнители:
Peter Mattei - Don Giovanni
Kwangchul Youn - Il Commendatore
Anna Netrebko - Donna Anna
Giuseppe Filianoti - Don Ottavio
Barbara Frittoli - Donna Elvira
Bryn Terfel - Leporello
Anna Prohaska - Zerlina
Stefan Kocan - Masetto
Описание:
Wolfgang Amadeus Mozart - Don Giovanni
Choeur et Orchestre de la Scala de Milan
Conductor - Daniel Barenboim
Regia - Robert Carsen
Sets - Michael Levine
Costumes - Brigitte Reiffenstuel
Lights - Robert Carsen and Peter Van Praet
Choreography - Philippe Giraudeau
Доп. информация: Неубираемые французские субтитры
В антракте интервью и документальный фильм
Качество видео: HDTVRip
Формат/Контейнер: TS
Видео кодек: H.264
Аудио кодек: AC3
Видео поток: MPEG4 Video (H264) 1920x1080 25.00fps [Video - AVC (H.264), High Profile, Level 4.0, 1920x
Аудио поток: PEG Audio 48000Hz stereo 256kbps [Audio - French, MPEG1 - Layer 2, 48.0 kHz, 2 chn, 256.0Subtitle [ (0000,00,00)]
General
ID : 4 (0x4)
Complete name : F:\OPERI\Don Giovanni Scala 2011.ts
Format : MPEG-TS
File size : 14.5 GiB
Duration : 3h 31mn
Overall bit rate : 9 782 Kbps
Network name : F
Video
ID : 720 (0x2D0)
Menu ID : 1031 (0x407)
Format : AVC
Format/Info : Advanced Video Codec
Format profile : High@L4.0
Format settings, CABAC : Yes
Format settings, ReFrames : 4 frames
Format settings, GOP : M=22, N=52
Codec ID : 27
Duration : 3h 31mn
Bit rate : 8 781 Kbps
Width : 1 920 pixels
Height : 1 080 pixels
Display aspect ratio : 16:9
Frame rate : 25.000 fps
Color space : YUV
Chroma subsampling : 4:2:0
Bit depth : 8 bits
Scan type : MBAFF
Bits/(Pixel*Frame) : 0.169
Stream size : 13.0 GiB (90%)
Color primaries : BT.709-5, BT.1361, IEC 61966-2-4, SMPTE RP177
Transfer characteristics : BT.709-5, BT.1361
Matrix coefficients : BT.709-5, BT.1361, IEC 61966-2-4 709, SMPTE RP177
Audio #1
ID : 730 (0x2DA)
Menu ID : 1031 (0x407)
Format : MPEG Audio
Format version : Version 1
Format profile : Layer 2
Codec ID : 3
Duration : 3h 31mn
Bit rate mode : Constant
Bit rate : 256 Kbps
Channel(s) : 2 channels
Sampling rate : 48.0 KHz
Compression mode : Lossy
Delay relative to video : -723ms
Stream size : 388 MiB (3%)
Language : French
Audio #2
ID : 731 (0x2DB)
Menu ID : 1031 (0x407)
Format : MPEG Audio
Format version : Version 1
Format profile : Layer 2
Codec ID : 3
Duration : 3h 31mn
Bit rate mode : Constant
Bit rate : 256 Kbps
Channel(s) : 2 channels
Sampling rate : 48.0 KHz
Compression mode : Lossy
Delay relative to video : -699ms
Stream size : 388 MiB (3%)
Language : German
Text #1
ID : 740 (0x2E4)
Menu ID : 1031 (0x407)
Format : DVB Subtitle
Codec ID : 6
Language : French
Text #2
ID : 741 (0x2E5)
Menu ID : 1031 (0x407)
Format : DVB Subtitle
Codec ID : 6
Language : German
Text #3
ID : 742 (0x2E6)
Menu ID : 1031 (0x407)
Format : DVB Subtitle
Codec ID : 6
Language : French
Menu
ID : 710 (0x2C6)
Menu ID : 1031 (0x407)
Duration : 3h 31mn
List : 720 (0x2D0) (AVC) / 730 (0x2DA) (MPEG Audio, French) / 731 (0x2DB) (MPEG Audio, German) / 740 (0x2E4) (DVB Subtitle, French) / 741 (0x2E5) (DVB Subtitle, German) / 742 (0x2E6) (DVB Subtitle, French)
Language : / French / German / French / German / French
Большое спасибо автору этой трансляции
Правила, инструкции, FAQ!!!
Торрент  Добавлен [05 июн 2020, 22:43] Скачать торрент Магнет ссылка
Скачать торрент
[ Размер 36.69 КБ / Просмотров 5 ]

Статус
Проверен 
 
Размер  14.47 ГБ
Приватный: Нет (DHT включён)
.torrent скачан  0
 


     Отправить личное сообщение
   
Страница 1 из 1
Показать сообщения за:  Поле сортировки  
Начать новую тему Ответить на тему


Сейчас этот форум просматривают: нет зарегистрированных пользователей и гости: 0


Вы не можете начинать темы
Вы не можете отвечать на сообщения
Вы не можете редактировать свои сообщения
Вы не можете удалять свои сообщения
Вы не можете добавлять вложения

Перейти:  
cron