Начать новую тему Ответить на тему
Статистика раздачи
Размер: 9.31 ГБ | Добавлен: 05 июн 2020, 22:20 | Скачали: 0
Сидеров: 0  [0 байт/сек]    Личеров: 0  [0 байт/сек]
Пред. тема | След. тема 

Автор
Сообщение

СообщениеДобавлено: 05 июн 2020, 22:20 

Ответить с цитатой 

Mozart - Don Giovanni
Моцарт - Дон Жуан
Год выпуска: 2008
Лейбл: Unitel Classica
Жанр: Opera
Продолжительность: 01:33:20 + 01:23:17
Язык: Italian
Перевод: Субтитры (marker13)
Субтитры: Русские, Italian, English, German, French, Spanish
Режиссер: Claus Guth
Дирижер: Bertrand de Billy
Исполнители:
Christopher Maltman (Don Giovanni);
Erwin Schrott (Leporello);
Dorothea Röschmann (Donna Elvira);
Annette Dasch (Donna Anna);
Matthew Polenzani (Don Ottavio);
Екатерина Сюрина (Zerlina);
Alex Esposito (Masetto);
Анатолий Кочерга (Commendatore);
Wiener Philhamoniker;
Wiener Staatsopernchor.
Описание: Поразительная интерпретация моцартовской оперы, ставшая сенсацией Зальцбургского фестиваля 2008 года. Это не только переосмысление места и времени действия оперы, но и глубокое раскрытие характеров персонажей, их неоднозначного внутреннего мира. Простой, на первый взгляд, сюжет превращен создателями спектакля в динамичный психологический триллер.
Качество видео: BDRip (720p)
Формат/Контейнер: MKV
Видео кодек: H.264
Аудио кодек: DTS
Видео поток: AVC, 6000 Кбит/сек, 1280 x 720 (16:9), 29.970 fps
Аудио поток: DTS, 1510 Кбит/сек, 5 каналов, 48,0 КГц

E:\my rips\Don Giovanni 2008 Salzburg\Don Giovanni Act I.mkv
General
Unique ID : 254156863790789073763782501645273047982 (0xBF34D4DA35CD534F9EF1C0F50254A3AE)
Complete name : E:\my rips\Don Giovanni 2008 Salzburg\Don Giovanni Act I.mkv
Format : Matroska
Format version : Version 2
File size : 4.92 GiB
Duration : 1h 33mn
Overall bit rate : 7 518 Kbps
Encoded date : UTC 2012-04-08 20:36:07
Writing application : mkvmerge v5.4.0 ('Piper') built on Mar 10 2012 13:34:39
Writing library : libebml v1.2.3 + libmatroska v1.3.0
Video #1
ID : 1
Format : AVC
Format/Info : Advanced Video Codec
Format profile : High@L3.1
Format settings, CABAC : Yes
Format settings, ReFrames : 4 frames
Muxing mode : Header stripping
Codec ID : V_MPEG4/ISO/AVC
Duration : 1h 33mn
Bit rate : 6 000 Kbps
Width : 1 280 pixels
Height : 720 pixels
Display aspect ratio : 16:9
Frame rate : 29.970 fps
Color space : YUV
Chroma subsampling : 4:2:0
Bit depth : 8 bits
Scan type : Progressive
Bits/(Pixel*Frame) : 0.217
Stream size : 3.83 GiB (78%)
Writing library : x264 core 120 r2164 da19765
Encoding settings : cabac=1 / ref=3 / deblock=1:-1:-1 / analyse=0x3:0x113 / me=hex / subme=7 / psy=1 / psy_rd=1.00:0.15 / mixed_ref=1 / me_range=16 / chroma_me=1 / trellis=1 / 8x8dct=1 / cqm=0 / deadzone=21,11 / fast_pskip=1 / chroma_qp_offset=-3 / threads=6 / sliced_threads=0 / nr=0 / decimate=1 / interlaced=0 / bluray_compat=0 / constrained_intra=0 / bframes=3 / b_pyramid=2 / b_adapt=1 / b_bias=0 / direct=1 / weightb=1 / open_gop=0 / weightp=2 / keyint=300 / keyint_min=29 / scenecut=40 / intra_refresh=0 / rc_lookahead=40 / rc=2pass / mbtree=1 / bitrate=6000 / ratetol=1.0 / qcomp=0.60 / qpmin=0 / qpmax=69 / qpstep=4 / cplxblur=20.0 / qblur=0.5 / ip_ratio=1.40 / aq=1:1.00
Language : Italian
Audio #2
ID : 2
Format : DTS
Format/Info : Digital Theater Systems
Muxing mode : Header stripping
Codec ID : A_DTS
Duration : 1h 33mn
Bit rate mode : Constant
Bit rate : 1 510 Kbps
Channel(s) : 5 channels
Channel positions : Front: L C R, Side: L R
Sampling rate : 48.0 KHz
Bit depth : 24 bits
Compression mode : Lossy
Stream size : 1 012 MiB (20%)
Title : DTS
Language : Italian
Text #3
ID : 3
Format : UTF-8
Codec ID : S_TEXT/UTF8
Codec ID/Info : UTF-8 Plain Text
Title : Russian
Language : Russian
Text #4
ID : 4
Format : PGS
Muxing mode : zlib
Codec ID : S_HDMV/PGS
Codec ID/Info : The same subtitle format used on BDs/HD-DVDs
Title : Italian
Language : Italian
Text #5
ID : 5
Format : PGS
Muxing mode : zlib
Codec ID : S_HDMV/PGS
Codec ID/Info : The same subtitle format used on BDs/HD-DVDs
Title : English
Language : English
Text #6
ID : 6
Format : PGS
Muxing mode : zlib
Codec ID : S_HDMV/PGS
Codec ID/Info : The same subtitle format used on BDs/HD-DVDs
Title : German
Language : German
Text #7
ID : 7
Format : PGS
Muxing mode : zlib
Codec ID : S_HDMV/PGS
Codec ID/Info : The same subtitle format used on BDs/HD-DVDs
Title : French
Language : French
Text #8
ID : 8
Format : PGS
Muxing mode : zlib
Codec ID : S_HDMV/PGS
Codec ID/Info : The same subtitle format used on BDs/HD-DVDs
Title : Spanish
Language : Spanish
Правила, инструкции, FAQ!!!
Торрент  Добавлен [05 июн 2020, 22:20] Скачать торрент Магнет ссылка
Скачать торрент
[ Размер 23.98 КБ / Просмотров 4 ]

Статус
Проверен 
 
Размер  9.31 ГБ
Приватный: Нет (DHT включён)
.torrent скачан  0
 


     Отправить личное сообщение
   
Страница 1 из 1
Показать сообщения за:  Поле сортировки  
Начать новую тему Ответить на тему


Сейчас этот форум просматривают: нет зарегистрированных пользователей и гости: 0


Вы не можете начинать темы
Вы не можете отвечать на сообщения
Вы не можете редактировать свои сообщения
Вы не можете удалять свои сообщения
Вы не можете добавлять вложения

Перейти:  
cron