Начать новую тему Ответить на тему
Статистика раздачи
Размер: 11.68 ГБ | Добавлен: 05 июн 2020, 23:16 | Скачали: 0
Сидеров: 1  [0 байт/сек]    Личеров: 0  [0 байт/сек]
Пред. тема | След. тема 

Автор
Сообщение

СообщениеДобавлено: 05 июн 2020, 23:16 

Ответить с цитатой 

Mozart - Die Zauberflote (Alfred Reiter, Rainer Trost, Ana Durlovski / Patrick Summers), Bregenz Festival / Моцарт - Волшебная флейта (Альфред Рейтер, Райнер Трост, Ана Дурловски / Патрик Саммерс), Фестиваль в Брегенце, 2013
Год выпуска: 2013
Лейбл: Unitel Classica
Страна-производитель: Австрия
Жанр: Opera
Продолжительность: 02:30:36
Язык: Немецкий
Перевод: отсутствует
Субтитры: отстутствуют
Исполнители:
Alfred Reiter - Sarastro,
Rainer Trost - Tamino,
Eike Wilm Schulte - Sprecher - 2 Geharnischter,
Ana Durlovski - Königin der Nacht,
Gisela Stille - Pamina,
Magdalena Anna Hofmann - Erste Dame,
Verena Gunz - Zweite Dame,
Katrin Wundsam - Dritte Dame,
Laila Salome Fischer - Erster Knabe,
Eva Dworschak - Zweiter Knabe,
Dymfna Meijts - Dritter Knabe,
Daniel Schmutzhard - Papageno,
Dénise Beck - Papagena,
Martin Koch - Monostatos - 1 Geharnischter,
Eleftherios Chladt - Priester
Дирижер: Патрик Саммерс (Patrick Summers)
Описание:
Трансляция из Брегенца от 19 июля 2013 года.
Доп. информация:
Видеозапись оперы с телеканала UNITEL CLASSICA.

Качество: HDTVRip
Формат: MKV
Видео кодек: H.264
Аудио кодек: AC-3
Видео: 1920 x 1080i (16х9), 10.5Mbps, 25 fps, AVC
Аудио: 48000Hz 384kb/s, 5 channels, AC-3
Раздаю как позволяет скорость (512 Кбит)!
General
Unique ID : 205227098010170156191632820397848846763 (0x9A654D24FEB4CBFEBF94B4F29382E1AB)
Complete name : F:\Opera\Unitel.tv\SUMMER_FESTIVAL\Mozart_Die_Zauberflote_Live_Bregenz_2013.mkv
Format : Matroska
File size : 11.7 GiB
Duration : 2h 30mn
Overall bit rate : 11.1 Mbps
Encoded date : UTC 2013-07-20 09:44:02
Writing application : mkvmerge v5.7.0 ('The Whirlwind') built on Jul 8 2012 20:08:51
Writing library : libebml v1.2.3 + libmatroska v1.3.0
Video
ID : 1
Format : AVC
Format/Info : Advanced Video Codec
Format profile : High@L4.0
Format settings, CABAC : Yes
Format settings, ReFrames : 4 frames
Codec ID : V_MPEG4/ISO/AVC
Duration : 2h 30mn
Bit rate : 10.5 Mbps
Width : 1 920 pixels
Height : 1 080 pixels
Display aspect ratio : 16:9
Frame rate : 50.000 fps
Original frame rate : 25.000 fps
Standard : Component
Color space : YUV
Chroma subsampling : 4:2:0
Bit depth : 8 bits
Scan type : Interlaced
Scan order : Top Field First
Bits/(Pixel*Frame) : 0.101
Stream size : 11.0 GiB (95%)
Language : German
Color primaries : BT.709-5, BT.1361, IEC 61966-2-4, SMPTE RP177
Transfer characteristics : BT.709-5, BT.1361
Matrix coefficients : BT.709-5, BT.1361, IEC 61966-2-4 709, SMPTE RP177
Audio
ID : 2
Format : AC-3
Format/Info : Audio Coding 3
Mode extension : CM (complete main)
Codec ID : A_AC3
Duration : 2h 30mn
Bit rate mode : Constant
Bit rate : 384 Kbps
Channel(s) : 2 channels
Channel positions : Front: L R
Sampling rate : 48.0 KHz
Bit depth : 16 bits
Compression mode : Lossy
Delay relative to video : 12ms
Stream size : 414 MiB (3%)
Language : German

Правила, инструкции, FAQ!!!
Торрент  Добавлен [05 июн 2020, 23:16] Скачать торрент Магнет ссылка
Скачать торрент
[ Размер 58.91 КБ / Просмотров 5 ]

Статус
Проверен 
 
Размер  11.68 ГБ
Приватный: Нет (DHT включён)
.torrent скачан  0
 


     Отправить личное сообщение
   
Страница 1 из 1
Показать сообщения за:  Поле сортировки  
Начать новую тему Ответить на тему


Сейчас этот форум просматривают: нет зарегистрированных пользователей и гости: 0


Вы не можете начинать темы
Вы не можете отвечать на сообщения
Вы не можете редактировать свои сообщения
Вы не можете удалять свои сообщения
Вы не можете добавлять вложения

Перейти:  
cron