Начать новую тему Ответить на тему
Статистика раздачи
Размер: 6.92 ГБ | Добавлен: 05 июн 2020, 22:59 | Скачали: 0
Сидеров: 0  [0 байт/сек]    Личеров: 0  [0 байт/сек]
Пред. тема | След. тема 

Автор
Сообщение

СообщениеДобавлено: 05 июн 2020, 22:59 

Ответить с цитатой 

Монсеррат Кабалье. Юбилейный концерт в Москве. Звёздное трио
Год выпуска: 2013
Страна-производитель: Россия
Жанр: Classical, Opera/Vocal
Продолжительность: 01:23:00
Язык: Русский, и другие
Перевод: Не нужен
Субтитры: Отсутствуют
Дирижер: Рамон Тебар
Исполнители: Монтсеррат Кабалье, Николай Басков, Монтсерат Марти,
Гос. симф. оркестр "Новая Россия", Акад. большой хор "Мастера хорового пения" Большого театра.
Описание: На сцене Государственного Кремлевского Дворца прошел концерт культовой испанской оперной певицы (сопрано) Монтсеррат Кабалье (Montserrat Caballe), известной, в первую очередь, своей техникой бельканто и исполнением ролей в классических итальянских операх Россини, Беллини и Доницетти. Шоу получило название "Звездное трио", поскольку выступала Монтсеррат, отметившая в этом году свой 80-летний юбилей, с дочерью Монтсеррат Марти (сопрано) и российским эстрадным певцом и тенором Николаем Басковым, с которым впервые выступила в 2000 году в Санкт-Петербурге. Сцена была украшена по-праздничному: по периметру сцены висели полотна с фотографиями виновницы торжества и ее гостями - Марти и Николаем, а по центру расположился симфонический оркестр "Русская филармония", окруженный светящимися канделябрами. По центру были установлены тумбы с микрофонами и кресло для испанской дивы, передвигавшейся из-за состояния здоровья с палочкой, а спереди сцена была обрамлена цветами. Очень праздничная и торжественная обстановку была в тот вечер в ГКД. Испанско-российскому празднику оперного искусства с легендарной Кабалье зрители аплодировали стоя.
Треклист:
01. Монтсеррат Кабалье, Николай Басков, Монтсерат Марти - Ave Maria
02. Монтсеррат Кабалье, Монтсерат Марти - Belle nuit, o nuit d'amour
Жак Оффенбах. дуэт Джуматы и Николауса из оперы «Сказки Гофмана»
03. Николай Басков - Куда, куда, куда вы удалились..
П.И. Чайковский. Ария Ленского из оперы «Евгений Онегин»
04. Монтсеррат Кабалье - L'amour est un oiseau rebelle - У любви как у пташки крылья
Жорж Бизе. Хабанера Кармен из оперы «Кармен»
05. Монтсерат Марти - Je veux vivre
Шарль Гуно. Ария Джульетты из оперы «Ромео и Джульетта»
06. Монтсеррат Кабалье, Николай Басков - La dolcissima effigie
Ф. Чилеа. дуэт Адриано и Маурицио из оперы «Адриана Лекуврер»
07. Николай Басков, Монтсерат Марти - Caro Elisir
Гаэтано Доницетти. дуэт Адина и Неморино из оперы «Любовный напиток»
08. Николай Басков - Неаполитанская песня “Funiculi funicula”
09. Николай Басков - O surdato 'nnammurato (Влюбленный солдат)
Энрико Каннио, Аниелло Калифано. Неаполитанские песни
10. Николай Басков - Granada
Агустин Лара.
11. Монтсеррат Кабалье, Монтсерат Марти - Todas las mananitas
M. Penella. Хабанера из «Дон Хиль из Алкала»
12. Монтсерат Марти - Yo quiero un hombre
Manuel Fernandez Caballero. Ария из Сарсуэлы «El cabo primero»
13. Николай Басков - No Puede Ser
П. Соросабаль. Ария из Сарсуэлы «Хозяйка портовой таверны»
14. Монтсеррат Кабалье, Николай Басков, Монтсерат Марти - La Tarantula (любовь сродни укусу тарантула)
Х. Хименес. Ария из Сарсуэлы «La tempranica»
15. Монтсеррат Кабалье, Николай Басков, Монтсерат Марти - Sí, Torero quiero ser
Manuel Penella . Ария из Сарсуэлы «Дикая кошка»
16. Монтсеррат Кабалье, Николай Басков, Монтсерат Марти - March with me
Вангелис (Vangelis)
17. Монтсеррат Кабалье, Николай Басков, Монтсерат Марти - Очи черные
Евгения Гребёнки, Флориан Герман и Адальджизо Феррарис
18. Монтсеррат Кабалье, Николай Басков, Монтсерат Марти - Застольная песня
Джузеппе Верди. Опера «Травиата»
Качество: HDTV
Разрешение видео/развертка: 1080i
Контейнер: TS
Видео кодек: H.264
Аудио кодек: MP2
Видео: H264; 1920x1080 (16:9); 25.000 fps; ~11.1 Mb/s
Аудио: MPEG Audio 48000Hz stereo 192 Кбит/сек
Код:
General
ID                             : 1 (0x1)
Complete name                  : C:\Монсеррат Кабалье. Юбилейный концерт в Москве 2018.10.07.ts
Format                         : MPEG-TS
File size                      : 6.92 GiB
Duration                       : 1 h 23 min
Overall bit rate mode          : Variable
Overall bit rate               : 11.9 Mb/s
Video
ID                             : 2292 (0x8F4)
Menu ID                        : 2291 (0x8F3)
Format                         : AVC
Format/Info                    : Advanced Video Codec
Format profile                 : High@L4
Format settings                : CABAC / 4 Ref Frames
Format settings, CABAC         : Yes
Format settings, ReFrames      : 4 frames
Format settings, GOP           : M=4, N=32
Codec ID                       : 27
Duration                       : 1 h 23 min
Bit rate                       : 11.1 Mb/s
Width                          : 1 920 pixels
Height                         : 1 080 pixels
Display aspect ratio           : 16:9
Frame rate                     : 25.000 FPS
Standard                       : Component
Color space                    : YUV
Chroma subsampling             : 4:2:0
Bit depth                      : 8 bits
Scan type                      : Interlaced
Scan type, store method        : Separated fields
Scan order                     : Top Field First
Bits/(Pixel*Frame)             : 0.215
Stream size                    : 6.47 GiB (93%)
Color range                    : Limited
Color primaries                : BT.709
Transfer characteristics       : BT.709
Matrix coefficients            : BT.709
Audio
ID                             : 2295 (0x8F7)
Menu ID                        : 2291 (0x8F3)
Format                         : MPEG Audio
Format version                 : Version 1
Format profile                 : Layer 2
Codec ID                       : 3
Duration                       : 1 h 23 min
Bit rate mode                  : Constant
Bit rate                       : 192 kb/s
Channel(s)                     : 2 channels
Sampling rate                  : 48.0 kHz
Frame rate                     : 41.667 FPS (1152 SPF)
Compression mode               : Lossy
Stream size                    : 114 MiB (2%)
Language                       : Russian


Правила, инструкции, FAQ!!!
Торрент  Добавлен [05 июн 2020, 22:59] Скачать торрент Магнет ссылка
Скачать торрент
[ Размер 17.83 КБ / Просмотров 6 ]

Статус
Проверен 
 
Размер  6.92 ГБ
Приватный: Нет (DHT включён)
.torrent скачан  0
 


     Отправить личное сообщение
   
Страница 1 из 1
Показать сообщения за:  Поле сортировки  
Начать новую тему Ответить на тему


Сейчас этот форум просматривают: нет зарегистрированных пользователей и гости: 0


Вы не можете начинать темы
Вы не можете отвечать на сообщения
Вы не можете редактировать свои сообщения
Вы не можете удалять свои сообщения
Вы не можете добавлять вложения

Перейти:  
cron