Начать новую тему Ответить на тему
Статистика раздачи
Размер: 34.17 ГБ | Добавлен: 05 июн 2020, 22:52 | Скачали: 0
Сидеров: 0  [0 байт/сек]    Личеров: 0  [0 байт/сек]
Пред. тема | След. тема 

Автор
Сообщение

СообщениеДобавлено: 05 июн 2020, 22:52 

Ответить с цитатой 

Моцарт - Похищение из Сераля / Mozart - Die Entführung aus dem Serail
Год выпуска: 2013
Лейбл: Arthaus Musik
Страна-производитель: Германия
Жанр: Opera
Продолжительность: 02:04:57
Язык: Немецкий
Субтитры: Английские, немецкие, французские, итальянские, испанские, японские, корейские
Режиссер: Adrian Marthaler (Адриан Марталер)
Дирижер: Hans Graf (Ганс Граф)
Исполнители:
Desirée Rancatore (Дезире Ранкаторе) - Konstanze,
Tobias Moretti (Тобиас Моретти) - Bassa Selim,
Javier Camarena (Хавьер Камарена) - Belmonte,
Rebecca Nelsen (Ребекка Нельсон) - Blonde,
Thomas Ebenstein (Томас Эбенштейн) - Pedrillo,
Kurt Rydl (Курт Ридль) - Osmin
Salzburg Bach Choir (Зальцбургский Баховский хор), Camerata Salzburg (оркестр «Камерата Зальцбург»)
Описание: Проект новейшего формата - постановка моцартовской оперы в ангаре (Hangar 7) Зальцбургского аэропорта. Надо заметить, что в России уже был опыт театрального представления в помещении аэропорта, когда полгода назад артисты Московской Геликон-Оперы под руководством Дмитрия Бертмана открывали новый терминал А во Внуково. Зальцбургский проект оказался спецакцией фестиваля совместно с компанией Servus TV, предназначенной для телевизионной аудитории. Формат для оперы сенсационный. В окруженной Альпами гигантской футуристической стеклянной "капсуле", где хранится коллекция исторических самолетов и проводятся художественные выставки, оркестр Камерата Зальцбург под управлением Ханса Графа, Bach Choir и солисты сыграли "Похищение из Сераля" (в постановке Адриана Марталера). Радикальность заключалась даже не в техническом антураже аэропорта, работа которого не прекращалась во время представления, сопровождая арии Моцарта ревом взлетающих самолетов, и не в трактовке оперного сюжета, переместившей героев в современный мир моды и гламура, где султан Селим - гуру моды и визажист, пытался соблазнить блондинку Констанцу. Радикальность состояла в технологии этого зрелища, в новом формате взаимодействия артистов и публики. Оркестр, расположенный в другом ангаре, держал связь с артистами через экраны и наушники, а публика перемещалась вслед за артистами по всей гигантской территории Hangar 7, являясь участницей действия. Герои Моцарта, исполняя арии, строчили на швейных машинках, участвовали в дефиле, оказываясь то в салоне самолета, то на трапе, то в мчащейся по бетонному полю аэропорта машины. В финале герои улетали на реальном вертолете в Альпы. И это был впечатляющий формат "лайф", который и оперная публика, и Моцарт пережили впервые.
Opera as never experienced before: a world-class cast, stylish haute couture outfits, the spectacular setting of Hangar-7 with more than 10 different locations and state-of-the-art technology. All of this cut together as a live opera film: a modern and unique production of Mozart’s “Die Entführung aus dem Serail” – one of the highlights of the Salzburg Festival 2013. In Adrian Marthaler’s production, the whole Hangar-7 at Salzburg Airport becomes the backdrop for an extraordinary opera performance. The distinguished Camerata Salzburg is conducted by Hans Graf, one of the best Mozart connoisseurs. The star soloists including Desirée Rancatore (Konstanze), Javier Camarena (Belmonte), Kurt Rydl (Osmin) as well as famed Austrian actor Tobias Moretti as Bassa Selim guarantee a special treat. Even audiences that are not yet opera aficionados are set to be enthused by this novel approach.
Бонусы:
Making of Die Entführung aus dem Serail
Анонсы дисков
Об опере
Качество видео: Blu-ray
Формат/Контейнер: BDMV
Видео кодек: MPEG4
Аудио кодек: LPCM, DTS
Видео поток: 1920x1080i, MPEG-4 Video, 29.970 fps, 16:9, 22587 kbps
Аудио поток 1: LPCM, 2 ch, 48 kHz, 24-bit, 2304 kbps
Аудио поток 2: DTS-HD MA, 5.1 ch, 48 kHz, 24-bit, 3641 kbps (DTS Core: 5.1 / 48 kHz / 1509 kbps / 24-bit)
Disc Title: Моцарт - Похищение из Сераля (Camerata Salzburg) (2013) (Blu-ray 1080i, AVC, DTS-HD 5.1)
Disc Size: 36 686 627 307 bytes
Protection: AACS
BD-Java: No
BDInfo: 0.5.8
Notes:
BDINFO HOME:
Cinema Squid
http://www.cinemasquid.com/blu-ray/tools/bdinfo
INCLUDES FORUMS REPORT FOR:
AVS Forum Blu-ray Audio and Video Specifications Thread
http://www.avsforum.com/avs-vb/showthread.php?t=1155731
********************
PLAYLIST: 00009.MPLS
********************
<--- BEGIN FORUMS PASTE --->Код:
Код:
                                                                                Total   Video
Title                                                           Codec   Length  Movie Size      Disc Size       Bitrate Bitrate Main Audio Track                          Secondary Audio Track
-----                                                           ------  ------- --------------  --------------  ------- ------- ------------------                        ---------------------
00009.MPLS                                                      AVC     2:04:56 31 769 831 424  36 686 627 307  33,90   22,59   LPCM 2.0 2304Kbps (48kHz/24-bit)          DTS-HD Master 5.1 3641Kbps (48kHz/24-bit)

Код:
Код:
DISC INFO:
Disc Title:     Моцарт - Похищение из Сераля (Camerata Salzburg) (2013) (Blu-ray 1080i, AVC, DTS-HD 5.1)
Disc Size:      36 686 627 307 bytes
Protection:     AACS
BD-Java:        No
BDInfo:         0.5.8
PLAYLIST REPORT:
Name:                   00009.MPLS
Length:                 2:04:56.655 (h:m:s.ms)
Size:                   31 769 831 424 bytes
Total Bitrate:          33,90 Mbps
VIDEO:
Codec                   Bitrate             Description
-----                   -------             -----------
MPEG-4 AVC Video        22587 kbps          1080i / 29,970 fps / 16:9 / High Profile 4.1
MPEG-4 AVC Video        3492 kbps           480i / 29,970 fps / 16:9 / High Profile 3.2
AUDIO:
Codec                           Language        Bitrate         Description
-----                           --------        -------         -----------
LPCM Audio                      German          2304 kbps       2.0 / 48 kHz / 2304 kbps / 24-bit
DTS-HD Master Audio             German          3641 kbps       5.1 / 48 kHz / 3641 kbps / 24-bit (DTS Core: 5.1 / 48 kHz / 1509 kbps / 24-bit)
SUBTITLES:
Codec                           Language        Bitrate         Description
-----                           --------        -------         -----------
Presentation Graphics           German          14,866 kbps
Presentation Graphics           English         14,336 kbps
Presentation Graphics           French          13,693 kbps
Presentation Graphics           Spanish         14,035 kbps
Presentation Graphics           Italian         13,066 kbps
Presentation Graphics           Japanese        14,110 kbps
Presentation Graphics           Korean          15,461 kbps
FILES:
Name            Time In         Length          Size            Total Bitrate
----            -------         ------          ----            -------------
00001.M2TS      0:00:00.000     2:04:42.274     31 768 707 072  33 984
00005.M2TS      2:04:42.274     0:00:14.047     1 112 064       633
00000.M2TS      2:04:56.322     0:00:00.333     12 288          295
CHAPTERS:
Number          Time In         Length          Avg Video Rate  Max 1-Sec Rate  Max 1-Sec Time  Max 5-Sec Rate  Max 5-Sec Time  Max 10Sec Rate  Max 10Sec Time  Avg Frame Size  Max Frame Size  Max Frame Time
------          -------         ------          --------------  --------------  --------------  --------------  --------------  --------------  --------------  --------------  --------------  --------------
1               0:00:00.000     0:00:31.364     23 158 kbps     36 039 kbps     00:00:23.089    31 264 kbps     00:00:19.886    27 810 kbps     00:00:18.885    96 485 bytes    739 844 bytes   00:00:26.493
2               0:00:31.364     0:01:20.447     11 447 kbps     19 678 kbps     00:01:50.810    15 097 kbps     00:01:13.072    14 410 kbps     00:01:12.772    47 743 bytes    293 277 bytes   00:01:51.010
3               0:01:51.811     0:04:09.882     22 944 kbps     36 318 kbps     00:02:40.927    32 894 kbps     00:02:37.724    30 168 kbps     00:02:33.153    95 696 bytes    682 752 bytes   00:03:38.585
4               0:06:01.694     0:02:32.585     22 620 kbps     37 888 kbps     00:08:24.036    29 069 kbps     00:08:20.032    27 829 kbps     00:08:15.328    94 342 bytes    731 191 bytes   00:08:24.503
5               0:08:34.280     0:06:17.944     22 980 kbps     28 741 kbps     00:13:24.637    26 412 kbps     00:13:21.167    25 509 kbps     00:13:42.054    95 847 bytes    355 038 bytes   00:08:39.085
6               0:14:52.224     0:01:09.602     23 149 kbps     29 716 kbps     00:15:20.286    26 259 kbps     00:15:38.804    25 392 kbps     00:15:36.735    96 551 bytes    439 568 bytes   00:15:20.352
7               0:16:01.827     0:05:07.807     22 305 kbps     29 493 kbps     00:18:38.684    26 276 kbps     00:18:38.584    24 629 kbps     00:20:28.193    93 030 bytes    397 955 bytes   00:18:56.135
8               0:21:09.635     0:01:33.593     22 544 kbps     28 740 kbps     00:21:28.253    25 622 kbps     00:21:16.908    25 105 kbps     00:21:13.739    94 026 bytes    319 067 bytes   00:22:34.553
9               0:22:43.228     0:05:05.438     23 246 kbps     30 639 kbps     00:26:53.578    26 784 kbps     00:26:51.109    26 290 kbps     00:27:06.758    96 955 bytes    441 777 bytes   00:26:52.077
10              0:27:48.667     0:01:41.267     22 744 kbps     29 286 kbps     00:28:47.292    26 033 kbps     00:28:47.158    24 828 kbps     00:28:44.756    94 863 bytes    315 415 bytes   00:28:49.227
11              0:29:29.934     0:00:52.252     22 131 kbps     27 538 kbps     00:29:44.082    24 701 kbps     00:29:40.912    23 960 kbps     00:29:35.907    92 305 bytes    325 143 bytes   00:29:42.013
12              0:30:22.187     0:05:03.136     22 690 kbps     28 529 kbps     00:30:28.960    26 432 kbps     00:30:32.530    26 023 kbps     00:30:27.559    94 635 bytes    325 710 bytes   00:31:36.861
13              0:35:25.323     0:02:18.104     22 392 kbps     28 152 kbps     00:37:00.685    26 044 kbps     00:36:59.884    24 733 kbps     00:36:57.815    93 395 bytes    312 142 bytes   00:35:52.550
14              0:37:43.427     0:02:07.994     22 902 kbps     29 038 kbps     00:38:09.654    25 940 kbps     00:38:39.050    24 913 kbps     00:38:07.051    95 520 bytes    338 315 bytes   00:37:58.876
15              0:39:51.422     0:03:40.353     22 554 kbps     28 288 kbps     00:40:02.833    25 815 kbps     00:42:59.310    24 665 kbps     00:40:10.908    94 071 bytes    283 096 bytes   00:40:17.314
16              0:43:31.775     0:00:53.052     22 763 kbps     27 720 kbps     00:43:39.583    25 261 kbps     00:44:08.479    24 461 kbps     00:44:06.677    94 942 bytes    293 195 bytes   00:43:49.259
17              0:44:24.828     0:03:58.605     22 572 kbps     29 077 kbps     00:44:26.363    25 787 kbps     00:44:26.030    24 606 kbps     00:44:24.928    94 143 bytes    311 857 bytes   00:44:43.180
18              0:48:23.433     0:07:54.273     22 804 kbps     28 332 kbps     00:48:58.402    25 433 kbps     00:54:20.757    24 454 kbps     00:54:20.557    95 113 bytes    299 820 bytes   00:50:19.616
19              0:56:17.707     0:01:23.950     23 063 kbps     27 948 kbps     00:57:36.953    25 354 kbps     00:56:53.676    24 783 kbps     00:56:52.675    96 191 bytes    307 886 bytes   00:56:39.129
20              0:57:41.658     0:09:18.558     22 661 kbps     29 974 kbps     01:06:46.969    26 232 kbps     00:58:16.459    25 468 kbps     00:58:14.657    94 517 bytes    340 846 bytes   00:59:39.409
21              1:07:00.216     0:00:50.784     22 069 kbps     27 254 kbps     01:07:04.019    25 314 kbps     01:07:02.418    23 913 kbps     01:07:01.417    92 048 bytes    232 676 bytes   01:07:09.759
22              1:07:51.000     0:02:40.059     22 544 kbps     27 833 kbps     01:08:09.385    24 943 kbps     01:08:37.980    23 991 kbps     01:07:51.067    94 028 bytes    285 556 bytes   01:08:42.284
23              1:10:31.060     0:03:15.361     22 528 kbps     28 369 kbps     01:13:24.933    24 954 kbps     01:12:01.817    23 959 kbps     01:12:16.832    93 960 bytes    333 178 bytes   01:11:53.342
24              1:13:46.421     0:03:15.728     22 973 kbps     28 578 kbps     01:14:24.226    26 339 kbps     01:14:20.956    25 029 kbps     01:14:20.456    95 817 bytes    275 351 bytes   01:13:53.762
25              1:17:02.150     0:04:31.504     22 952 kbps     33 239 kbps     01:20:52.647    29 414 kbps     01:20:49.277    28 072 kbps     01:20:45.073    95 729 bytes    487 189 bytes   01:20:53.481
26              1:21:33.655     0:10:33.432     22 613 kbps     32 057 kbps     01:28:03.444    26 657 kbps     01:27:22.971    25 275 kbps     01:22:12.994    94 315 bytes    504 466 bytes   01:27:25.473
27              1:32:07.088     0:06:05.832     23 034 kbps     37 189 kbps     01:35:08.803    29 746 kbps     01:36:54.008    28 415 kbps     01:36:52.206    96 069 bytes    760 491 bytes   01:35:09.003
28              1:38:12.920     0:02:55.174     22 036 kbps     33 358 kbps     01:38:52.192    26 294 kbps     01:38:49.356    25 108 kbps     01:38:46.153    91 909 bytes    618 494 bytes   01:38:52.326
29              1:41:08.095     0:00:57.791     23 328 kbps     31 458 kbps     01:42:04.718    28 168 kbps     01:41:55.809    27 330 kbps     01:41:55.876    97 296 bytes    503 451 bytes   01:41:57.611
30              1:42:05.886     0:03:22.602     23 782 kbps     32 644 kbps     01:43:03.877    28 745 kbps     01:42:59.873    28 054 kbps     01:42:57.638    99 190 bytes    515 510 bytes   01:42:58.472
31              1:45:28.488     0:01:35.161     22 961 kbps     28 251 kbps     01:46:15.802    26 832 kbps     01:46:58.078    25 835 kbps     01:46:53.640    95 766 bytes    230 050 bytes   01:46:05.359
32              1:47:03.650     0:07:49.035     22 347 kbps     27 818 kbps     01:47:20.300    25 713 kbps     01:51:12.098    24 796 kbps     01:51:12.098    93 206 bytes    369 421 bytes   01:48:51.091
33              1:54:52.685     0:01:47.674     22 989 kbps     27 664 kbps     01:56:20.340    26 112 kbps     01:56:18.438    25 082 kbps     01:56:18.237    95 881 bytes    269 501 bytes   01:54:53.119
34              1:56:40.360     0:07:12.498     22 888 kbps     37 106 kbps     02:02:34.480    29 291 kbps     02:02:31.277    27 588 kbps     02:02:27.873    95 461 bytes    570 965 bytes   02:02:19.332
35              2:03:52.858     0:00:49.416     20 630 kbps     28 152 kbps     02:04:27.092    23 915 kbps     02:04:10.276    23 381 kbps     02:04:05.271    93 083 bytes    301 070 bytes   02:04:34.433
36              2:04:42.274     0:00:14.381     516 kbps        1 474 kbps      02:04:47.646    985 kbps        02:04:43.442    686 kbps        02:04:42.274    2 158 bytes     23 543 bytes    02:04:45.277
STREAM DIAGNOSTICS:
File            PID             Type            Codec           Language                Seconds                 Bitrate                 Bytes           Packets
----            ---             ----            -----           --------                --------------          --------------          -------------   -----
00001.M2TS      4113 (0x1011)   0x1B            AVC                                     7478,471                22 629                  21 154 218 977  115 099 222
00001.M2TS      4352 (0x1100)   0x80            LPCM            deu (German)            7478,471                2 310                   2 159 783 580   11 965 560
00001.M2TS      4353 (0x1101)   0x86            DTS-HD MA       deu (German)            7478,471                3 648                   3 410 388 756   19 698 808
00001.M2TS      4608 (0x1200)   0x90            PGS             deu (German)            7478,471                15                      13 923 521      80 577
00001.M2TS      4609 (0x1201)   0x90            PGS             eng (English)           7478,471                14                      13 427 203      77 874
00001.M2TS      4610 (0x1202)   0x90            PGS             fra (French)            7478,471                14                      12 824 957      74 620
00001.M2TS      4611 (0x1203)   0x90            PGS             spa (Spanish)           7478,471                14                      13 145 192      76 355
00001.M2TS      4612 (0x1204)   0x90            PGS             ita (Italian)           7478,471                13                      12 237 535      71 436
00001.M2TS      4613 (0x1205)   0x90            PGS             jpn (Japanese)          7478,471                14                      13 215 334      76 747
00001.M2TS      4614 (0x1206)   0x90            PGS             kor (Korean)            7478,471                15                      14 481 347      83 637
00001.M2TS      6912 (0x1B00)   0x1B            AVC                                     7478,471                3 499                   3 270 815 852   17 906 657
00005.M2TS      4113 (0x1011)   0x1B            AVC                                     13,914                  532                     924 426         5 314
00000.M2TS      4113 (0x1011)   0x1B            AVC                                     0,200                   244                     6 107           41

<---- END FORUMS PASTE ---->
QUICK SUMMARY:
Disc Title: Моцарт - Похищение из Сераля (Camerata Salzburg) (2013) (Blu-ray 1080i, AVC, DTS-HD 5.1)
Disc Size: 36 686 627 307 bytes
Protection: AACS
BD-Java: No
Playlist: 00009.MPLS
Size: 31 769 831 424 bytes
Length: 2:04:56.655
Total Bitrate: 33,90 Mbps
Video: MPEG-4 AVC Video / 22587 kbps / 1080i / 29,970 fps / 16:9 / High Profile 4.1
Video: MPEG-4 AVC Video / 3492 kbps / 480i / 29,970 fps / 16:9 / High Profile 3.2
Audio: German / LPCM Audio / 2.0 / 48 kHz / 2304 kbps / 24-bit
Audio: German / DTS-HD Master Audio / 5.1 / 48 kHz / 3641 kbps / 24-bit (DTS Core: 5.1 / 48 kHz / 1509 kbps / 24-bit)
Subtitle: German / 14,866 kbps
Subtitle: English / 14,336 kbps
Subtitle: French / 13,693 kbps
Subtitle: Spanish / 14,035 kbps
Subtitle: Italian / 13,066 kbps
Subtitle: Japanese / 14,110 kbps
Subtitle: Korean / 15,461 kbps
********************
PLAYLIST: 00007.MPLS
********************
<--- BEGIN FORUMS PASTE --->Код:
Код:
                                                                                Total   Video
Title                                                           Codec   Length  Movie Size      Disc Size       Bitrate Bitrate Main Audio Track                          Secondary Audio Track
-----                                                           ------  ------- --------------  --------------  ------- ------- ------------------                        ---------------------
00007.MPLS                                                      AVC     0:26:32 3 147 225 600   36 686 627 307  15,81   13,72   LPCM 2.0 1536Kbps (48kHz/16-bit)

Код:
Код:
DISC INFO:
Disc Title:     Моцарт - Похищение из Сераля (Camerata Salzburg) (2013) (Blu-ray 1080i, AVC, DTS-HD 5.1)
Disc Size:      36 686 627 307 bytes
Protection:     AACS
BD-Java:        No
BDInfo:         0.5.8
PLAYLIST REPORT:
Name:                   00007.MPLS
Length:                 0:26:32.991 (h:m:s.ms)
Size:                   3 147 225 600 bytes
Total Bitrate:          15,81 Mbps
VIDEO:
Codec                   Bitrate             Description
-----                   -------             -----------
MPEG-4 AVC Video        13717 kbps          1080i / 29,970 fps / 16:9 / High Profile 4.1
AUDIO:
Codec                           Language        Bitrate         Description
-----                           --------        -------         -----------
LPCM Audio                      German          1536 kbps       2.0 / 48 kHz / 1536 kbps / 16-bit
SUBTITLES:
Codec                           Language        Bitrate         Description
-----                           --------        -------         -----------
Presentation Graphics           English         46,740 kbps
Presentation Graphics           French          50,124 kbps
Presentation Graphics           Japanese        48,115 kbps
Presentation Graphics           Korean          48,393 kbps
FILES:
Name            Time In         Length          Size            Total Bitrate
----            -------         ------          ----            -------------
00010.M2TS      0:00:00.000     0:26:32.657     3 147 213 312   16 450
00000.M2TS      0:26:32.657     0:00:00.333     12 288          295
CHAPTERS:
Number          Time In         Length          Avg Video Rate  Max 1-Sec Rate  Max 1-Sec Time  Max 5-Sec Rate  Max 5-Sec Time  Max 10Sec Rate  Max 10Sec Time  Avg Frame Size  Max Frame Size  Max Frame Time
------          -------         ------          --------------  --------------  --------------  --------------  --------------  --------------  --------------  --------------  --------------  --------------
1               0:00:00.000     0:06:41.334     13 715 kbps     39 612 kbps     00:00:31.131    23 544 kbps     00:03:03.583    21 177 kbps     00:01:43.436    57 200 bytes    687 200 bytes   00:04:01.107
2               0:06:41.334     0:12:40.593     13 755 kbps     34 064 kbps     00:10:17.650    27 551 kbps     00:07:14.033    24 643 kbps     00:15:17.283    57 369 bytes    695 834 bytes   00:17:50.736
3               0:19:21.927     0:07:11.063     11 678 kbps     32 223 kbps     00:24:31.770    26 202 kbps     00:24:28.433    22 103 kbps     00:24:29.334    56 915 bytes    543 337 bytes   00:19:30.936
STREAM DIAGNOSTICS:
File            PID             Type            Codec           Language                Seconds                 Bitrate                 Bytes           Packets
----            ---             ----            -----           --------                --------------          --------------          -------------   -----
00010.M2TS      4113 (0x1011)   0x1B            AVC                                     1545,411                13 589                  2 625 162 606   14 294 357
00010.M2TS      4352 (0x1100)   0x80            LPCM            deu (German)            1545,411                1 542                   297 961 796     1 854 534
00010.M2TS      4608 (0x1200)   0x90            PGS             eng (English)           1545,411                46                      8 944 505       50 988
00010.M2TS      4609 (0x1201)   0x90            PGS             fra (French)            1545,411                50                      9 591 995       54 512
00010.M2TS      4610 (0x1202)   0x90            PGS             jpn (Japanese)          1545,411                48                      9 207 570       52 427
00010.M2TS      4611 (0x1203)   0x90            PGS             kor (Korean)            1545,411                48                      9 260 874       52 715
00000.M2TS      4113 (0x1011)   0x1B            AVC                                     0,200                   244                     6 107           41

<---- END FORUMS PASTE ---->
QUICK SUMMARY:
Disc Title: Моцарт - Похищение из Сераля (Camerata Salzburg) (2013) (Blu-ray 1080i, AVC, DTS-HD 5.1)
Disc Size: 36 686 627 307 bytes
Protection: AACS
BD-Java: No
Playlist: 00007.MPLS
Size: 3 147 225 600 bytes
Length: 0:26:32.991
Total Bitrate: 15,81 Mbps
Video: MPEG-4 AVC Video / 13717 kbps / 1080i / 29,970 fps / 16:9 / High Profile 4.1
Audio: German / LPCM Audio / 2.0 / 48 kHz / 1536 kbps / 16-bit
Subtitle: English / 46,740 kbps
Subtitle: French / 50,124 kbps
Subtitle: Japanese / 48,115 kbps
Subtitle: Korean / 48,393 kbps
********************
PLAYLIST: 00002.MPLS
********************
<--- BEGIN FORUMS PASTE --->Код:
Код:
                                                                                Total   Video
Title                                                           Codec   Length  Movie Size      Disc Size       Bitrate Bitrate Main Audio Track                          Secondary Audio Track
-----                                                           ------  ------- --------------  --------------  ------- ------- ------------------                        ---------------------
00002.MPLS                                                      AVC     0:03:00 386 660 352     36 686 627 307  17,11   13,97   LPCM 2.0 2304Kbps (48kHz/24-bit)

Код:
Код:
DISC INFO:
Disc Title:     Моцарт - Похищение из Сераля (Camerata Salzburg) (2013) (Blu-ray 1080i, AVC, DTS-HD 5.1)
Disc Size:      36 686 627 307 bytes
Protection:     AACS
BD-Java:        No
BDInfo:         0.5.8
PLAYLIST REPORT:
Name:                   00002.MPLS
Length:                 0:03:00.780 (h:m:s.ms)
Size:                   386 660 352 bytes
Total Bitrate:          17,11 Mbps
VIDEO:
Codec                   Bitrate             Description
-----                   -------             -----------
MPEG-4 AVC Video        13970 kbps          1080i / 29,970 fps / 16:9 / High Profile 4.1
AUDIO:
Codec                           Language        Bitrate         Description
-----                           --------        -------         -----------
LPCM Audio                      Undetermined    2304 kbps       2.0 / 48 kHz / 2304 kbps / 24-bit
FILES:
Name            Time In         Length          Size            Total Bitrate
----            -------         ------          ----            -------------
00002.M2TS      0:00:00.000     0:03:00.446     386 648 064     17 142
00000.M2TS      0:03:00.446     0:00:00.333     12 288          295
CHAPTERS:
Number          Time In         Length          Avg Video Rate  Max 1-Sec Rate  Max 1-Sec Time  Max 5-Sec Rate  Max 5-Sec Time  Max 10Sec Rate  Max 10Sec Time  Avg Frame Size  Max Frame Size  Max Frame Time
------          -------         ------          --------------  --------------  --------------  --------------  --------------  --------------  --------------  --------------  --------------  --------------
1               0:00:00.000     0:03:00.780     13 970 kbps     25 849 kbps     00:02:10.263    23 876 kbps     00:02:07.060    22 539 kbps     00:02:02.856    58 268 bytes    321 774 bytes   00:01:26.019
STREAM DIAGNOSTICS:
File            PID             Type            Codec           Language                Seconds                 Bitrate                 Bytes           Packets
----            ---             ----            -----           --------                --------------          --------------          -------------   -----
00002.M2TS      4113 (0x1011)   0x1B            AVC                                     180,347                 14 004                  315 690 959     1 718 890
00002.M2TS      4352 (0x1100)   0x80            LPCM            und (Undetermined)      180,347                 2 313                   52 132 732      288 824
00000.M2TS      4113 (0x1011)   0x1B            AVC                                     0,200                   244                     6 107           41

<---- END FORUMS PASTE ---->
QUICK SUMMARY:
Disc Title: Моцарт - Похищение из Сераля (Camerata Salzburg) (2013) (Blu-ray 1080i, AVC, DTS-HD 5.1)
Disc Size: 36 686 627 307 bytes
Protection: AACS
BD-Java: No
Playlist: 00002.MPLS
Size: 386 660 352 bytes
Length: 0:03:00.780
Total Bitrate: 17,11 Mbps
Video: MPEG-4 AVC Video / 13970 kbps / 1080i / 29,970 fps / 16:9 / High Profile 4.1
Audio: Undetermined / LPCM Audio / 2.0 / 48 kHz / 2304 kbps / 24-bit
********************
PLAYLIST: 00006.MPLS
********************
<--- BEGIN FORUMS PASTE --->Код:
Код:
                                                                                Total   Video
Title                                                           Codec   Length  Movie Size      Disc Size       Bitrate Bitrate Main Audio Track                          Secondary Audio Track
-----                                                           ------  ------- --------------  --------------  ------- ------- ------------------                        ---------------------
00006.MPLS                                                      AVC     0:02:59 384 380 928     36 686 627 307  17,13   13,99   LPCM 2.0 2304Kbps (48kHz/24-bit)

Код:
Код:
DISC INFO:
Disc Title:     Моцарт - Похищение из Сераля (Camerata Salzburg) (2013) (Blu-ray 1080i, AVC, DTS-HD 5.1)
Disc Size:      36 686 627 307 bytes
Protection:     AACS
BD-Java:        No
BDInfo:         0.5.8
PLAYLIST REPORT:
Name:                   00006.MPLS
Length:                 0:02:59.512 (h:m:s.ms)
Size:                   384 380 928 bytes
Total Bitrate:          17,13 Mbps
VIDEO:
Codec                   Bitrate             Description
-----                   -------             -----------
MPEG-4 AVC Video        13990 kbps          1080i / 29,970 fps / 16:9 / High Profile 4.1
AUDIO:
Codec                           Language        Bitrate         Description
-----                           --------        -------         -----------
LPCM Audio                      Undetermined    2304 kbps       2.0 / 48 kHz / 2304 kbps / 24-bit
FILES:
Name            Time In         Length          Size            Total Bitrate
----            -------         ------          ----            -------------
00009.M2TS      0:00:00.000     0:02:59.178     384 368 640     17 161
00000.M2TS      0:02:59.178     0:00:00.333     12 288          295
CHAPTERS:
Number          Time In         Length          Avg Video Rate  Max 1-Sec Rate  Max 1-Sec Time  Max 5-Sec Rate  Max 5-Sec Time  Max 10Sec Rate  Max 10Sec Time  Avg Frame Size  Max Frame Size  Max Frame Time
------          -------         ------          --------------  --------------  --------------  --------------  --------------  --------------  --------------  --------------  --------------  --------------
1               0:00:00.000     0:02:59.512     13 990 kbps     35 207 kbps     00:02:29.983    24 187 kbps     00:02:26.980    21 748 kbps     00:00:35.602    58 349 bytes    443 649 bytes   00:00:48.081
STREAM DIAGNOSTICS:
File            PID             Type            Codec           Language                Seconds                 Bitrate                 Bytes           Packets
----            ---             ----            -----           --------                --------------          --------------          -------------   -----
00009.M2TS      4113 (0x1011)   0x1B            AVC                                     179,046                 14 026                  313 911 147     1 709 195
00009.M2TS      4352 (0x1100)   0x80            LPCM            und (Undetermined)      179,046                 2 312                   51 747 184      286 688
00000.M2TS      4113 (0x1011)   0x1B            AVC                                     0,200                   244                     6 107           41

<---- END FORUMS PASTE ---->
QUICK SUMMARY:
Disc Title: Моцарт - Похищение из Сераля (Camerata Salzburg) (2013) (Blu-ray 1080i, AVC, DTS-HD 5.1)
Disc Size: 36 686 627 307 bytes
Protection: AACS
BD-Java: No
Playlist: 00006.MPLS
Size: 384 380 928 bytes
Length: 0:02:59.512
Total Bitrate: 17,13 Mbps
Video: MPEG-4 AVC Video / 13990 kbps / 1080i / 29,970 fps / 16:9 / High Profile 4.1
Audio: Undetermined / LPCM Audio / 2.0 / 48 kHz / 2304 kbps / 24-bit
********************
PLAYLIST: 00005.MPLS
********************
<--- BEGIN FORUMS PASTE --->Код:
Код:
                                                                                Total   Video
Title                                                           Codec   Length  Movie Size      Disc Size       Bitrate Bitrate Main Audio Track                          Secondary Audio Track
-----                                                           ------  ------- --------------  --------------  ------- ------- ------------------                        ---------------------
00005.MPLS                                                      AVC     0:02:31 311 488 512     36 686 627 307  16,49   13,96   LPCM 2.0 1536Kbps (48kHz/16-bit)

Код:
Код:
DISC INFO:
Disc Title:     Моцарт - Похищение из Сераля (Camerata Salzburg) (2013) (Blu-ray 1080i, AVC, DTS-HD 5.1)
Disc Size:      36 686 627 307 bytes
Protection:     AACS
BD-Java:        No
BDInfo:         0.5.8
PLAYLIST REPORT:
Name:                   00005.MPLS
Length:                 0:02:31.117 (h:m:s.ms)
Size:                   311 488 512 bytes
Total Bitrate:          16,49 Mbps
VIDEO:
Codec                   Bitrate             Description
-----                   -------             -----------
MPEG-4 AVC Video        13965 kbps          1080i / 29,970 fps / 16:9 / High Profile 4.1
AUDIO:
Codec                           Language        Bitrate         Description
-----                           --------        -------         -----------
LPCM Audio                      Undetermined    1536 kbps       2.0 / 48 kHz / 1536 kbps / 16-bit
FILES:
Name            Time In         Length          Size            Total Bitrate
----            -------         ------          ----            -------------
00007.M2TS      0:00:00.000     0:02:30.783     311 476 224     16 526
00000.M2TS      0:02:30.783     0:00:00.333     12 288          295
CHAPTERS:
Number          Time In         Length          Avg Video Rate  Max 1-Sec Rate  Max 1-Sec Time  Max 5-Sec Rate  Max 5-Sec Time  Max 10Sec Rate  Max 10Sec Time  Avg Frame Size  Max Frame Size  Max Frame Time
------          -------         ------          --------------  --------------  --------------  --------------  --------------  --------------  --------------  --------------  --------------  --------------
1               0:00:00.000     0:02:31.117     13 965 kbps     23 242 kbps     00:01:22.348    17 593 kbps     00:02:06.693    17 332 kbps     00:02:04.491    58 245 bytes    470 856 bytes   00:01:07.567
STREAM DIAGNOSTICS:
File            PID             Type            Codec           Language                Seconds                 Bitrate                 Bytes           Packets
----            ---             ----            -----           --------                --------------          --------------          -------------   -----
00007.M2TS      4113 (0x1011)   0x1B            AVC                                     150,717                 14 002                  263 783 836     1 436 272
00007.M2TS      4352 (0x1100)   0x80            LPCM            und (Undetermined)      150,717                 1 543                   29 071 348      180 942
00000.M2TS      4113 (0x1011)   0x1B            AVC                                     0,200                   244                     6 107           41

<---- END FORUMS PASTE ---->
QUICK SUMMARY:
Disc Title: Моцарт - Похищение из Сераля (Camerata Salzburg) (2013) (Blu-ray 1080i, AVC, DTS-HD 5.1)
Disc Size: 36 686 627 307 bytes
Protection: AACS
BD-Java: No
Playlist: 00005.MPLS
Size: 311 488 512 bytes
Length: 0:02:31.117
Total Bitrate: 16,49 Mbps
Video: MPEG-4 AVC Video / 13965 kbps / 1080i / 29,970 fps / 16:9 / High Profile 4.1
Audio: Undetermined / LPCM Audio / 2.0 / 48 kHz / 1536 kbps / 16-bit
********************
PLAYLIST: 00004.MPLS
********************
<--- BEGIN FORUMS PASTE --->Код:
Код:
                                                                                Total   Video
Title                                                           Codec   Length  Movie Size      Disc Size       Bitrate Bitrate Main Audio Track                          Secondary Audio Track
-----                                                           ------  ------- --------------  --------------  ------- ------- ------------------                        ---------------------
00004.MPLS                                                      AVC     0:01:04 133 902 336     36 686 627 307  16,54   14,02   LPCM 2.0 1536Kbps (48kHz/16-bit)

Код:
Код:
DISC INFO:
Disc Title:     Моцарт - Похищение из Сераля (Camerata Salzburg) (2013) (Blu-ray 1080i, AVC, DTS-HD 5.1)
Disc Size:      36 686 627 307 bytes
Protection:     AACS
BD-Java:        No
BDInfo:         0.5.8
PLAYLIST REPORT:
Name:                   00004.MPLS
Length:                 0:01:04.764 (h:m:s.ms)
Size:                   133 902 336 bytes
Total Bitrate:          16,54 Mbps
VIDEO:
Codec                   Bitrate             Description
-----                   -------             -----------
MPEG-4 AVC Video        14019 kbps          1080i / 29,970 fps / 16:9 / High Profile 4.1
AUDIO:
Codec                           Language        Bitrate         Description
-----                           --------        -------         -----------
LPCM Audio                      Undetermined    1536 kbps       2.0 / 48 kHz / 1536 kbps / 16-bit
FILES:
Name            Time In         Length          Size            Total Bitrate
----            -------         ------          ----            -------------
00003.M2TS      0:00:00.000     0:01:04.431     133 890 048     16 624
00000.M2TS      0:01:04.431     0:00:00.333     12 288          295
CHAPTERS:
Number          Time In         Length          Avg Video Rate  Max 1-Sec Rate  Max 1-Sec Time  Max 5-Sec Rate  Max 5-Sec Time  Max 10Sec Rate  Max 10Sec Time  Avg Frame Size  Max Frame Size  Max Frame Time
------          -------         ------          --------------  --------------  --------------  --------------  --------------  --------------  --------------  --------------  --------------  --------------
1               0:00:00.000     0:01:04.764     14 019 kbps     31 368 kbps     00:00:05.538    23 379 kbps     00:00:25.291    22 623 kbps     00:00:25.325    58 472 bytes    323 581 bytes   00:00:33.900
STREAM DIAGNOSTICS:
File            PID             Type            Codec           Language                Seconds                 Bitrate                 Bytes           Packets
----            ---             ----            -----           --------                --------------          --------------          -------------   -----
00003.M2TS      4113 (0x1011)   0x1B            AVC                                     64,298                  14 120                  113 487 244     617 861
00003.M2TS      4352 (0x1100)   0x80            LPCM            und (Undetermined)      64,298                  1 546                   12 423 068      77 322
00000.M2TS      4113 (0x1011)   0x1B            AVC                                     0,200                   244                     6 107           41

<---- END FORUMS PASTE ---->
QUICK SUMMARY:
Disc Title: Моцарт - Похищение из Сераля (Camerata Salzburg) (2013) (Blu-ray 1080i, AVC, DTS-HD 5.1)
Disc Size: 36 686 627 307 bytes
Protection: AACS
BD-Java: No
Playlist: 00004.MPLS
Size: 133 902 336 bytes
Length: 0:01:04.764
Total Bitrate: 16,54 Mbps
Video: MPEG-4 AVC Video / 14019 kbps / 1080i / 29,970 fps / 16:9 / High Profile 4.1
Audio: Undetermined / LPCM Audio / 2.0 / 48 kHz / 1536 kbps / 16-bit
********************
PLAYLIST: 00008.MPLS
********************
<--- BEGIN FORUMS PASTE --->Код:
Код:
                                                                                Total   Video
Title                                                           Codec   Length  Movie Size      Disc Size       Bitrate Bitrate Main Audio Track                          Secondary Audio Track
-----                                                           ------  ------- --------------  --------------  ------- ------- ------------------                        ---------------------
00008.MPLS                                                      AVC     0:01:26 177 881 088     36 686 627 307  16,52   13,99   LPCM 2.0 1536Kbps (48kHz/16-bit)

Код:
Код:
DISC INFO:
Disc Title:     Моцарт - Похищение из Сераля (Camerata Salzburg) (2013) (Blu-ray 1080i, AVC, DTS-HD 5.1)
Disc Size:      36 686 627 307 bytes
Protection:     AACS
BD-Java:        No
BDInfo:         0.5.8
PLAYLIST REPORT:
Name:                   00008.MPLS
Length:                 0:01:26.152 (h:m:s.ms)
Size:                   177 881 088 bytes
Total Bitrate:          16,52 Mbps
VIDEO:
Codec                   Bitrate             Description
-----                   -------             -----------
MPEG-4 AVC Video        13987 kbps          1080i / 29,970 fps / 16:9 / High Profile 4.1
AUDIO:
Codec                           Language        Bitrate         Description
-----                           --------        -------         -----------
LPCM Audio                      Undetermined    1536 kbps       2.0 / 48 kHz / 1536 kbps / 16-bit
FILES:
Name            Time In         Length          Size            Total Bitrate
----            -------         ------          ----            -------------
00008.M2TS      0:00:00.000     0:01:26.152     177 881 088     16 518
CHAPTERS:
Number          Time In         Length          Avg Video Rate  Max 1-Sec Rate  Max 1-Sec Time  Max 5-Sec Rate  Max 5-Sec Time  Max 10Sec Rate  Max 10Sec Time  Avg Frame Size  Max Frame Size  Max Frame Time
------          -------         ------          --------------  --------------  --------------  --------------  --------------  --------------  --------------  --------------  --------------  --------------
1               0:00:00.000     0:01:26.152     13 987 kbps     20 472 kbps     00:00:23.023    18 397 kbps     00:00:22.222    17 212 kbps     00:00:17.217    58 338 bytes    341 072 bytes   00:01:03.263
STREAM DIAGNOSTICS:
File            PID             Type            Codec           Language                Seconds                 Bitrate                 Bytes           Packets
----            ---             ----            -----           --------                --------------          --------------          -------------   -----
00008.M2TS      4113 (0x1011)   0x1B            AVC                                     86,086                  13 998                  150 629 348     820 169
00008.M2TS      4352 (0x1100)   0x80            LPCM            und (Undetermined)      86,086                  1 544                   16 610 684      103 386

<---- END FORUMS PASTE ---->
QUICK SUMMARY:
Disc Title: Моцарт - Похищение из Сераля (Camerata Salzburg) (2013) (Blu-ray 1080i, AVC, DTS-HD 5.1)
Disc Size: 36 686 627 307 bytes
Protection: AACS
BD-Java: No
Playlist: 00008.MPLS
Size: 177 881 088 bytes
Length: 0:01:26.152
Total Bitrate: 16,52 Mbps
Video: MPEG-4 AVC Video / 13987 kbps / 1080i / 29,970 fps / 16:9 / High Profile 4.1
Audio: Undetermined / LPCM Audio / 2.0 / 48 kHz / 1536 kbps / 16-bit
Семпл


Правила, инструкции, FAQ!!!
Торрент  Добавлен [05 июн 2020, 22:52] Скачать торрент Магнет ссылка
Скачать торрент
[ Размер 89.85 КБ / Просмотров 2 ]

Статус
Проверен 
 
Размер  34.17 ГБ
Приватный: Нет (DHT включён)
.torrent скачан  0
 


     Отправить личное сообщение
   
Страница 1 из 1
Показать сообщения за:  Поле сортировки  
Начать новую тему Ответить на тему


Сейчас этот форум просматривают: нет зарегистрированных пользователей и гости: 0


Вы не можете начинать темы
Вы не можете отвечать на сообщения
Вы не можете редактировать свои сообщения
Вы не можете удалять свои сообщения
Вы не можете добавлять вложения

Перейти:  
cron