Начать новую тему Ответить на тему
Статистика раздачи
Размер: 20.42 ГБ | Добавлен: 05 июн 2020, 23:05 | Скачали: 0
Сидеров: 0  [0 байт/сек]    Личеров: 0  [0 байт/сек]
Пред. тема | След. тема 

Автор
Сообщение

СообщениеДобавлено: 05 июн 2020, 23:05 

Ответить с цитатой 

Midsummer Nights Gala Grafenegg 2018: Music by Rossini, Verdi, Bellini, Offenbach, Berlioz, Popper, Giménez, Bernstein, Arditi, Puccini, Elgar
Год выпуска: 2019
Лейбл: C Major
Жанр: Opera, Concert
Продолжительность: 01:16:18
Субтитры: Italian, English, German, French, Korean, Japanese
Дирижер: Yutaka Sado
Исполнители: Pretty Yende (soprano), Joseph Calleja (tenor), Harriet Krijgh (cello)
Tonkunstler Orchestra
Треклист:
Rossini: La gazza ladra Overture
Tonkunstler Orchestra
Yutaka Sado
Pretty Yende (soprano), Joseph Calleja (tenor)
Verdi: Se quel guerrier io fossi!…Celeste Aida (from Aida)
Tonkunstler Orchestra
Yutaka Sado
Pretty Yende (soprano), Joseph Calleja (tenor)

Bellini: O rendetemi la speme...Qui la voce sua soave...Vien, diletto (from I Puritani)
Tonkunstler Orchestra
Yutaka Sado
Pretty Yende (soprano), Joseph Calleja (tenor)

Offenbach: Les Larmes de Jacqueline (No. 3 from Harmonies des bois, Op. 76)
Tonkunstler Orchestra
Yutaka Sado
Harriet Krijgh (cello), Pretty Yende (soprano), Joseph Calleja (tenor)
Berlioz: La Damnation de Faust, Op. 24: Rákóczi March
Tonkunstler Orchestra
Yutaka Sado
Pretty Yende (soprano), Joseph Calleja (tenor)

Popper: Hungarian Rhapsody, Op. 68
Tonkunstler Orchestra
Yutaka Sado
Harriet Krijgh (cello), Pretty Yende (soprano), Joseph Calleja (tenor)

Giménez: Me llaman la primorosa (from El Barbero de Sevilla)
Tonkunstler Orchestra
Yutaka Sado
Pretty Yende (soprano), Joseph Calleja (tenor)

Bernstein: Maria (from West Side Story)
Tonkunstler Orchestra
Yutaka Sado
Pretty Yende (soprano), Joseph Calleja (tenor)

Bernstein: Divertimento for Orchestra: Waltz
Tonkunstler Orchestra
Yutaka Sado
Pretty Yende (soprano), Joseph Calleja (tenor)

Arditi: Il Bacio
Tonkunstler Orchestra
Yutaka Sado
Pretty Yende (soprano), Joseph Calleja (tenor)
Verdi: Aida: Ballabile
Tonkunstler Orchestra
Yutaka Sado
Pretty Yende (soprano), Joseph Calleja (tenor)
Puccini: E lucevan le stelle (from Tosca)
Tonkunstler Orchestra
Yutaka Sado
Pretty Yende (soprano), Joseph Calleja (tenor)

Verdi: Parigi, o cara (from La Traviata)
Tonkunstler Orchestra
Yutaka Sado
Pretty Yende (soprano), Joseph Calleja (tenor)
Elgar: Pomp and Circumstance March No. 1 in D major, Op. 39 No. 1
Tonkunstler Orchestra
Yutaka Sado
Pretty Yende (soprano), Joseph Calleja (tenor)
Описание: The ‘spectacular opening’ (Salzburger Nachrichten) of the Grafenegg Festival 2018 presented at the Midsummer Night's Gala lots of famous opera aria and orchestral hits from Verdi, Puccini, Rossini, Bellini, Offenbach, Elgar and more. The Tonkunstler Orchestra under Yutaka Sado was joined by the ‘terrific singer’ (Kurier) Pretty Yende, her ‘congenial partner’ (Kurier) Joseph Calleja and the wonderful cellist Harriet Krijgh. ‘A feast for the ears’ (Kurier).
Качество видео: Blu-ray 1080i
Формат/Контейнер: BDMV
Видео кодек: H.264
Аудио кодек: PCM, DTS
Видео : MPEG-4 AVC Video / 27835 kbps / 1080i / 29.970 fps / 16:9 / High Profile 4.1
Аудио#1 : LPCM Audio / 2.0 / 48 kHz / 2304 kbps / 24-bit
Аудио#2 : DTS-HD Master Audio / 5.0 / 48 kHz / 3615 kbps / 24-bit (DTS Core: 5.0 / 48 kHz / 1509 kbps / 24-bit)
Код:
Disc Title:     MIDSUMMER NIGHT´S GALA - GRAFENEGG
Disc Label:     Midsummer.Nights.Gala.Grafenegg.2018.Bluray
Disc Size:      21,925,484,339 bytes
Protection:     AACS
BDInfo:         0.7.5.5
Notes:
BDINFO HOME:
  Cinema Squid (old)
    [url=http://www.cinemasquid.com/blu-ray/tools/bdinfo]http://www.cinemasquid.com/blu-ray/tools/bdinfo[/url]
  UniqProject GitHub (new)
   [url=https://github.com/UniqProject/BDInfo]https://github.com/UniqProject/BDInfo[/url]
INCLUDES FORUMS REPORT FOR:
  AVS Forum Blu-ray Audio and Video Specifications Thread
    [url=http://www.avsforum.com/avs-vb/showthread.php?t=1155731]http://www.avsforum.com/avs-vb/showthread.php?t=1155731[/url]
********************
PLAYLIST: 00009.MPLS
********************
<--- BEGIN FORUMS PASTE --->
Код:
Код:
                                                                                Total   Video
Title                                                           Codec   Length  Movie Size      Disc Size       Bitrate Bitrate Main Audio Track                          Secondary Audio Track
-----                                                           ------  ------- --------------  --------------  ------- ------- ------------------                        ---------------------
00009.MPLS                                                      AVC     1:16:18 20,383,088,640  21,925,484,339  35.62   27.83   LPCM 2.0 2304Kbps (48kHz/24-bit)          DTS-HD Master 5.0 3615Kbps (48kHz/24-bit)

Код:
Код:
DISC INFO:
Disc Title:     MIDSUMMER NIGHT´S GALA - GRAFENEGG
Disc Label:     Midsummer.Nights.Gala.Grafenegg.2018.Bluray
Disc Size:      21,925,484,339 bytes
Protection:     AACS
BDInfo:         0.7.5.5
PLAYLIST REPORT:
Name:                   00009.MPLS
Length:                 1:16:18.407 (h:m:s.ms)
Size:                   20,383,088,640 bytes
Total Bitrate:          35.62 Mbps
VIDEO:
Codec                   Bitrate             Description
-----                   -------             -----------
MPEG-4 AVC Video        27835 kbps          1080i / 29.970 fps / 16:9 / High Profile 4.1
AUDIO:
Codec                           Language        Bitrate         Description
-----                           --------        -------         -----------
LPCM Audio                      Undetermined    2304 kbps       2.0 / 48 kHz /  2304 kbps / 24-bit
DTS-HD Master Audio             Undetermined    3615 kbps       5.0 / 48 kHz /  3615 kbps / 24-bit (DTS Core: 5.0 / 48 kHz /  1509 kbps / 24-bit)
SUBTITLES:
Codec                           Language        Bitrate         Description
-----                           --------        -------         -----------
Presentation Graphics           Italian         4.459 kbps
Presentation Graphics           English         3.511 kbps
Presentation Graphics           German          5.111 kbps
Presentation Graphics           French          4.902 kbps
Presentation Graphics           Korean          4.067 kbps
Presentation Graphics           Japanese        4.148 kbps
FILES:
Name            Time In         Length          Size            Total Bitrate
----            -------         ------          ----            -------------
00001.M2TS      0:00:00.000     1:16:08.030     20,381,319,168  35,694
00011.M2TS      1:16:08.030     0:00:10.043     1,757,184       1,400
00000.M2TS      1:16:18.073     0:00:00.333     12,288          295
CHAPTERS:
Number          Time In         Length          Avg Video Rate  Max 1-Sec Rate  Max 1-Sec Time  Max 5-Sec Rate  Max 5-Sec Time  Max 10Sec Rate  Max 10Sec Time  Avg Frame Size  Max Frame Size  Max Frame Time
------          -------         ------          --------------  --------------  --------------  --------------  --------------  --------------  --------------  --------------  --------------  --------------
1               0:00:00.000     0:10:16.015     28,773 kbps     45,374 kbps     00:01:55.782    40,590 kbps     00:00:21.321    37,887 kbps     00:00:17.917    120,002 bytes   778,368 bytes   00:00:26.326
2               0:10:16.015     0:04:23.396     27,138 kbps     45,254 kbps     00:11:14.073    39,469 kbps     00:14:20.960    35,624 kbps     00:14:19.158    113,188 bytes   759,399 bytes   00:13:23.402
3               0:14:39.411     0:07:59.679     28,532 kbps     45,110 kbps     00:15:54.620    38,092 kbps     00:20:41.039    37,022 kbps     00:20:36.034    119,004 bytes   754,476 bytes   00:15:54.820
4               0:22:39.091     0:05:33.099     29,569 kbps     43,215 kbps     00:27:28.513    36,715 kbps     00:24:04.009    35,285 kbps     00:27:19.804    123,329 bytes   628,649 bytes   00:25:31.196
5               0:28:12.190     0:05:03.069     28,807 kbps     40,104 kbps     00:31:46.337    35,910 kbps     00:29:41.479    33,576 kbps     00:29:38.042    120,150 bytes   692,827 bytes   00:32:56.574
6               0:33:15.259     0:10:42.975     29,204 kbps     46,105 kbps     00:41:57.715    41,135 kbps     00:41:55.312    38,208 kbps     00:41:52.743    121,803 bytes   778,088 bytes   00:39:44.682
7               0:43:58.235     0:05:06.706     28,931 kbps     45,509 kbps     00:46:08.699    37,446 kbps     00:48:22.399    35,379 kbps     00:46:32.523    120,665 bytes   749,410 bytes   00:46:04.895
8               0:49:04.942     0:03:11.891     27,435 kbps     45,882 kbps     00:52:01.418    39,054 kbps     00:50:38.735    37,019 kbps     00:51:59.015    114,425 bytes   681,712 bytes   00:50:10.507
9               0:52:16.833     0:02:25.945     28,708 kbps     44,411 kbps     00:53:56.566    40,928 kbps     00:53:52.562    38,299 kbps     00:53:50.694    119,737 bytes   678,809 bytes   00:53:57.567
10              0:54:42.779     0:05:13.212     29,769 kbps     44,009 kbps     00:59:18.855    41,104 kbps     00:59:15.652    37,716 kbps     00:59:13.049    124,160 bytes   689,122 bytes   00:55:04.067
11              0:59:55.992     0:04:52.225     25,021 kbps     41,461 kbps     01:00:03.733    38,885 kbps     01:02:30.980    36,595 kbps     01:02:25.975    104,357 bytes   730,188 bytes   01:00:00.330
12              1:04:48.217     0:03:35.882     23,736 kbps     49,779 kbps     01:08:13.155    36,765 kbps     01:08:12.388    33,896 kbps     01:06:34.523    99,000 bytes    523,996 bytes   01:07:53.836
13              1:08:24.100     0:05:13.046     24,550 kbps     39,808 kbps     01:13:01.143    34,701 kbps     01:13:25.868    32,486 kbps     01:13:12.988    102,395 bytes   554,190 bytes   01:08:31.073
14              1:13:37.146     0:02:30.884     24,768 kbps     47,690 kbps     01:14:40.275    38,726 kbps     01:15:01.697    36,105 kbps     01:14:58.060    103,303 bytes   603,216 bytes   01:14:43.445
15              1:16:08.030     0:00:10.377     1,226 kbps      1,767 kbps      01:16:09.431    1,519 kbps      01:16:08.797    1,267 kbps      01:16:08.030    5,132 bytes     21,711 bytes    01:16:16.038
STREAM DIAGNOSTICS:
File            PID             Type            Codec           Language                Seconds                 Bitrate                 Bytes           Packets
----            ---             ----            -----           --------                --------------          --------------          -------------   -----
00001.M2TS      4113 (0x1011)   0x1B            AVC                                     4567.963                27,896                  15,928,292,377  86,646,704
00001.M2TS      4352 (0x1100)   0x80            LPCM            und (Undetermined)      4567.963                2,310                   1,319,238,400   7,308,800
00001.M2TS      4353 (0x1101)   0x86            DTS-HD MA       und (Undetermined)      4567.963                3,623                   2,068,926,616   11,956,581
00001.M2TS      4608 (0x1200)   0x90            PGS             ita (Italian)           4567.963                4                       2,551,752       14,903
00001.M2TS      4609 (0x1201)   0x90            PGS             eng (English)           4567.963                4                       2,009,571       11,801
00001.M2TS      4610 (0x1202)   0x90            PGS             deu (German)            4567.963                5                       2,924,993       16,936
00001.M2TS      4611 (0x1203)   0x90            PGS             fra (French)            4567.963                5                       2,805,541       16,287
00001.M2TS      4612 (0x1204)   0x90            PGS             kor (Korean)            4567.963                4                       2,327,485       13,688
00001.M2TS      4613 (0x1205)   0x90            PGS             jpn (Japanese)          4567.963                4                       2,374,186       13,936
00011.M2TS      4113 (0x1011)   0x1B            AVC                                     9.910                   1,281                   1,587,250       8,807
00000.M2TS      4113 (0x1011)   0x1B            AVC                                     0.200                   244                     6,108           41

Код:
<---- END FORUMS PASTE ---->
QUICK SUMMARY:
Disc Title: MIDSUMMER NIGHT´S GALA - GRAFENEGG
Disc Label: Midsummer.Nights.Gala.Grafenegg.2018.Bluray
Disc Size: 21,925,484,339 bytes
Protection: AACS
Playlist: 00009.MPLS
Size: 20,383,088,640 bytes
Length: 1:16:18.407
Total Bitrate: 35.62 Mbps
Video: MPEG-4 AVC Video / 27835 kbps / 1080i / 29.970 fps / 16:9 / High Profile 4.1
Audio: Undetermined / LPCM Audio / 2.0 / 48 kHz /  2304 kbps / 24-bit
Audio: Undetermined / DTS-HD Master Audio / 5.0 / 48 kHz /  3615 kbps / 24-bit (DTS Core: 5.0 / 48 kHz /  1509 kbps / 24-bit)
Subtitle: Italian / 4.459 kbps
Subtitle: English / 3.511 kbps
Subtitle: German / 5.111 kbps
Subtitle: French / 4.902 kbps
Subtitle: Korean / 4.067 kbps
Subtitle: Japanese / 4.148 kbps
********************
PLAYLIST: 00004.MPLS
********************
<--- BEGIN FORUMS PASTE --->
Код:
Код:
                                                                                Total   Video
Title                                                           Codec   Length  Movie Size      Disc Size       Bitrate Bitrate Main Audio Track                          Secondary Audio Track
-----                                                           ------  ------- --------------  --------------  ------- ------- ------------------                        ---------------------
00004.MPLS                                                      AVC     0:03:21 430,141,440     21,925,484,339  17.11   13.97   LPCM 2.0 2304Kbps (48kHz/24-bit)

Код:
Код:
DISC INFO:
Disc Title:     MIDSUMMER NIGHT´S GALA - GRAFENEGG
Disc Label:     Midsummer.Nights.Gala.Grafenegg.2018.Bluray
Disc Size:      21,925,484,339 bytes
Protection:     AACS
BDInfo:         0.7.5.5
PLAYLIST REPORT:
Name:                   00004.MPLS
Length:                 0:03:21.067 (h:m:s.ms)
Size:                   430,141,440 bytes
Total Bitrate:          17.11 Mbps
VIDEO:
Codec                   Bitrate             Description
-----                   -------             -----------
MPEG-4 AVC Video        13975 kbps          1080i / 29.970 fps / 16:9 / High Profile 4.1
AUDIO:
Codec                           Language        Bitrate         Description
-----                           --------        -------         -----------
LPCM Audio                      Undetermined    2304 kbps       2.0 / 48 kHz /  2304 kbps / 24-bit
FILES:
Name            Time In         Length          Size            Total Bitrate
----            -------         ------          ----            -------------
00003.M2TS      0:00:00.000     0:03:20.733     430,129,152     17,142
00000.M2TS      0:03:20.733     0:00:00.333     12,288          295
CHAPTERS:
Number          Time In         Length          Avg Video Rate  Max 1-Sec Rate  Max 1-Sec Time  Max 5-Sec Rate  Max 5-Sec Time  Max 10Sec Rate  Max 10Sec Time  Avg Frame Size  Max Frame Size  Max Frame Time
------          -------         ------          --------------  --------------  --------------  --------------  --------------  --------------  --------------  --------------  --------------  --------------
1               0:00:00.000     0:03:21.067     13,975 kbps     22,381 kbps     00:02:53.072    20,722 kbps     00:02:49.869    20,392 kbps     00:02:44.864    58,287 bytes    615,078 bytes   00:02:28.448
STREAM DIAGNOSTICS:
File            PID             Type            Codec           Language                Seconds                 Bitrate                 Bytes           Packets
----            ---             ----            -----           --------                --------------          --------------          -------------   -----
00003.M2TS      4113 (0x1011)   0x1B            AVC                                     200.667                 14,003                  351,233,370     1,912,332
00003.M2TS      4352 (0x1100)   0x80            LPCM            und (Undetermined)      200.667                 2,311                   57,972,268      321,176
00000.M2TS      4113 (0x1011)   0x1B            AVC                                     0.200                   244                     6,108           41

Код:
<---- END FORUMS PASTE ---->
QUICK SUMMARY:
Disc Title: MIDSUMMER NIGHT´S GALA - GRAFENEGG
Disc Label: Midsummer.Nights.Gala.Grafenegg.2018.Bluray
Disc Size: 21,925,484,339 bytes
Protection: AACS
Playlist: 00004.MPLS
Size: 430,141,440 bytes
Length: 0:03:21.067
Total Bitrate: 17.11 Mbps
Video: MPEG-4 AVC Video / 13975 kbps / 1080i / 29.970 fps / 16:9 / High Profile 4.1
Audio: Undetermined / LPCM Audio / 2.0 / 48 kHz /  2304 kbps / 24-bit
********************
PLAYLIST: 00007.MPLS
********************
<--- BEGIN FORUMS PASTE --->
Код:
Код:
                                                                                Total   Video
Title                                                           Codec   Length  Movie Size      Disc Size       Bitrate Bitrate Main Audio Track                          Secondary Audio Track
-----                                                           ------  ------- --------------  --------------  ------- ------- ------------------                        ---------------------
00007.MPLS                                                      AVC     0:01:47 327,524,352     21,925,484,339  24.41   21.55   LPCM 2.0 1536Kbps (48kHz/16-bit)

Код:
Код:
DISC INFO:
Disc Title:     MIDSUMMER NIGHT´S GALA - GRAFENEGG
Disc Label:     Midsummer.Nights.Gala.Grafenegg.2018.Bluray
Disc Size:      21,925,484,339 bytes
Protection:     AACS
BDInfo:         0.7.5.5
PLAYLIST REPORT:
Name:                   00007.MPLS
Length:                 0:01:47.340 (h:m:s.ms)
Size:                   327,524,352 bytes
Total Bitrate:          24.41 Mbps
VIDEO:
Codec                   Bitrate             Description
-----                   -------             -----------
MPEG-4 AVC Video        21550 kbps          1080i / 29.970 fps / 16:9 / High Profile 4.1
AUDIO:
Codec                           Language        Bitrate         Description
-----                           --------        -------         -----------
LPCM Audio                      Undetermined    1536 kbps       2.0 / 48 kHz /  1536 kbps / 16-bit
FILES:
Name            Time In         Length          Size            Total Bitrate
----            -------         ------          ----            -------------
00009.M2TS      0:00:00.000     0:01:47.006     327,512,064     24,485
00000.M2TS      0:01:47.006     0:00:00.333     12,288          295
CHAPTERS:
Number          Time In         Length          Avg Video Rate  Max 1-Sec Rate  Max 1-Sec Time  Max 5-Sec Rate  Max 5-Sec Time  Max 10Sec Rate  Max 10Sec Time  Avg Frame Size  Max Frame Size  Max Frame Time
------          -------         ------          --------------  --------------  --------------  --------------  --------------  --------------  --------------  --------------  --------------  --------------
1               0:00:00.000     0:01:47.340     21,550 kbps     42,297 kbps     00:00:08.475    37,924 kbps     00:00:04.471    26,793 kbps     00:00:50.717    89,882 bytes    365,483 bytes   00:00:13.813
STREAM DIAGNOSTICS:
File            PID             Type            Codec           Language                Seconds                 Bitrate                 Bytes           Packets
----            ---             ----            -----           --------                --------------          --------------          -------------   -----
00009.M2TS      4113 (0x1011)   0x1B            AVC                                     106.940                 21,630                  289,143,784     1,574,972
00009.M2TS      4352 (0x1100)   0x80            LPCM            und (Undetermined)      106.940                 1,529                   20,438,728      127,212
00000.M2TS      4113 (0x1011)   0x1B            AVC                                     0.200                   244                     6,108           41

Код:
<---- END FORUMS PASTE ---->
QUICK SUMMARY:
Disc Title: MIDSUMMER NIGHT´S GALA - GRAFENEGG
Disc Label: Midsummer.Nights.Gala.Grafenegg.2018.Bluray
Disc Size: 21,925,484,339 bytes
Protection: AACS
Playlist: 00007.MPLS
Size: 327,524,352 bytes
Length: 0:01:47.340
Total Bitrate: 24.41 Mbps
Video: MPEG-4 AVC Video / 21550 kbps / 1080i / 29.970 fps / 16:9 / High Profile 4.1
Audio: Undetermined / LPCM Audio / 2.0 / 48 kHz /  1536 kbps / 16-bit
********************
PLAYLIST: 00005.MPLS
********************
<--- BEGIN FORUMS PASTE --->
Код:
Код:
                                                                                Total   Video
Title                                                           Codec   Length  Movie Size      Disc Size       Bitrate Bitrate Main Audio Track                          Secondary Audio Track
-----                                                           ------  ------- --------------  --------------  ------- ------- ------------------                        ---------------------
00005.MPLS                                                      AVC     0:01:20 249,139,200     21,925,484,339  24.77   21.90   LPCM 2.0 1536Kbps (48kHz/16-bit)

Код:
Код:
DISC INFO:
Disc Title:     MIDSUMMER NIGHT´S GALA - GRAFENEGG
Disc Label:     Midsummer.Nights.Gala.Grafenegg.2018.Bluray
Disc Size:      21,925,484,339 bytes
Protection:     AACS
BDInfo:         0.7.5.5
PLAYLIST REPORT:
Name:                   00005.MPLS
Length:                 0:01:20.480 (h:m:s.ms)
Size:                   249,139,200 bytes
Total Bitrate:          24.77 Mbps
VIDEO:
Codec                   Bitrate             Description
-----                   -------             -----------
MPEG-4 AVC Video        21899 kbps          1080i / 29.970 fps / 16:9 / High Profile 4.1
AUDIO:
Codec                           Language        Bitrate         Description
-----                           --------        -------         -----------
LPCM Audio                      Undetermined    1536 kbps       2.0 / 48 kHz /  1536 kbps / 16-bit
FILES:
Name            Time In         Length          Size            Total Bitrate
----            -------         ------          ----            -------------
00005.M2TS      0:00:00.000     0:01:20.146     249,126,912     24,867
00000.M2TS      0:01:20.146     0:00:00.333     12,288          295
CHAPTERS:
Number          Time In         Length          Avg Video Rate  Max 1-Sec Rate  Max 1-Sec Time  Max 5-Sec Rate  Max 5-Sec Time  Max 10Sec Rate  Max 10Sec Time  Avg Frame Size  Max Frame Size  Max Frame Time
------          -------         ------          --------------  --------------  --------------  --------------  --------------  --------------  --------------  --------------  --------------  --------------
1               0:00:00.000     0:01:20.480     21,899 kbps     34,426 kbps     00:00:06.773    32,272 kbps     00:00:13.146    31,474 kbps     00:00:12.612    91,336 bytes    379,179 bytes   00:00:22.255
STREAM DIAGNOSTICS:
File            PID             Type            Codec           Language                Seconds                 Bitrate                 Bytes           Packets
----            ---             ----            -----           --------                --------------          --------------          -------------   -----
00005.M2TS      4113 (0x1011)   0x1B            AVC                                     80.013                  22,026                  220,296,016     1,198,641
00005.M2TS      4352 (0x1100)   0x80            LPCM            und (Undetermined)      80.013                  1,545                   15,452,920      96,180
00000.M2TS      4113 (0x1011)   0x1B            AVC                                     0.200                   244                     6,108           41

Код:
<---- END FORUMS PASTE ---->
QUICK SUMMARY:
Disc Title: MIDSUMMER NIGHT´S GALA - GRAFENEGG
Disc Label: Midsummer.Nights.Gala.Grafenegg.2018.Bluray
Disc Size: 21,925,484,339 bytes
Protection: AACS
Playlist: 00005.MPLS
Size: 249,139,200 bytes
Length: 0:01:20.480
Total Bitrate: 24.77 Mbps
Video: MPEG-4 AVC Video / 21899 kbps / 1080i / 29.970 fps / 16:9 / High Profile 4.1
Audio: Undetermined / LPCM Audio / 2.0 / 48 kHz /  1536 kbps / 16-bit
********************
PLAYLIST: 00006.MPLS
********************
<--- BEGIN FORUMS PASTE --->
Код:
Код:
                                                                                Total   Video
Title                                                           Codec   Length  Movie Size      Disc Size       Bitrate Bitrate Main Audio Track                          Secondary Audio Track
-----                                                           ------  ------- --------------  --------------  ------- ------- ------------------                        ---------------------
00006.MPLS                                                      AVC     0:01:19 224,698,368     21,925,484,339  22.68   19.90   LPCM 2.0 1536Kbps (48kHz/16-bit)

Код:
Код:
DISC INFO:
Disc Title:     MIDSUMMER NIGHT´S GALA - GRAFENEGG
Disc Label:     Midsummer.Nights.Gala.Grafenegg.2018.Bluray
Disc Size:      21,925,484,339 bytes
Protection:     AACS
BDInfo:         0.7.5.5
PLAYLIST REPORT:
Name:                   00006.MPLS
Length:                 0:01:19.245 (h:m:s.ms)
Size:                   224,698,368 bytes
Total Bitrate:          22.68 Mbps
VIDEO:
Codec                   Bitrate             Description
-----                   -------             -----------
MPEG-4 AVC Video        19904 kbps          1080i / 29.970 fps / 16:9 / High Profile 4.1
AUDIO:
Codec                           Language        Bitrate         Description
-----                           --------        -------         -----------
LPCM Audio                      Undetermined    1536 kbps       2.0 / 48 kHz /  1536 kbps / 16-bit
FILES:
Name            Time In         Length          Size            Total Bitrate
----            -------         ------          ----            -------------
00007.M2TS      0:00:00.000     0:01:18.912     224,686,080     22,778
00000.M2TS      0:01:18.912     0:00:00.333     12,288          295
CHAPTERS:
Number          Time In         Length          Avg Video Rate  Max 1-Sec Rate  Max 1-Sec Time  Max 5-Sec Rate  Max 5-Sec Time  Max 10Sec Rate  Max 10Sec Time  Avg Frame Size  Max Frame Size  Max Frame Time
------          -------         ------          --------------  --------------  --------------  --------------  --------------  --------------  --------------  --------------  --------------  --------------
1               0:00:00.000     0:01:19.245     19,904 kbps     44,190 kbps     00:00:09.776    29,680 kbps     00:00:45.912    25,956 kbps     00:00:42.042    83,015 bytes    409,924 bytes   00:00:59.459
STREAM DIAGNOSTICS:
File            PID             Type            Codec           Language                Seconds                 Bitrate                 Bytes           Packets
----            ---             ----            -----           --------                --------------          --------------          -------------   -----
00007.M2TS      4113 (0x1011)   0x1B            AVC                                     78.845                  20,004                  197,153,658     1,072,877
00007.M2TS      4352 (0x1100)   0x80            LPCM            und (Undetermined)      78.845                  1,544                   15,214,812      94,698
00000.M2TS      4113 (0x1011)   0x1B            AVC                                     0.200                   244                     6,108           41

Код:
<---- END FORUMS PASTE ---->
QUICK SUMMARY:
Disc Title: MIDSUMMER NIGHT´S GALA - GRAFENEGG
Disc Label: Midsummer.Nights.Gala.Grafenegg.2018.Bluray
Disc Size: 21,925,484,339 bytes
Protection: AACS
Playlist: 00006.MPLS
Size: 224,698,368 bytes
Length: 0:01:19.245
Total Bitrate: 22.68 Mbps
Video: MPEG-4 AVC Video / 19904 kbps / 1080i / 29.970 fps / 16:9 / High Profile 4.1
Audio: Undetermined / LPCM Audio / 2.0 / 48 kHz /  1536 kbps / 16-bit
********************
PLAYLIST: 00002.MPLS
********************
<--- BEGIN FORUMS PASTE --->
Код:
Код:
                                                                                Total   Video
Title                                                           Codec   Length  Movie Size      Disc Size       Bitrate Bitrate Main Audio Track                          Secondary Audio Track
-----                                                           ------  ------- --------------  --------------  ------- ------- ------------------                        ---------------------
00002.MPLS                                                      AVC     0:01:09 142,565,376     21,925,484,339  16.42   13.90   LPCM 2.0 1536Kbps (48kHz/16-bit)

Код:
Код:
DISC INFO:
Disc Title:     MIDSUMMER NIGHT´S GALA - GRAFENEGG
Disc Label:     Midsummer.Nights.Gala.Grafenegg.2018.Bluray
Disc Size:      21,925,484,339 bytes
Protection:     AACS
BDInfo:         0.7.5.5
PLAYLIST REPORT:
Name:                   00002.MPLS
Length:                 0:01:09.469 (h:m:s.ms)
Size:                   142,565,376 bytes
Total Bitrate:          16.42 Mbps
VIDEO:
Codec                   Bitrate             Description
-----                   -------             -----------
MPEG-4 AVC Video        13900 kbps          1080i / 29.970 fps / 16:9 / High Profile 4.1
AUDIO:
Codec                           Language        Bitrate         Description
-----                           --------        -------         -----------
LPCM Audio                      Undetermined    1536 kbps       2.0 / 48 kHz /  1536 kbps / 16-bit
FILES:
Name            Time In         Length          Size            Total Bitrate
----            -------         ------          ----            -------------
00002.M2TS      0:00:00.000     0:01:09.135     142,553,088     16,495
00000.M2TS      0:01:09.135     0:00:00.333     12,288          295
CHAPTERS:
Number          Time In         Length          Avg Video Rate  Max 1-Sec Rate  Max 1-Sec Time  Max 5-Sec Rate  Max 5-Sec Time  Max 10Sec Rate  Max 10Sec Time  Avg Frame Size  Max Frame Size  Max Frame Time
------          -------         ------          --------------  --------------  --------------  --------------  --------------  --------------  --------------  --------------  --------------  --------------
1               0:00:00.000     0:01:09.469     13,900 kbps     24,903 kbps     00:00:56.890    22,447 kbps     00:00:44.210    22,107 kbps     00:00:39.205    57,973 bytes    605,709 bytes   00:00:57.857
STREAM DIAGNOSTICS:
File            PID             Type            Codec           Language                Seconds                 Bitrate                 Bytes           Packets
----            ---             ----            -----           --------                --------------          --------------          -------------   -----
00002.M2TS      4113 (0x1011)   0x1B            AVC                                     69.069                  13,979                  120,693,260     657,174
00002.M2TS      4352 (0x1100)   0x80            LPCM            und (Undetermined)      69.069                  1,544                   13,330,192      82,968
00000.M2TS      4113 (0x1011)   0x1B            AVC                                     0.200                   244                     6,108           41

Код:
<---- END FORUMS PASTE ---->
QUICK SUMMARY:
Disc Title: MIDSUMMER NIGHT´S GALA - GRAFENEGG
Disc Label: Midsummer.Nights.Gala.Grafenegg.2018.Bluray
Disc Size: 21,925,484,339 bytes
Protection: AACS
Playlist: 00002.MPLS
Size: 142,565,376 bytes
Length: 0:01:09.469
Total Bitrate: 16.42 Mbps
Video: MPEG-4 AVC Video / 13900 kbps / 1080i / 29.970 fps / 16:9 / High Profile 4.1
Audio: Undetermined / LPCM Audio / 2.0 / 48 kHz /  1536 kbps / 16-bit
#777
Правила, инструкции, FAQ!!!
Торрент  Добавлен [05 июн 2020, 23:05] Скачать торрент Магнет ссылка
Скачать торрент
[ Размер 106.1 КБ / Просмотров 3 ]

Статус
Проверен 
 
Размер  20.42 ГБ
Приватный: Нет (DHT включён)
.torrent скачан  0
 


     Отправить личное сообщение
   
Страница 1 из 1
Показать сообщения за:  Поле сортировки  
Начать новую тему Ответить на тему


Сейчас этот форум просматривают: нет зарегистрированных пользователей и гости: 0


Вы не можете начинать темы
Вы не можете отвечать на сообщения
Вы не можете редактировать свои сообщения
Вы не можете удалять свои сообщения
Вы не можете добавлять вложения

Перейти:  
cron