Начать новую тему Ответить на тему
Статистика раздачи
Размер: 134.78 МБ | Добавлен: 01 июл 2020, 11:47 | Скачали: 0
Сидеров: 0  [0 байт/сек]    Личеров: 0  [0 байт/сек]
Пред. тема | След. тема 

Автор
Сообщение

СообщениеДобавлено: 01 июл 2020, 11:47 

Ответить с цитатой 

Yuyoyuppe (ゆよゆっぺ) feat. Hatsune Miku & Megurine Luka / Story of Hope
Жанр: Metalcore, Hardcore, Vocaloid
Страна: Japan
Год издания: 2012
Аудиокодек: MP3
Тип рипа: tracks
Битрейт аудио: 320 kbps
Продолжительность: 00:58:04
Наличие сканов в содержимом раздачи: да
Треклист:
01. Intro
02. Story of Hope(巡音ルカ)
03.「S」(巡音ルカ)
04. Thunder Girl(巡音ルカ)
05. Palette(巡音ルカ)
06. Leia(巡音ルカ)
07. Reon(巡音ルカ)
08. Hope(初音ミク)
09. Lost Story(初音ミク)
10. For a Dead Girl+(巡音ルカ)
11. ALONE(巡音ルカ)
12. Blue(初音ミク)
13. カミノコトバ(初音ミクAppend)
14. The last 8 bars(初音ミク)
15. 7/8(巡音ルカ)
Bonus
16. Hope - My Eggplant Died Yesterday Ver.
ゆよゆっぺ (Yuyoyuppe) — продюсер дебютировавший в сентябре 2008-го. Он пишет хард рок и скримо музыку. На данный момент, один из самых популярных продюсеров Vocarock музыки.
Финальный альбом композитора Yuyoyuppe, в который вошли все самые лучшие песни, сочиненные за последние несколько лет
Yuyoyuppe
X Lossless Decoder version 20120908 (141.1)
XLD extraction logfile from 2012-09-28 17:52:42 -0400
ゆよゆっぺ / Story of Hope
Used drive : MATSHITA DVD-R UJ-868 (revision KB19)
Ripper mode : XLD Secure Ripper
Disable audio cache : OK for the drive with a cache less than 1375KiB
Make use of C2 pointers : NO
Read offset correction : 102
Max retry count : 100
Gap status : Analyzed, Appended (except HTOA)
TOC of the extracted CD
Track | Start | Length | Start sector | End sector
---------------------------------------------------------
1 | 00:00:00 | 01:37:13 | 0 | 7287
2 | 01:37:13 | 03:40:24 | 7288 | 23811
3 | 05:17:37 | 03:25:12 | 23812 | 39198
4 | 08:42:49 | 04:03:72 | 39199 | 57495
5 | 12:46:46 | 03:45:59 | 57496 | 74429
6 | 16:32:30 | 03:57:63 | 74430 | 92267
7 | 20:30:18 | 03:43:13 | 92268 | 109005
8 | 24:13:31 | 03:19:06 | 109006 | 123936
9 | 27:32:37 | 03:17:68 | 123937 | 138779
10 | 30:50:30 | 04:15:01 | 138780 | 157905
11 | 35:05:31 | 03:19:24 | 157906 | 172854
12 | 38:24:55 | 03:24:20 | 172855 | 188174
13 | 41:49:00 | 04:47:67 | 188175 | 209766
14 | 46:36:67 | 04:17:04 | 209767 | 229045
15 | 50:53:71 | 03:49:54 | 229046 | 246274
16 | 54:43:50 | 03:21:24 | 246275 | 261373
AccurateRip Summary
Disc not found in AccurateRip DB.
All Tracks
Album gain : -11.19 dB
Peak : 1.000000
Statistics
Read error : 0
Jitter error (maybe fixed) : 0
Retry sector count : 0
Damaged sector count : 0
Track 01
Filename : /Users/Veto/Desktop/ゆよゆっぺ - Story of Hope [FLAC]/01 ゆよゆっぺ - Intro.flac
Pre-gap length : 00:02:00
Track gain : -1.16 dB
Peak : 0.805969
CRC32 hash (test run) : 91EEB7C5
CRC32 hash : 91EEB7C5
CRC32 hash (skip zero) : 44A0F934
AccurateRip v1 signature : 376BF535
AccurateRip v2 signature : 71C1B43B
->Track not present in AccurateRip database.
Statistics
Read error : 0
Jitter error (maybe fixed) : 0
Retry sector count : 0
Damaged sector count : 0
Track 02
Filename : /Users/Veto/Desktop/ゆよゆっぺ - Story of Hope [FLAC]/02 ゆよゆっぺ - Story of Hope.flac
Track gain : -11.07 dB
Peak : 0.999969
CRC32 hash (test run) : 4E1987EF
CRC32 hash : 4E1987EF
CRC32 hash (skip zero) : 08F6F306
AccurateRip v1 signature : A2E0672F
AccurateRip v2 signature : B7D06E9C
->Track not present in AccurateRip database.
Statistics
Read error : 0
Jitter error (maybe fixed) : 0
Retry sector count : 0
Damaged sector count : 0
Track 03
Filename : /Users/Veto/Desktop/ゆよゆっぺ - Story of Hope [FLAC]/03 ゆよゆっぺ - 「S」.flac
Track gain : -11.40 dB
Peak : 0.999542
CRC32 hash (test run) : F70B129C
CRC32 hash : F70B129C
CRC32 hash (skip zero) : 96196ED9
AccurateRip v1 signature : 001C2FA8
AccurateRip v2 signature : 4EFD60C9
->Track not present in AccurateRip database.
Statistics
Read error : 0
Jitter error (maybe fixed) : 0
Retry sector count : 0
Damaged sector count : 0
Track 04
Filename : /Users/Veto/Desktop/ゆよゆっぺ - Story of Hope [FLAC]/04 ゆよゆっぺ - Thunder Girl.flac
Pre-gap length : 00:00:45
Track gain : -10.91 dB
Peak : 1.000000
CRC32 hash (test run) : B5FC31E2
CRC32 hash : B5FC31E2
CRC32 hash (skip zero) : 57D27B06
AccurateRip v1 signature : 99265F18
AccurateRip v2 signature : D8DD6321
->Track not present in AccurateRip database.
Statistics
Read error : 0
Jitter error (maybe fixed) : 0
Retry sector count : 0
Damaged sector count : 0
Track 05
Filename : /Users/Veto/Desktop/ゆよゆっぺ - Story of Hope [FLAC]/05 ゆよゆっぺ - Palette.flac
Pre-gap length : 00:01:07
Track gain : -11.08 dB
Peak : 0.999969
CRC32 hash (test run) : EA4099BB
CRC32 hash : EA4099BB
CRC32 hash (skip zero) : 3F280C74
AccurateRip v1 signature : 4C3634AE
AccurateRip v2 signature : B51E9120
->Track not present in AccurateRip database.
Statistics
Read error : 0
Jitter error (maybe fixed) : 0
Retry sector count : 0
Damaged sector count : 0
Track 06
Filename : /Users/Veto/Desktop/ゆよゆっぺ - Story of Hope [FLAC]/06 ゆよゆっぺ - Leia.flac
Pre-gap length : 00:01:08
Track gain : -11.43 dB
Peak : 0.999969
CRC32 hash (test run) : DBDBD405
CRC32 hash : DBDBD405
CRC32 hash (skip zero) : ECD7FBA1
AccurateRip v1 signature : D6FC8232
AccurateRip v2 signature : FCD807BC
->Track not present in AccurateRip database.
Statistics
Read error : 0
Jitter error (maybe fixed) : 0
Retry sector count : 0
Damaged sector count : 0
Track 07
Filename : /Users/Veto/Desktop/ゆよゆっぺ - Story of Hope [FLAC]/07 ゆよゆっぺ - Reon.flac
Track gain : -11.17 dB
Peak : 0.999969
CRC32 hash (test run) : 0102D022
CRC32 hash : 0102D022
CRC32 hash (skip zero) : 4202DB0F
AccurateRip v1 signature : 6CDE6ADF
AccurateRip v2 signature : B21B3C3B
->Track not present in AccurateRip database.
Statistics
Read error : 0
Jitter error (maybe fixed) : 0
Retry sector count : 0
Damaged sector count : 0
Track 08
Filename : /Users/Veto/Desktop/ゆよゆっぺ - Story of Hope [FLAC]/08 ゆよゆっぺ - Hope.flac
Pre-gap length : 00:01:07
Track gain : -11.58 dB
Peak : 0.999359
CRC32 hash (test run) : B0A698FB
CRC32 hash : B0A698FB
CRC32 hash (skip zero) : DBCF8E41
AccurateRip v1 signature : 4EE917BD
AccurateRip v2 signature : 7900351A
->Track not present in AccurateRip database.
Statistics
Read error : 0
Jitter error (maybe fixed) : 0
Retry sector count : 0
Damaged sector count : 0
Track 09
Filename : /Users/Veto/Desktop/ゆよゆっぺ - Story of Hope [FLAC]/09 ゆよゆっぺ - Lost Story.flac
Track gain : -11.75 dB
Peak : 0.999512
CRC32 hash (test run) : B2C1E64B
CRC32 hash : B2C1E64B
CRC32 hash (skip zero) : 85F429E1
AccurateRip v1 signature : 943D2942
AccurateRip v2 signature : 62D5774C
->Track not present in AccurateRip database.
Statistics
Read error : 0
Jitter error (maybe fixed) : 0
Retry sector count : 0
Damaged sector count : 0
Track 10
Filename : /Users/Veto/Desktop/ゆよゆっぺ - Story of Hope [FLAC]/10 ゆよゆっぺ - For a Dead Girl+.flac
Pre-gap length : 00:02:08
Track gain : -10.89 dB
Peak : 0.999969
CRC32 hash (test run) : 856518A8
CRC32 hash : 856518A8
CRC32 hash (skip zero) : DBE29D1E
AccurateRip v1 signature : BFC6246F
AccurateRip v2 signature : DDBD1CDC
->Track not present in AccurateRip database.
Statistics
Read error : 0
Jitter error (maybe fixed) : 0
Retry sector count : 0
Damaged sector count : 0
Track 11
Filename : /Users/Veto/Desktop/ゆよゆっぺ - Story of Hope [FLAC]/11 ゆよゆっぺ - ALONE.flac
Pre-gap length : 00:01:45
Track gain : -10.43 dB
Peak : 0.999969
CRC32 hash (test run) : F9B7C7FF
CRC32 hash : F9B7C7FF
CRC32 hash (skip zero) : 8C528EDF
AccurateRip v1 signature : 7AEAF441
AccurateRip v2 signature : 020E8276
->Track not present in AccurateRip database.
Statistics
Read error : 0
Jitter error (maybe fixed) : 0
Retry sector count : 0
Damaged sector count : 0
Track 12
Filename : /Users/Veto/Desktop/ゆよゆっぺ - Story of Hope [FLAC]/12 ゆよゆっぺ - Blue.flac
Pre-gap length : 00:01:08
Track gain : -11.63 dB
Peak : 0.999878
CRC32 hash (test run) : 2C02CDD2
CRC32 hash : 2C02CDD2
CRC32 hash (skip zero) : F1EA40F4
AccurateRip v1 signature : 4CF40820
AccurateRip v2 signature : DE89C205
->Track not present in AccurateRip database.
Statistics
Read error : 0
Jitter error (maybe fixed) : 0
Retry sector count : 0
Damaged sector count : 0
Track 13
Filename : /Users/Veto/Desktop/ゆよゆっぺ - Story of Hope [FLAC]/13 ゆよゆっぺ - カミノコトバ.flac
Pre-gap length : 00:02:07
Track gain : -6.26 dB
Peak : 0.998444
CRC32 hash (test run) : F7688B20
CRC32 hash : F7688B20
CRC32 hash (skip zero) : 900D96C5
AccurateRip v1 signature : E8A3A830
AccurateRip v2 signature : C0AA14FF
->Track not present in AccurateRip database.
Statistics
Read error : 0
Jitter error (maybe fixed) : 0
Retry sector count : 0
Damaged sector count : 0
Track 14
Filename : /Users/Veto/Desktop/ゆよゆっぺ - Story of Hope [FLAC]/14 ゆよゆっぺ - The last 8 bars.flac
Pre-gap length : 00:01:45
Track gain : -5.90 dB
Peak : 0.998169
CRC32 hash (test run) : EC71FB79
CRC32 hash : EC71FB79
CRC32 hash (skip zero) : 6999F40F
AccurateRip v1 signature : 15A1BFF6
AccurateRip v2 signature : 169DFD5A
->Track not present in AccurateRip database.
Statistics
Read error : 0
Jitter error (maybe fixed) : 0
Retry sector count : 0
Damaged sector count : 0
Track 15
Filename : /Users/Veto/Desktop/ゆよゆっぺ - Story of Hope [FLAC]/15 ゆよゆっぺ - 7/8.flac
Pre-gap length : 00:01:45
Track gain : -6.01 dB
Peak : 0.998505
CRC32 hash (test run) : ACDACF30
CRC32 hash : ACDACF30
CRC32 hash (skip zero) : E8872928
AccurateRip v1 signature : 653BC70A
AccurateRip v2 signature : 95B5DF2D
->Track not present in AccurateRip database.
Statistics
Read error : 0
Jitter error (maybe fixed) : 0
Retry sector count : 0
Damaged sector count : 0
Track 16
Filename : /Users/Veto/Desktop/ゆよゆっぺ - Story of Hope [FLAC]/16 My Eggplant Died Yesterday - Hope (My Eggplant Died Yesterday ver.).flac
Pre-gap length : 00:03:08
Track gain : -10.49 dB
Peak : 0.999847
CRC32 hash (test run) : D7085A20
CRC32 hash : D7085A20
CRC32 hash (skip zero) : E36A7E8F
AccurateRip v1 signature : 11D14584
AccurateRip v2 signature : 36270336
->Track not present in AccurateRip database.
Statistics
Read error : 0
Jitter error (maybe fixed) : 0
Retry sector count : 0
Damaged sector count : 0
No errors occurred
End of status report
Теги у рипа профикшены, жанры по-песенно указаны
Facebook
Last.fm
Правила, инструкции, FAQ!!!
Торрент  Добавлен [01 июл 2020, 11:47] Скачать торрент Магнет ссылка
Скачать торрент
[ Размер 12.16 КБ / Просмотров 5 ]

Статус
Проверен 
 
Размер  134.78 МБ
Приватный: Нет (DHT включён)
.torrent скачан  0
 


     Отправить личное сообщение
   
Страница 1 из 1
Показать сообщения за:  Поле сортировки  
Начать новую тему Ответить на тему


Сейчас этот форум просматривают: нет зарегистрированных пользователей и гости: 0


Вы не можете начинать темы
Вы не можете отвечать на сообщения
Вы не можете редактировать свои сообщения
Вы не можете удалять свои сообщения
Вы не можете добавлять вложения

Перейти:  
cron