Начать новую тему Ответить на тему
Статистика раздачи
Размер: 610.84 МБ | Добавлен: 01 ноя 2020, 18:57 | Скачали: 2
Сидеров: 9  [0 байт/сек]    Личеров: 3  [0 байт/сек]
Пред. тема | След. тема 

Автор
Сообщение

СообщениеДобавлено: 01 ноя 2020, 18:57 

Ответить с цитатой 




Best of Black Sabbath
Redux





• Жанр: Metal
• Носитель: STREAM
• Год издания: 2020
• Издатель: Magnetic Eye Records
• Аудиокодек: FLAC (*.flac)
• Тип рипа: tracks
• Продолжительность: 01:27:37
• Источник: deezer
• Наличие сканов: front
Tracklist:
01 - Earthless - Never Say Die (00:04:03)
02 - Caustic Casanova - Wicked World (00:06:19)
03 - Summoner - A National Acrobat (00:06:24)
04 - Black Electric - Sweet Leaf (00:05:14)
05 - Rwake - The Rwrit (00:09:37)
06 - Ginsburg-Margera-Reeder-Rota - N.I.B (00:05:41)
07 - Year of the Cobra - Planet Caravan (00:05:58)
08 - Hippie Death Cult - Fairies Wear Boots (00:06:37)
09 - Leather Lung - Hole in the Sky (00:04:22)
10 - Mooner - The Wizard (00:04:04)
11 - Solace - Electric Funeral (00:06:34)
12 - Howling Giant - Lord of This World (00:06:04)
13 - Elephant Tree - Paranoid (00:02:49)
14 - Brume - Solitude (00:06:00)
15 - Saint Karloff - Sleeping Village (00:07:43)

Код:
foobar2000 1.4.2 / Dynamic Range Meter 1.1.1
log date: 2020-10-31 17:31:01
--------------------------------------------------------------------------------
Analyzed: Black Electric / Best of Black Sabbath (Redux) (1)
          Brume / Best of Black Sabbath (Redux) (2)
          Caustic Casanova / Best of Black Sabbath (Redux) (3)
          Earthless / Best of Black Sabbath (Redux) (4)
          Elephant Tree / Best of Black Sabbath (Redux) (5)
          Ginsburg/Margera/Reeder/Rota / Best of Black Sabbath (Redux) (6)
          Hippie Death Cult / Best of Black Sabbath (Redux) (7)
          Howling Giant / Best of Black Sabbath (Redux) (8)
          Leather Lung / Best of Black Sabbath (Redux) (9)
          Mooner / Best of Black Sabbath (Redux) (10)
          Rwake / Best of Black Sabbath (Redux) (11)
          Saint Karloff / Best of Black Sabbath (Redux) (12)
          Solace / Best of Black Sabbath (Redux) (13)
          Summoner / Best of Black Sabbath (Redux) (14)
          Year of the Cobra / Best of Black Sabbath (Redux) (15)
--------------------------------------------------------------------------------
DR         Peak         RMS     Duration Track
--------------------------------------------------------------------------------
DR6       -1.00 dB    -7.66 dB      5:15 04-Sweet Leaf
DR5       -0.99 dB   -10.16 dB      6:00 14-Solitude
DR6       -1.00 dB    -8.17 dB      6:19 02-Wicked World
DR5       -0.99 dB    -7.65 dB      4:04 01-Never Say Die
DR6       -1.00 dB    -8.07 dB      2:50 13-Paranoid
DR7       -1.00 dB    -9.06 dB      5:42 06-N.I.B
DR7       -1.00 dB    -8.54 dB      6:38 08-Fairies Wear Boots
DR5       -0.99 dB    -7.53 dB      6:05 12-Lord of This World
DR6       -0.94 dB    -7.59 dB      4:22 09-Hole in the Sky
DR6       -0.95 dB    -8.13 dB      4:05 10-The Wizard
DR6       -0.99 dB    -7.87 dB      9:37 05-The Rwrit
DR5       -0.99 dB    -6.79 dB      7:44 15-Sleeping Village
DR6       -1.00 dB   -11.02 dB      6:34 11-Electric Funeral
DR6       -0.93 dB    -8.31 dB      6:25 03-A National Acrobat
DR5       -1.00 dB    -7.16 dB      5:58 07-Planet Caravan
--------------------------------------------------------------------------------
Number of tracks:  15
Official DR value: DR6
Samplerate:        44100 Hz
Channels:          2
Bits per sample:   16
Bitrate:           876 kbps
Codec:             FLAC
================================================================================

Код:
-----------------------
DON'T MODIFY THIS FILE
-----------------------
PERFORMER: auCDtect Task Manager, ver. 1.6.0 RC1 build 1.6.0.1
Copyright (c) 2008-2010 y-soft. All rights reserved
[url=http://y-soft.org]http://y-soft.org[/url]
ANALYZER: auCDtect: CD records authenticity detector, version 0.8.2
Copyright (c) 2004 Oleg Berngardt. All rights reserved.
Copyright (c) 2004 Alexander Djourik. All rights reserved.
FILE: 15 - Saint Karloff - Sleeping Village.flac
  Size: 58710108 Hash: E1155FEDD1C41D4219872E52B2413E93 Accuracy: -m40
  Conclusion: CDDA 100%
  Signature: 7EC19D3D8572374C9DE3D805BFC7F089FC1644E8
FILE: 14 - Brume - Solitude.flac
  Size: 36505655 Hash: 21D548098921E8415A83AB3C7770C4DF Accuracy: -m40
  Conclusion: CDDA 99%
  Signature: FEC0FBBE50A30D942BA3B3904A52F7FB0AF69205
FILE: 13 - Elephant Tree - Paranoid.flac
  Size: 20862186 Hash: EA5E33AD805838CAE663E277DEDDB686 Accuracy: -m40
  Conclusion: CDDA 100%
  Signature: 99C806E59A478B8E7A59E16E6E487A64FEE4884F
FILE: 12 - Howling Giant - Lord of This World.flac
  Size: 47270312 Hash: F01712DC4B7DD90116B29BEA18F06CD9 Accuracy: -m40
  Conclusion: CDDA 100%
  Signature: DD1E63D633B5C6E07B9A21155803CE4C5A093F16
FILE: 11 - Solace - Electric Funeral.flac
  Size: 40961115 Hash: F0D4390D9F8E1D920DB507D5A67D60EF Accuracy: -m40
  Conclusion: CDDA 100%
  Signature: DC75A9C600AB1F95E2DCEEFD5F84AB7A8E6055AC
FILE: 10 - Mooner - The Wizard.flac
  Size: 29873497 Hash: CAD93950FF69D44263F6378DB91459D3 Accuracy: -m40
  Conclusion: CDDA 99%
  Signature: 0B87BF2E4357D4C5F14C77688475CC781B3064B7
FILE: 09 - Leather Lung - Hole in the Sky.flac
  Size: 33946954 Hash: 2156BEA00111BE379C2D28C9DE17F6F3 Accuracy: -m40
  Conclusion: CDDA 100%
  Signature: 18CF09F19E9AA9F5D357A50E6E887C2473C3AF24
FILE: 08 - Hippie Death Cult - Fairies Wear Boots.flac
  Size: 49332589 Hash: 6F481D48591B2F890A665B725F998B5A Accuracy: -m40
  Conclusion: CDDA 100%
  Signature: 95C4C49DD0AFED93AA2F2AB3ADB6AB9B30878433
FILE: 07 - Year of the Cobra - Planet Caravan.flac
  Size: 39274149 Hash: 6354F7394572A4F16B97DBC24AE84B77 Accuracy: -m40
  Conclusion: CDDA 76%
  Signature: CCCFA93C9CBA66A7B72E9DBD94F7BF97A4B42EEA
FILE: 06 - Ginsburg-Margera-Reeder-Rota - N.I.B.flac
  Size: 42981618 Hash: 6E1D964F7070C8FC56158B9A531B3D4B Accuracy: -m40
  Conclusion: CDDA 99%
  Signature: 4E5378FDD30A756D721EA80E54174733FFB21EC7
FILE: 05 - Rwake - The Rwrit.flac
  Size: 66169574 Hash: 9BAA6E676C871107DCDC9EA8C3522EE4 Accuracy: -m40
  Conclusion: CDDA 100%
  Signature: B4FA2A4A8B1797C2CB4EF6ABBEB7D1E8F50AE449
FILE: 04 - Black Electric - Sweet Leaf.flac
  Size: 41162415 Hash: 1F0866495D89D15B6AA1FBADD3BB3AAC Accuracy: -m40
  Conclusion: CDDA 100%
  Signature: DD3008F6C328046125C1006E4E1FD48F31EA9AA2
FILE: 03 - Summoner - A National Acrobat.flac
  Size: 51439951 Hash: 0B0B3CDC58C6FCF2F1EB9B53C90DF0CF Accuracy: -m40
  Conclusion: CDDA 100%
  Signature: 6FBB797668F2A1F23D3675F30FE99376DF1FAA90
FILE: 02 - Caustic Casanova - Wicked World.flac
  Size: 50653168 Hash: FD27FFDB9F248B2A2495A43AFA4E07A6 Accuracy: -m40
  Conclusion: CDDA 100%
  Signature: ACAB6716561866F73AD8A3E6B0311E52BCB66F28
FILE: 01 - Earthless - Never Say Die.flac
  Size: 30744230 Hash: 8973EAB76D02549A3D7D4AB2AB4B85F6 Accuracy: -m40
  Conclusion: CDDA 100%
  Signature: 8B4B9BB5F59648F85177970EED85C50B2A8BD9F4

Правила, инструкции, FAQ!!!
Торрент  Добавлен [01 ноя 2020, 18:57] Скачать торрент Магнет ссылка
Скачать торрент
[ Размер 13.43 КБ / Просмотров 8 ]

Статус
Проверен 
 
Размер  610.84 МБ
Приватный: Нет (DHT включён)
.torrent скачан  2
 


     Отправить личное сообщение
   
Страница 1 из 1
Показать сообщения за:  Поле сортировки  
Начать новую тему Ответить на тему


Сейчас этот форум просматривают: нет зарегистрированных пользователей и гости: 0


Вы не можете начинать темы
Вы не можете отвечать на сообщения
Вы не можете редактировать свои сообщения
Вы не можете удалять свои сообщения
Вы не можете добавлять вложения

Перейти:  
cron