Начать новую тему Ответить на тему
Статистика раздачи
Размер: 387.77 МБ | Добавлен: 26 мар 2019, 20:08 | Скачали: 0
Сидеров: 1  [0 байт/сек]    Личеров: 0  [0 байт/сек]
Пред. тема | След. тема 

Автор
Сообщение

СообщениеДобавлено: 26 мар 2019, 20:08 

Ответить с цитатой 

Vision Fields - Vision Fields (1988)
Жанр: Melodic Rock
Страна-производитель диска: Germany
Год издания диска: 1988
Издатель (лейбл): Epic / CBS
Номер по каталогу: EPC 462964 2
Страна: Germany
Аудио кодек: FLAC (*.flac)
Тип рипа: image+.cue
Битрейт аудио: lossless
Продолжительность: 47:39.67
Источник (релизер): CD из личной коллекции
Наличие сканов в содержимом раздачи: да
Треклист:
01. Sad Song [0:04:20.35]
02. Fly Away [0:04:52.45]
03. Eden's Waterfall [0:06:01.35]
04. Lyin' Eyes [0:04:49.45]
05. So What [0:01:44.20]
06. Small Talk [0:04:32.10]
07. Show Me The Way [0:04:35.05]
08. Missing You [0:05:00.35]
09. Goin' To Africa [0:04:20.20]
10. I Don't Wanna Lose You Tonight [0:04:54.30]
11. Tranquility Base [0:02:21.15]
Код:
Exact Audio Copy V0.99 prebeta 5 from 4. May 2009
Отчёт EAC об извлечении, выполненном 13. мая 2011, 2:12
Vision Fields / Vision Fields
Дисковод: Optiarc DVD RW AD-7201A   Adapter: 0  ID: 0
Режим чтения                 : Достоверность
Использование точного потока : Да
Отключение кэша аудио        : Да
Использование указателей C2  : Нет
Коррекция смещения при чтении                     : 48
Способность читать области Lead-in и Lead-out     : Нет
Заполнение пропущенных сэмплов тишиной            : Да
Удаление блоков с тишиной в начале и конце        : Нет
При вычислениях CRC использовались нулевые сэмплы : Да
Интерфейс                                         : Установленный внешний ASPI-интерфейс
Выходной формат : Внутренние WAV-операции
Формат сэмплов  : 44.100 Гц; 16 бит; стерео
TOC извлечённого CD
     Трек |   Старт  | Длительность | Начальный сектор | Конечный сектор
    ---------------------------------------------------------------------
       1  |  0:00.00 |    4:20.35   |           0      |      19534
       2  |  4:20.35 |    4:52.45   |       19535      |      41479
       3  |  9:13.05 |    6:01.35   |       41480      |      68589
       4  | 15:14.40 |    4:49.45   |       68590      |      90309
       5  | 20:04.10 |    1:44.20   |       90310      |      98129
       6  | 21:48.30 |    4:32.10   |       98130      |     118539
       7  | 26:20.40 |    4:35.05   |      118540      |     139169
       8  | 30:55.45 |    5:00.35   |      139170      |     161704
       9  | 35:56.05 |    4:20.20   |      161705      |     181224
      10  | 40:16.25 |    4:54.30   |      181225      |     203304
      11  | 45:10.55 |    2:21.15   |      203305      |     213894
Характеристики диапазона извлечения и сообщения об ошибках
Выбранный диапазон
     Имя файла S:\MUZZIGG\Vision Fields - Vision Fields (1988)\Vision Fields - Vision Fields.wav
     Пиковый уровень 100.0 %
     Качество диапазона 100.0 %
     CRC теста BF40D802
     CRC копии BF40D802
     Копирование... OK
Ошибок не произошло
AccurateRip: сводка
Трек  1  нет в базе данных
Трек  2  нет в базе данных
Трек  3  нет в базе данных
Трек  4  нет в базе данных
Трек  5  нет в базе данных
Трек  6  нет в базе данных
Трек  7  нет в базе данных
Трек  8  нет в базе данных
Трек  9  нет в базе данных
Трек 10  нет в базе данных
Трек 11  нет в базе данных
Ни одного трека нет в базе AccurateRip
Конец отчёта
Код:
REM GENRE Rock
REM DATE 1988
REM DISCID 890B230B
REM COMMENT "ExactAudioCopy v0.99pb5"
PERFORMER "Vision Fields"
TITLE "Vision Fields"
FILE "Vision Fields - Vision Fields.wav" WAVE
  TRACK 01 AUDIO
    TITLE "Sad Song"
    PERFORMER "Vision Fields"
    FLAGS DCP
    INDEX 01 00:00:00
  TRACK 02 AUDIO
    TITLE "Fly Away"
    PERFORMER "Vision Fields"
    FLAGS DCP
    INDEX 01 04:20:35
  TRACK 03 AUDIO
    TITLE "Eden's Waterfall"
    PERFORMER "Vision Fields"
    FLAGS DCP
    INDEX 01 09:13:05
  TRACK 04 AUDIO
    TITLE "Lyin' Eyes"
    PERFORMER "Vision Fields"
    FLAGS DCP
    INDEX 01 15:14:40
  TRACK 05 AUDIO
    TITLE "So What"
    PERFORMER "Vision Fields"
    FLAGS DCP
    INDEX 01 20:04:10
  TRACK 06 AUDIO
    TITLE "Small Talk"
    PERFORMER "Vision Fields"
    FLAGS DCP
    INDEX 01 21:48:30
  TRACK 07 AUDIO
    TITLE "Show Me The Way"
    PERFORMER "Vision Fields"
    FLAGS DCP
    INDEX 01 26:20:40
  TRACK 08 AUDIO
    TITLE "Missing You"
    PERFORMER "Vision Fields"
    FLAGS DCP
    INDEX 01 30:55:45
  TRACK 09 AUDIO
    TITLE "Goin' To Africa"
    PERFORMER "Vision Fields"
    FLAGS DCP
    INDEX 01 35:56:05
  TRACK 10 AUDIO
    TITLE "I Don't Wanna Lose You Tonight"
    PERFORMER "Vision Fields"
    FLAGS DCP
    INDEX 01 40:16:25
  TRACK 11 AUDIO
    TITLE "Tranquility Base"
    PERFORMER "Vision Fields"
    FLAGS DCP
    INDEX 01 45:10:55
Правила, инструкции, FAQ!!!
Торрент  Добавлен [26 мар 2019, 20:08] Скачать торрент Магнет ссылка
Скачать торрент
[ Размер 16.61 КБ / Просмотров 7 ]

Статус
Проверен 
 
Размер  387.77 МБ
Приватный: Нет (DHT включён)
.torrent скачан  0
 


     Отправить личное сообщение
   
Страница 1 из 1
Показать сообщения за:  Поле сортировки  
Начать новую тему Ответить на тему


Сейчас этот форум просматривают: нет зарегистрированных пользователей и гости: 0


Вы не можете начинать темы
Вы не можете отвечать на сообщения
Вы не можете редактировать свои сообщения
Вы не можете удалять свои сообщения
Вы не можете добавлять вложения

Перейти:  
cron