Начать новую тему Ответить на тему
Статистика раздачи
Размер: 1.36 ГБ | Добавлен: 28 апр 2020, 19:53 | Скачали: 0
Сидеров: 6  [0 байт/сек]    Личеров: 2  [0 байт/сек]
Пред. тема | След. тема 

Автор
Сообщение

СообщениеДобавлено: 28 апр 2020, 19:53 

Ответить с цитатой 

Fiona (Fiona Flanagan) / Discography - Дискография
Жанр: Melodic Hard Rock, Pop Rock
Носитель: CD
Страна-производитель диска (релиза): Europe, UK, Germany
Год издания: 1992, 2011, 2014
Издатель (лейбл): Rock Candy, Geffen Records, Life On The Moon Records
Страна исполнителя (группы): USA
Аудиокодек: FLAC (*.flac)
Тип рипа: image+.cue
Продолжительность: 03:22:38
Источник: собственный рип
Наличие сканов в содержимом раздачи: нет
#777Жанр: Melodic Hard Rock, Pop Rock
Носитель: CD
Страна-производитель диска (релиза): UK
Год издания: 1985 (2014)
Издатель (лейбл): Rock Candy
Номер по каталогу: CANDY237
Страна исполнителя (группы): USA
Аудиокодек: FLAC (*.flac)
Тип рипа: image+.cue
Продолжительность: 00:32:43
Источник: собственный рип
Наличие сканов в содержимом раздачи: нет
Треклист:
1. Hang Your Heart On Me
2. Talk To Me
3. You're No Angel
4. Rescue You
5. James
6. Love Makes You Blind
7. Over Now
8. Na Na Song
Код:
Exact Audio Copy V1.4 from 3. February 2020
Отчёт EAC об извлечении, выполненном 2. апреля 2020, 17:44
Fiona / Fiona
Дисковод: HL-DT-STDVDRAM GH24NSD5   Adapter: 1  ID: 0
Режим чтения                 : Достоверность
Использование точного потока : Да
Отключение кэша аудио        : Да
Использование указателей C2  : Нет
Коррекция смещения при чтении                     : 6
Способность читать области Lead-in и Lead-out     : Нет
Заполнение пропущенных сэмплов тишиной            : Да
Удаление блоков с тишиной в начале и конце        : Нет
При вычислениях CRC использовались нулевые сэмплы : Да
Интерфейс                                         : Встроенный Win32-интерфейс для Win NT/2000
Выходной формат          : Пользовательский кодировщик
Выбранный битрейт        : 1024 kBit/s
Качество                 : Высокий
Добавление ID3-тега      : Нет
Утилита сжатия           : C:\Program Files (x86)\FLAC Frontend\tools\flac.exe
Дополнительные параметры : -V -8 -T "Date=%year%" -T "Genre=%genre%" %source%
TOC извлечённого CD
     Трек |   Старт  | Длительность | Начальный сектор | Конечный сектор
    ---------------------------------------------------------------------
       1  |  0:00.00 |    3:51.48   |           0      |      17372
       2  |  3:51.48 |    3:51.71   |       17373      |      34768
       3  |  7:43.44 |    3:57.10   |       34769      |      52553
       4  | 11:40.54 |    4:14.24   |       52554      |      71627
       5  | 15:55.03 |    3:26.72   |       71628      |      87149
       6  | 19:22.00 |    3:54.44   |       87150      |     104743
       7  | 23:16.44 |    4:02.72   |      104744      |     122965
       8  | 27:19.41 |    5:23.69   |      122966      |     147259
Характеристики диапазона извлечения и сообщения об ошибках
Выбранный диапазон
     Имя файла C:\Users\Terminator\Downloads\Rips\Fiona Flanagan - Discography\1985 (2014) - Fiona\Fiona - Fiona.wav
     Пиковый уровень 97.7 %
     Скорость извлечения 6.2 X
     Качество диапазона 99.9 %
     CRC теста FEA6C249
     CRC копии FEA6C249
     Копирование... OK
Ошибок не произошло
AccurateRip: сводка
Трек  1  точность не определена (достоверность 5)  [20B37C38], AccurateRip вернул [EF2293E0]  (AR v2)
Трек  2  точность не определена (достоверность 5)  [BD7059A8], AccurateRip вернул [18B79E98]  (AR v2)
Трек  3  точность не определена (достоверность 5)  [C60D8F53], AccurateRip вернул [3D31666A]  (AR v2)
Трек  4  точность не определена (достоверность 5)  [7A535FB0], AccurateRip вернул [A16180E9]  (AR v2)
Трек  5  точность не определена (достоверность 5)  [6EF1204F], AccurateRip вернул [55EC2F75]  (AR v2)
Трек  6  точность не определена (достоверность 5)  [EB3CBD44], AccurateRip вернул [1545A2BA]  (AR v2)
Трек  7  точность не определена (достоверность 5)  [A8CAAE51], AccurateRip вернул [3659AE0C]  (AR v2)
Трек  8  точность не определена (достоверность 5)  [1F716923], AccurateRip вернул [B95A4B38]  (AR v2)
Ни один трек не прошёл проверки на точность
В вашей базе может быть иной вариант штамповки диска
Конец отчёта
---- CUETools DB Plugin V2.1.6
[CTDB TOCID: Gg_UFKGXDfwNEpZR.cdCi.6.9S4-] found
Submit result: Gg_UFKGXDfwNEpZR.cdCi.6.9S4- has been confirmed
Track | CTDB Status
  1   | (9/9) Accurately ripped
  2   | (9/9) Accurately ripped
  3   | (9/9) Accurately ripped
  4   | (9/9) Accurately ripped
  5   | (9/9) Accurately ripped
  6   | (9/9) Accurately ripped
  7   | (9/9) Accurately ripped
  8   | (9/9) Accurately ripped
==== Контрольная сумма отчёта E6E4420262157C3B839AAB637DAB7B805A6FAB25B86A1340FB439D878D00B280 ====
Код:
REM GENRE "Melodic Hard Rock"
REM DATE 2014
REM DISCID 6407AB08
REM COMMENT "ExactAudioCopy v1.4"
PERFORMER "Fiona"
TITLE "Fiona"
REM COMPOSER ""
FILE "Fiona - Fiona.flac" WAVE
  TRACK 01 AUDIO
    TITLE "Hang Your Heart On Me"
    PERFORMER "Fiona"
    REM COMPOSER ""
    INDEX 01 00:00:00
  TRACK 02 AUDIO
    TITLE "Talk To Me"
    PERFORMER "Fiona"
    REM COMPOSER ""
    INDEX 00 03:48:54
    INDEX 01 03:51:48
  TRACK 03 AUDIO
    TITLE "You're No Angel"
    PERFORMER "Fiona"
    REM COMPOSER ""
    INDEX 00 07:41:48
    INDEX 01 07:43:44
  TRACK 04 AUDIO
    TITLE "Rescue You"
    PERFORMER "Fiona"
    REM COMPOSER ""
    INDEX 00 11:38:60
    INDEX 01 11:40:54
  TRACK 05 AUDIO
    TITLE "James"
    PERFORMER "Fiona"
    REM COMPOSER ""
    INDEX 00 15:53:08
    INDEX 01 15:55:03
  TRACK 06 AUDIO
    TITLE "Love Makes You Blind"
    PERFORMER "Fiona"
    REM COMPOSER ""
    INDEX 00 19:20:05
    INDEX 01 19:22:00
  TRACK 07 AUDIO
    TITLE "Over Now"
    PERFORMER "Fiona"
    REM COMPOSER ""
    INDEX 00 23:14:48
    INDEX 01 23:16:44
  TRACK 08 AUDIO
    TITLE "Na Na Song"
    PERFORMER "Fiona"
    REM COMPOSER ""
    INDEX 00 27:17:47
    INDEX 01 27:19:41
#777Жанр: Melodic Hard Rock, Pop Rock
Носитель: CD
Страна-производитель диска (релиза): UK
Год издания: 1985 (2014)
Издатель (лейбл): Rock Candy
Номер по каталогу: CANDY236
Страна исполнителя (группы): USA
Аудиокодек: FLAC (*.flac)
Тип рипа: image+.cue
Продолжительность: 00:49:39
Источник: собственный рип
Наличие сканов в содержимом раздачи: нет
Треклист:
1. Tragedy
2. Hopelessly Love You
3. Living In A Boy's World
4. Thunder & Lightning
5. Tender Is The Heart
6. Running Out Of Night
7. In My Blood
8. He's On My Side
9. You Better Wait
10. Keeper Of The Flame
Bonus Tracks:
11. Hopelessly Love You [Vocal Remix]
12. Hopelessly Love You [Dub Version]
Код:
Exact Audio Copy V1.4 from 3. February 2020
Отчёт EAC об извлечении, выполненном 2. апреля 2020, 18:17
Fiona / Beyond The Pale
Дисковод: HL-DT-STDVDRAM GH24NSD5   Adapter: 1  ID: 0
Режим чтения                 : Достоверность
Использование точного потока : Да
Отключение кэша аудио        : Да
Использование указателей C2  : Нет
Коррекция смещения при чтении                     : 6
Способность читать области Lead-in и Lead-out     : Нет
Заполнение пропущенных сэмплов тишиной            : Да
Удаление блоков с тишиной в начале и конце        : Нет
При вычислениях CRC использовались нулевые сэмплы : Да
Интерфейс                                         : Встроенный Win32-интерфейс для Win NT/2000
Выходной формат          : Пользовательский кодировщик
Выбранный битрейт        : 1024 kBit/s
Качество                 : Высокий
Добавление ID3-тега      : Нет
Утилита сжатия           : C:\Program Files (x86)\FLAC Frontend\tools\flac.exe
Дополнительные параметры : -V -8 -T "Date=%year%" -T "Genre=%genre%" %source%
TOC извлечённого CD
     Трек |   Старт  | Длительность | Начальный сектор | Конечный сектор
    ---------------------------------------------------------------------
       1  |  0:00.00 |    4:16.13   |           0      |      19212
       2  |  4:16.13 |    4:22.51   |       19213      |      38913
       3  |  8:38.64 |    3:40.22   |       38914      |      55435
       4  | 12:19.11 |    3:40.65   |       55436      |      72000
       5  | 16:00.01 |    3:37.28   |       72001      |      88303
       6  | 19:37.29 |    3:54.02   |       88304      |     105855
       7  | 23:31.31 |    4:09.20   |      105856      |     124550
       8  | 27:40.51 |    4:30.72   |      124551      |     144872
       9  | 32:11.48 |    3:37.28   |      144873      |     161175
      10  | 35:49.01 |    4:04.68   |      161176      |     179543
      11  | 39:53.69 |    5:12.23   |      179544      |     202966
      12  | 45:06.17 |    4:32.39   |      202967      |     223405
Характеристики диапазона извлечения и сообщения об ошибках
Выбранный диапазон
     Имя файла C:\Users\Terminator\Downloads\Rips\Fiona Flanagan - Discography\1986 (2014) - Beyond The Pale\Fiona - Beyond The Pale.wav
     Пиковый уровень 97.7 %
     Скорость извлечения 7.2 X
     Качество диапазона 100.0 %
     CRC теста 4C28053A
     CRC копии 4C28053A
     Копирование... OK
Ошибок не произошло
AccurateRip: сводка
Трек  1  : извлечено точно (достоверность 9)  [728B694E]  (AR v2)
Трек  2  : извлечено точно (достоверность 9)  [ADE33555]  (AR v2)
Трек  3  : извлечено точно (достоверность 9)  [D8FD9009]  (AR v2)
Трек  4  : извлечено точно (достоверность 9)  [372DA649]  (AR v2)
Трек  5  : извлечено точно (достоверность 9)  [DE21A68D]  (AR v2)
Трек  6  : извлечено точно (достоверность 9)  [25901F0D]  (AR v2)
Трек  7  : извлечено точно (достоверность 9)  [8F1D9968]  (AR v2)
Трек  8  : извлечено точно (достоверность 9)  [32CF5C5D]  (AR v2)
Трек  9  : извлечено точно (достоверность 9)  [8A1375C7]  (AR v2)
Трек 10  : извлечено точно (достоверность 9)  [0B37D6C2]  (AR v2)
Трек 11  : извлечено точно (достоверность 9)  [E72051AA]  (AR v2)
Трек 12  : извлечено точно (достоверность 9)  [AB0ACC7F]  (AR v2)
Все треки извлечены точно
Конец отчёта
---- CUETools DB Plugin V2.1.6
[CTDB TOCID: 7skZnVWAIWxrz0vsk2MG4KelfUw-] found
Submit result: 7skZnVWAIWxrz0vsk2MG4KelfUw- has been confirmed
Track | CTDB Status
  1   | (9/9) Accurately ripped
  2   | (9/9) Accurately ripped
  3   | (9/9) Accurately ripped
  4   | (9/9) Accurately ripped
  5   | (9/9) Accurately ripped
  6   | (9/9) Accurately ripped
  7   | (9/9) Accurately ripped
  8   | (9/9) Accurately ripped
  9   | (9/9) Accurately ripped
 10   | (9/9) Accurately ripped
 11   | (9/9) Accurately ripped
 12   | (9/9) Accurately ripped
==== Контрольная сумма отчёта 63DDCD5E974E89E491CC6E03B26104D0C3ED5F0648FE9CFA38BE6BCB55F7AA2B ====
Код:
REM GENRE Rock
REM DATE 2014
REM DISCID 9C0BA20C
REM COMMENT "ExactAudioCopy v1.4"
PERFORMER "Fiona"
TITLE "Beyond The Pale"
REM COMPOSER ""
FILE "Fiona - Beyond The Pale.flac" WAVE
  TRACK 01 AUDIO
    TITLE "Tragedy"
    PERFORMER "Fiona"
    REM COMPOSER ""
    INDEX 01 00:00:00
  TRACK 02 AUDIO
    TITLE "Hopelessly Love You"
    PERFORMER "Fiona"
    REM COMPOSER ""
    INDEX 01 04:16:13
  TRACK 03 AUDIO
    TITLE "Living In A Boy’s World"
    PERFORMER "Fiona"
    REM COMPOSER ""
    INDEX 01 08:38:64
  TRACK 04 AUDIO
    TITLE "Thunder & Lightning"
    PERFORMER "Fiona"
    REM COMPOSER ""
    INDEX 01 12:19:11
  TRACK 05 AUDIO
    TITLE "Tender Is The Heart"
    PERFORMER "Fiona"
    REM COMPOSER ""
    INDEX 01 16:00:01
  TRACK 06 AUDIO
    TITLE "Running Out Of Night"
    PERFORMER "Fiona"
    REM COMPOSER ""
    INDEX 01 19:37:29
  TRACK 07 AUDIO
    TITLE "In My Blood"
    PERFORMER "Fiona"
    REM COMPOSER ""
    INDEX 01 23:31:31
  TRACK 08 AUDIO
    TITLE "He’s On My Side"
    PERFORMER "Fiona"
    REM COMPOSER ""
    INDEX 01 27:40:51
  TRACK 09 AUDIO
    TITLE "You Better Wait"
    PERFORMER "Fiona"
    REM COMPOSER ""
    INDEX 01 32:11:48
  TRACK 10 AUDIO
    TITLE "Keeper Of The Flame"
    PERFORMER "Fiona"
    REM COMPOSER ""
    INDEX 01 35:49:01
  TRACK 11 AUDIO
    TITLE "Hopelessly Love You (Vocal Remix)"
    PERFORMER "Fiona"
    REM COMPOSER ""
    INDEX 00 39:51:55
    INDEX 01 39:53:69
  TRACK 12 AUDIO
    TITLE "Hopelessly Love You (Dub Version)"
    PERFORMER "Fiona"
    REM COMPOSER ""
    INDEX 00 45:04:04
    INDEX 01 45:06:17
#777Жанр: Melodic Hard Rock, Pop Rock
Носитель: CD
Страна-производитель диска (релиза): UK
Год издания: 1989 (2014)
Издатель (лейбл): Rock Candy
Номер по каталогу: CANDY237
Страна исполнителя (группы): USA
Аудиокодек: FLAC (*.flac)
Тип рипа: image+.cue
Продолжительность: 00:42:04
Источник: собственный рип
Наличие сканов в содержимом раздачи: нет
Треклист:
1. Little Jeannie (Got The Look Of Love)
2. Everything You Do (You're Sexing Me) - Duet With Kip Winger
3. Where the Cowboys Go
4. Mariel
5. Draw the Line
6. Here It Comes Again
7. Bringing in the Beast
8. Victoria Cross
9. Look at Me Now
10. When Pink Turns to Blue
Код:
Exact Audio Copy V1.4 from 3. February 2020
Отчёт EAC об извлечении, выполненном 2. апреля 2020, 18:55
Fiona / Heart Like a Gun
Дисковод: HL-DT-STDVDRAM GH24NSD5   Adapter: 1  ID: 0
Режим чтения                 : Достоверность
Использование точного потока : Да
Отключение кэша аудио        : Да
Использование указателей C2  : Нет
Коррекция смещения при чтении                     : 6
Способность читать области Lead-in и Lead-out     : Нет
Заполнение пропущенных сэмплов тишиной            : Да
Удаление блоков с тишиной в начале и конце        : Нет
При вычислениях CRC использовались нулевые сэмплы : Да
Интерфейс                                         : Встроенный Win32-интерфейс для Win NT/2000
Выходной формат          : Пользовательский кодировщик
Выбранный битрейт        : 1024 kBit/s
Качество                 : Высокий
Добавление ID3-тега      : Нет
Утилита сжатия           : C:\Program Files (x86)\FLAC Frontend\tools\flac.exe
Дополнительные параметры : -V -8 -T "Date=%year%" -T "Genre=%genre%" %source%
TOC извлечённого CD
     Трек |   Старт  | Длительность | Начальный сектор | Конечный сектор
    ---------------------------------------------------------------------
       1  |  0:00.00 |    3:24.17   |           0      |      15316
       2  |  3:24.17 |    4:16.04   |       15317      |      34520
       3  |  7:40.21 |    4:48.00   |       34521      |      56120
       4  | 12:28.21 |    4:35.06   |       56121      |      76751
       5  | 17:03.27 |    3:29.32   |       76752      |      92458
       6  | 20:32.59 |    4:13.21   |       92459      |     111454
       7  | 24:46.05 |    4:35.64   |      111455      |     132143
       8  | 29:21.69 |    4:08.72   |      132144      |     150815
       9  | 33:30.66 |    4:16.37   |      150816      |     170052
      10  | 37:47.28 |    4:16.52   |      170053      |     189304
Характеристики диапазона извлечения и сообщения об ошибках
Выбранный диапазон
     Имя файла C:\Users\Terminator\Downloads\Rips\Fiona Flanagan - Discography\1989 (2014) - Heart Like A Gun\Fiona - Heart Like a Gun.wav
     Пиковый уровень 97.7 %
     Скорость извлечения 7.0 X
     Качество диапазона 100.0 %
     CRC теста 15BE3424
     CRC копии 15BE3424
     Копирование... OK
Ошибок не произошло
AccurateRip: сводка
Трек  1  : извлечено точно (достоверность 5)  [29C42D3B]  (AR v2)
Трек  2  : извлечено точно (достоверность 5)  [A913AEC5]  (AR v2)
Трек  3  : извлечено точно (достоверность 5)  [92AE0103]  (AR v2)
Трек  4  : извлечено точно (достоверность 5)  [3DC48A30]  (AR v2)
Трек  5  : извлечено точно (достоверность 5)  [99D29E15]  (AR v2)
Трек  6  : извлечено точно (достоверность 5)  [91B96423]  (AR v2)
Трек  7  : извлечено точно (достоверность 5)  [5D3EDCDB]  (AR v2)
Трек  8  : извлечено точно (достоверность 5)  [99AE04C3]  (AR v2)
Трек  9  : извлечено точно (достоверность 5)  [901B34E3]  (AR v2)
Трек 10  : извлечено точно (достоверность 5)  [A6E85B4E]  (AR v2)
Все треки извлечены точно
Конец отчёта
---- CUETools DB Plugin V2.1.6
[CTDB TOCID: 8PHGFBI1Uhk3bttAu0TIybiNZMM-] found
Submit result: 8PHGFBI1Uhk3bttAu0TIybiNZMM- has been confirmed
Track | CTDB Status
  1   | (6/6) Accurately ripped
  2   | (6/6) Accurately ripped
  3   | (6/6) Accurately ripped
  4   | (6/6) Accurately ripped
  5   | (6/6) Accurately ripped
  6   | (6/6) Accurately ripped
  7   | (6/6) Accurately ripped
  8   | (6/6) Accurately ripped
  9   | (6/6) Accurately ripped
 10   | (6/6) Accurately ripped
==== Контрольная сумма отчёта BB3A3134DE6A685FB98937EB8E26433A26F28EE918FEAE6381D3A1F39129B2F6 ====
Код:
REM GENRE Rock
REM DATE 2014
REM DISCID 7209DC0A
REM COMMENT "ExactAudioCopy v1.4"
PERFORMER "Fiona"
TITLE "Heart Like a Gun"
REM COMPOSER ""
FILE "Fiona - Heart Like a Gun.flac" WAVE
  TRACK 01 AUDIO
    TITLE "Little Jeannie (Got the Look of Love)"
    PERFORMER "Fiona"
    REM COMPOSER ""
    INDEX 01 00:00:00
  TRACK 02 AUDIO
    TITLE "Everything You Do (You’re Sexing Me)"
    PERFORMER "Fiona duet with Kip Winger"
    REM COMPOSER ""
    INDEX 00 03:22:20
    INDEX 01 03:24:17
  TRACK 03 AUDIO
    TITLE "Where the Cowboys Go"
    PERFORMER "Fiona"
    REM COMPOSER ""
    INDEX 00 07:38:26
    INDEX 01 07:40:21
  TRACK 04 AUDIO
    TITLE "Mariel"
    PERFORMER "Fiona"
    REM COMPOSER ""
    INDEX 00 12:26:25
    INDEX 01 12:28:21
  TRACK 05 AUDIO
    TITLE "Draw the Line"
    PERFORMER "Fiona"
    REM COMPOSER ""
    INDEX 00 17:01:31
    INDEX 01 17:03:27
  TRACK 06 AUDIO
    TITLE "Here It Comes Again"
    PERFORMER "Fiona"
    REM COMPOSER ""
    INDEX 00 20:30:65
    INDEX 01 20:32:59
  TRACK 07 AUDIO
    TITLE "Bringing In the Beast"
    PERFORMER "Fiona"
    REM COMPOSER ""
    INDEX 00 24:44:10
    INDEX 01 24:46:05
  TRACK 08 AUDIO
    TITLE "Victoria Cross"
    PERFORMER "Fiona"
    REM COMPOSER ""
    INDEX 00 29:19:74
    INDEX 01 29:21:69
  TRACK 09 AUDIO
    TITLE "Look at Me Now"
    PERFORMER "Fiona"
    REM COMPOSER ""
    INDEX 00 33:28:72
    INDEX 01 33:30:66
  TRACK 10 AUDIO
    TITLE "When Pink Turns to Blue"
    PERFORMER "Fiona"
    REM COMPOSER ""
    INDEX 00 37:45:34
    INDEX 01 37:47:28
#777Жанр: Melodic Hard Rock, Pop Rock
Носитель: CD
Страна-производитель диска (релиза): Europe, Germany (Sonopress)
Год издания: 1992
Издатель (лейбл): Geffen Records
Номер по каталогу: GED24429
Страна исполнителя (группы): USA
Аудиокодек: FLAC (*.flac)
Тип рипа: image+.cue
Продолжительность: 00:38:17
Источник: собственный рип
Наличие сканов в содержимом раздачи: нет
Треклист:
1. Kiss the Boys Goodbye
2. Ain't that Just Like Love
3. Treat Me Right
4. All Over Now
5. The Best Is Yet to Come
6. Squeeze
7. Don't Come Cryin'
8. Nobody Dies of a Broken Heart
9. Mystery of Love
10. Life on the Moon
Код:
Exact Audio Copy V1.3 from 2. September 2016
Отчёт EAC об извлечении, выполненном 16. июля 2019, 16:23
Fiona / Squeeze
Дисковод: HL-DT-STDVDRAM GH22NS40   Adapter: 1  ID: 0
Режим чтения                 : Достоверность
Использование точного потока : Да
Отключение кэша аудио        : Да
Использование указателей C2  : Нет
Коррекция смещения при чтении                     : 667
Способность читать области Lead-in и Lead-out     : Нет
Заполнение пропущенных сэмплов тишиной            : Да
Удаление блоков с тишиной в начале и конце        : Нет
При вычислениях CRC использовались нулевые сэмплы : Да
Интерфейс                                         : Встроенный Win32-интерфейс для Win NT/2000
Выходной формат          : Пользовательский кодировщик
Выбранный битрейт        : 128 kBit/s
Качество                 : Высокий
Добавление ID3-тега      : Нет
Утилита сжатия           : C:\Program Files (x86)\FLAC Frontend\tools\flac.exe
Дополнительные параметры : -V -8 -T "Date=%year%" -T "Genre=%genre%" %source%
TOC извлечённого CD
     Трек |   Старт  | Длительность | Начальный сектор | Конечный сектор
    ---------------------------------------------------------------------
       1  |  0:00.33 |    3:45.55   |          33      |      16962
       2  |  3:46.13 |    3:17.22   |       16963      |      31759
       3  |  7:03.35 |    3:41.48   |       31760      |      48382
       4  | 10:45.08 |    3:43.20   |       48383      |      65127
       5  | 14:28.28 |    3:38.57   |       65128      |      81534
       6  | 18:07.10 |    4:13.10   |       81535      |     100519
       7  | 22:20.20 |    4:08.68   |      100520      |     119187
       8  | 26:29.13 |    3:56.50   |      119188      |     136937
       9  | 30:25.63 |    3:55.10   |      136938      |     154572
      10  | 34:20.73 |    3:56.45   |      154573      |     172317
Характеристики диапазона извлечения и сообщения об ошибках
Выбранный диапазон
     Имя файла C:\Users\Terminator\Downloads\Rips\Fiona Flanagan - Discography\1993 - Squeeze\Fiona - Squeeze.wav
     Пиковый уровень 97.2 %
     Скорость извлечения 1.8 X
     Качество диапазона 100.0 %
     CRC теста 05D0D30B
     CRC копии 05D0D30B
     Копирование... OK
Ошибок не произошло
AccurateRip: сводка
Трек  1  : извлечено точно (доверие 8)  [2F58AEB1]  (AR v2)
Трек  2  : извлечено точно (доверие 8)  [848DC34E]  (AR v2)
Трек  3  : извлечено точно (доверие 8)  [E95839BD]  (AR v2)
Трек  4  : извлечено точно (доверие 8)  [A879F4C2]  (AR v2)
Трек  5  : извлечено точно (доверие 8)  [333A3FE0]  (AR v2)
Трек  6  : извлечено точно (доверие 8)  [CBDF9809]  (AR v2)
Трек  7  : извлечено точно (доверие 8)  [05B8138A]  (AR v2)
Трек  8  : извлечено точно (доверие 8)  [0454E858]  (AR v2)
Трек  9  : извлечено точно (доверие 8)  [91AF80AC]  (AR v2)
Трек 10  : извлечено точно (доверие 8)  [C99977F2]  (AR v2)
Все треки извлечены точно
Конец отчёта
---- CUETools DB Plugin V2.1.6
[CTDB TOCID: GopppNAGyt_SVKSxEgrPgr_kMF0-] found
Submit result: GopppNAGyt_SVKSxEgrPgr_kMF0- has been confirmed
Track | CTDB Status
  1   | (8/8) Accurately ripped
  2   | (8/8) Accurately ripped
  3   | (8/8) Accurately ripped
  4   | (8/8) Accurately ripped
  5   | (8/8) Accurately ripped
  6   | (8/8) Accurately ripped
  7   | (8/8) Accurately ripped
  8   | (8/8) Accurately ripped
  9   | (8/8) Accurately ripped
 10   | (8/8) Accurately ripped
==== Контрольная сумма отчёта 7115C181BBCA44451C30525CDC43BB19C1131DD364A33A0BD8E180C47FC3BA51 ====
Код:
REM GENRE Rock
REM DATE 1993
REM DISCID 8108F90A
REM COMMENT "ExactAudioCopy v1.3"
PERFORMER "Fiona"
TITLE "Squeeze"
REM COMPOSER ""
FILE "Fiona - Squeeze.flac" WAVE
  TRACK 01 AUDIO
    TITLE "Kiss the Boys Goodbye"
    PERFORMER "Fiona"
    REM COMPOSER ""
    INDEX 00 00:00:00
    INDEX 01 00:00:33
  TRACK 02 AUDIO
    TITLE "Ain't That Just Like Love"
    PERFORMER "Fiona"
    REM COMPOSER ""
    INDEX 00 03:45:70
    INDEX 01 03:46:13
  TRACK 03 AUDIO
    TITLE "Treat Me Right"
    PERFORMER "Fiona"
    REM COMPOSER ""
    INDEX 00 07:02:45
    INDEX 01 07:03:35
  TRACK 04 AUDIO
    TITLE "All Over Now"
    PERFORMER "Fiona"
    REM COMPOSER ""
    INDEX 00 10:44:33
    INDEX 01 10:45:08
  TRACK 05 AUDIO
    TITLE "The Best Is Yet to Come"
    PERFORMER "Fiona"
    REM COMPOSER ""
    INDEX 00 14:26:50
    INDEX 01 14:28:28
  TRACK 06 AUDIO
    TITLE "Squeeze"
    PERFORMER "Fiona"
    REM COMPOSER ""
    INDEX 00 18:06:18
    INDEX 01 18:07:10
  TRACK 07 AUDIO
    TITLE "Don't Come Cryin'"
    PERFORMER "Fiona"
    REM COMPOSER ""
    INDEX 00 22:18:53
    INDEX 01 22:20:20
  TRACK 08 AUDIO
    TITLE "Nobody Dies of a Broken Heart"
    PERFORMER "Fiona"
    REM COMPOSER ""
    INDEX 00 26:28:38
    INDEX 01 26:29:13
  TRACK 09 AUDIO
    TITLE "Mystery of Love"
    PERFORMER "Fiona"
    REM COMPOSER ""
    INDEX 01 30:25:63
  TRACK 10 AUDIO
    TITLE "Life on the Moon"
    PERFORMER "Fiona"
    REM COMPOSER ""
    INDEX 00 34:20:15
    INDEX 01 34:20:73
#777Жанр: Melodic Hard Rock, Pop Rock
Носитель: CD
Страна-производитель диска (релиза): Europe
Год издания: 2011
Издатель (лейбл): Life On The Moon Records
Номер по каталогу: LM001-2
Страна исполнителя (группы): USA
Аудиокодек: FLAC (*.flac)
Тип рипа: image+.cue
Продолжительность: 00:40:35
Источник: собственный рип
Наличие сканов в содержимом раздачи: нет
Треклист:
01. Loved Along The Way
02. Broken
03. I've Released You
04. Shadows Of The Night
05. Badge Of Love
06. Wild One
07. This Heart (Duet with Robin Beck)
08. Get Yer Kix
09. Salt On My Wings
10. I Love You But Shut Up
11. Everything You Are
Код:
Exact Audio Copy V1.4 from 3. February 2020
Отчёт EAC об извлечении, выполненном 2. апреля 2020, 17:12
Fiona / Unbroken
Дисковод: HL-DT-STDVDRAM GH24NSD5   Adapter: 1  ID: 0
Режим чтения                 : Достоверность
Использование точного потока : Да
Отключение кэша аудио        : Да
Использование указателей C2  : Нет
Коррекция смещения при чтении                     : 6
Способность читать области Lead-in и Lead-out     : Нет
Заполнение пропущенных сэмплов тишиной            : Да
Удаление блоков с тишиной в начале и конце        : Нет
При вычислениях CRC использовались нулевые сэмплы : Да
Интерфейс                                         : Встроенный Win32-интерфейс для Win NT/2000
Выходной формат          : Пользовательский кодировщик
Выбранный битрейт        : 1024 kBit/s
Качество                 : Высокий
Добавление ID3-тега      : Нет
Утилита сжатия           : C:\Program Files (x86)\FLAC Frontend\tools\flac.exe
Дополнительные параметры : -V -8 -T "Date=%year%" -T "Genre=%genre%" %source%
TOC извлечённого CD
     Трек |   Старт  | Длительность | Начальный сектор | Конечный сектор
    ---------------------------------------------------------------------
       1  |  0:00.00 |    3:33.12   |           0      |      15986
       2  |  3:33.12 |    3:53.15   |       15987      |      33476
       3  |  7:26.27 |    3:13.72   |       33477      |      48023
       4  | 10:40.24 |    3:11.26   |       48024      |      62374
       5  | 13:51.50 |    4:17.70   |       62375      |      81719
       6  | 18:09.45 |    3:13.16   |       81720      |      96210
       7  | 21:22.61 |    3:27.35   |       96211      |     111770
       8  | 24:50.21 |    3:23.18   |      111771      |     127013
       9  | 28:13.39 |    4:40.61   |      127014      |     148074
      10  | 32:54.25 |    3:17.61   |      148075      |     162910
      11  | 36:12.11 |    4:22.54   |      162911      |     182614
Характеристики диапазона извлечения и сообщения об ошибках
Выбранный диапазон
     Имя файла C:\Users\Terminator\Downloads\Rips\Fiona Flanagan - Discography\2011 - Unbroken\Fiona - Unbroken.wav
     Пиковый уровень 100.0 %
     Скорость извлечения 6.4 X
     Качество диапазона 99.9 %
     CRC теста 1C117CA0
     CRC копии 1C117CA0
     Копирование... OK
Ошибок не произошло
AccurateRip: сводка
Трек  1  : извлечено точно (достоверность 2)  [A35876AC]  (AR v2)
Трек  2  : извлечено точно (достоверность 2)  [4E275D70]  (AR v2)
Трек  3  : извлечено точно (достоверность 2)  [A653004A]  (AR v2)
Трек  4  : извлечено точно (достоверность 2)  [DBF4F59A]  (AR v2)
Трек  5  : извлечено точно (достоверность 2)  [3744DA73]  (AR v2)
Трек  6  : извлечено точно (достоверность 2)  [5D84240A]  (AR v2)
Трек  7  : извлечено точно (достоверность 3)  [61CF2379]  (AR v2)
Трек  8  : извлечено точно (достоверность 2)  [FAED5080]  (AR v2)
Трек  9  : извлечено точно (достоверность 2)  [89ACB621]  (AR v2)
Трек 10  : извлечено точно (достоверность 2)  [1BC7BE6D]  (AR v2)
Трек 11  : извлечено точно (достоверность 2)  [0204A4A5]  (AR v2)
Все треки извлечены точно
Конец отчёта
---- CUETools DB Plugin V2.1.6
[CTDB TOCID: 1wixaK1o43pKT9YoPb_0kDrmmHA-] found
Submit result: 1wixaK1o43pKT9YoPb_0kDrmmHA- has been confirmed
Track | CTDB Status
  1   | (2/2) Accurately ripped
  2   | (2/2) Accurately ripped
  3   | (2/2) Accurately ripped
  4   | (2/2) Accurately ripped
  5   | (2/2) Accurately ripped
  6   | (2/2) Accurately ripped
  7   | (2/2) Accurately ripped
  8   | (2/2) Accurately ripped
  9   | (2/2) Accurately ripped
 10   | (2/2) Accurately ripped
 11   | (2/2) Accurately ripped
==== Контрольная сумма отчёта B151D0A26EEBDB638EEC814653B4FCC1EF7F0AB2701C24051E721D4298743F3A ====
Код:
REM GENRE Rock
REM DATE 2011
REM DISCID 9809820B
REM COMMENT "ExactAudioCopy v1.4"
PERFORMER "Fiona"
TITLE "Unbroken"
REM COMPOSER ""
FILE "Fiona - Unbroken.flac" WAVE
  TRACK 01 AUDIO
    TITLE "Loved Along the Way"
    PERFORMER "Fiona"
    REM COMPOSER ""
    INDEX 01 00:00:00
  TRACK 02 AUDIO
    TITLE "Broken"
    PERFORMER "Fiona"
    REM COMPOSER ""
    INDEX 01 03:33:12
  TRACK 03 AUDIO
    TITLE "I've Released You"
    PERFORMER "Fiona"
    REM COMPOSER ""
    INDEX 01 07:26:27
  TRACK 04 AUDIO
    TITLE "Shadows of the Night"
    PERFORMER "Fiona"
    REM COMPOSER ""
    INDEX 01 10:40:24
  TRACK 05 AUDIO
    TITLE "Badge of Love"
    PERFORMER "Fiona"
    REM COMPOSER ""
    INDEX 01 13:51:50
  TRACK 06 AUDIO
    TITLE "Wild One"
    PERFORMER "Fiona"
    REM COMPOSER ""
    INDEX 01 18:09:45
  TRACK 07 AUDIO
    TITLE "This Heart"
    PERFORMER "Fiona feat. Robin Beck"
    REM COMPOSER ""
    INDEX 01 21:22:61
  TRACK 08 AUDIO
    TITLE "Get Yer Kix"
    PERFORMER "Fiona"
    REM COMPOSER ""
    INDEX 01 24:50:21
  TRACK 09 AUDIO
    TITLE "Salt on My Wings"
    PERFORMER "Fiona"
    REM COMPOSER ""
    INDEX 01 28:13:39
  TRACK 10 AUDIO
    TITLE "I Love You But Shut Up"
    PERFORMER "Fiona"
    REM COMPOSER ""
    INDEX 01 32:54:25
  TRACK 11 AUDIO
    TITLE "Everything You Are"
    PERFORMER "Fiona"
    REM COMPOSER ""
    INDEX 01 36:12:11
--------------------------------------------------------------------
Все диски купил в ноябре 2019 года. Первые 3 альбома купил на amazon, у официального продавца фирмы "Rock Candy". Остальные на ebay и discogs.
Все диски абсолютно новые, были упакованы и лазер моего нового привода, дотронулся впервые до новых дисков с новой версией программы ЕАС за 2020 год. Кроме альбома Squeeze, этот купил б/у, но у коллекционера в идеальном состоянии.
Правила, инструкции, FAQ!!!
Торрент  Добавлен [28 апр 2020, 19:53] Скачать торрент Магнет ссылка
Скачать торрент
[ Размер 28.75 КБ / Просмотров 7 ]

Статус
Проверен 
 
Размер  1.36 ГБ
Приватный: Нет (DHT включён)
.torrent скачан  0
 


     Отправить личное сообщение
   
Страница 1 из 1
Показать сообщения за:  Поле сортировки  
Начать новую тему Ответить на тему


Сейчас этот форум просматривают: нет зарегистрированных пользователей и гости: 0


Вы не можете начинать темы
Вы не можете отвечать на сообщения
Вы не можете редактировать свои сообщения
Вы не можете удалять свои сообщения
Вы не можете добавлять вложения

Перейти:  
cron