Начать новую тему Ответить на тему
Статистика раздачи
Размер: 8.33 ГБ | Добавлен: 05 июн 2020, 23:13 | Скачали: 0
Сидеров: 0  [0 байт/сек]    Личеров: 0  [0 байт/сек]
Пред. тема | След. тема 

Автор
Сообщение

СообщениеДобавлено: 05 июн 2020, 23:13 

Ответить с цитатой 

Mascagni - Cavalleria Rusticana / Сельская честь; Leoncavallo - Pagliacci / Паяцы
Год выпуска: 2009
Лейбл: ArtHaus Musik
Жанр: Opera
Продолжительность: 01:14:38 + 01:14:55
Язык: Italian
Перевод: Субтитры
Субтитры: Русские, Italian, English, German, French, Spanish
Режиссер: Grischa Asagaroff
Дирижер: Stefano Ranzani
Recorded live at the Zurich Opera House, 2009.
Исполнители:
Cavalleria Rusticana
Lilliana Nikiteanu (Lola), Cheyne Davidson (Alfio), Irène Friedli (Lucia), José Cura (Turiddu), Paoletta Marrocu (Santuzza).
Pagliacci
Boiko Zvetanov (Peppe), Gabriel Bermúdez (Silvio), Carlo Guelfi (Tonio), Fiorenza Cedolins (Nedda), José Cura (Canio).
Orchestra and Chorus of the Zurich Opera House
Описание: Две бессмертные истории любви, чести, справедливости и насилия – их нельзя пропустить ни одному поклоннику оперы. Пьетро Масканьи в " Сельской чести" и Руджеро Леонкавалло в «Паяцах» обращаются к сердцам и душам каждого. Эти две оперы считаются самыми захватывающими трагедиями итальянского музыкального театра. Супружеская измена, ревность и предательство приводят к страстным конфликтам, которые объединяют обе оперы. Сцена впечатляюще украшена, но здесь вы не найдёте преувеличенных декораций, так подчёркивается суровая и жестокая реальность. Обе оперы содержат множество великолепных арий, коротких дуэтов и партий хора, которые способствуют раскрытию чувств. Специальный гость - аргентинский тенор Хосе Кура (José Cura) выделяется своим восхитительным пением и актерскими способностями. Кроме него, сопрано Paoletta Marrocu с ее выразительной интерпретацией роли Сантуццы, Carlo Guelfi как Тонио или Fiorenza Cedolins как Недда способны овладеть аудиторией с помощью своих замечательных голосов. Эти атмосферные спектакли режиссера Гриши Азагарова (Grischa Asagaroff) и дирижера Stefano Ranzani могут очаровать каждого почитателя оперы.
Качество видео: BDRip
Формат/Контейнер: MKV
Видео кодек: H.264
Аудио кодек: DTS, AC-3
Видео поток: AVC, 6000 Кбит/сек, 1280 x 720 (16:9), 29.970 fps
Аудио поток 1: AC3, 448 Кбит/сек, 2 канала, 48,0 КГц
Аудио поток 2: DTS, 1510 Кбит/сек, 6 каналов, 48,0 КГц
E:\my rips\Cavalleria Rusticana Pagliacci 2009 Cura\Pagliacci.mkv
General
Unique ID : 189605259017207079705590089893521010288 (0x8EA4A5043528D385BA69B212BDA22E70)
Complete name : E:\my rips\Cavalleria Rusticana Pagliacci 2009 Cura\Pagliacci.mkv
Format : Matroska
Format version : Version 2
File size : 4.16 GiB
Duration : 1h 14mn
Overall bit rate : 7 980 Kbps
Encoded date : UTC 2012-04-12 13:28:42
Writing application : mkvmerge v5.4.0 ('Piper') built on Mar 10 2012 13:34:39
Writing library : libebml v1.2.3 + libmatroska v1.3.0
Video #1
ID : 1
Format : AVC
Format/Info : Advanced Video Codec
Format profile : High@L3.1
Format settings, CABAC : Yes
Format settings, ReFrames : 4 frames
Muxing mode : Header stripping
Codec ID : V_MPEG4/ISO/AVC
Duration : 1h 14mn
Bit rate : 6 000 Kbps
Width : 1 280 pixels
Height : 720 pixels
Display aspect ratio : 16:9
Frame rate : 29.970 fps
Color space : YUV
Chroma subsampling : 4:2:0
Bit depth : 8 bits
Scan type : Progressive
Bits/(Pixel*Frame) : 0.217
Stream size : 3.06 GiB (73%)
Writing library : x264 core 120 r2164 da19765
Encoding settings : cabac=1 / ref=3 / deblock=1:-1:-1 / analyse=0x3:0x113 / me=hex / subme=7 / psy=1 / psy_rd=1.00:0.15 / mixed_ref=1 / me_range=16 / chroma_me=1 / trellis=1 / 8x8dct=1 / cqm=0 / deadzone=21,11 / fast_pskip=1 / chroma_qp_offset=-3 / threads=6 / sliced_threads=0 / nr=0 / decimate=1 / interlaced=0 / bluray_compat=0 / constrained_intra=0 / bframes=3 / b_pyramid=2 / b_adapt=1 / b_bias=0 / direct=1 / weightb=1 / open_gop=0 / weightp=2 / keyint=300 / keyint_min=29 / scenecut=40 / intra_refresh=0 / rc_lookahead=40 / rc=2pass / mbtree=1 / bitrate=6000 / ratetol=1.0 / qcomp=0.60 / qpmin=0 / qpmax=69 / qpstep=4 / cplxblur=20.0 / qblur=0.5 / ip_ratio=1.40 / aq=1:1.00
Language : Italian
Audio #2
ID : 2
Format : AC-3
Format/Info : Audio Coding 3
Mode extension : CM (complete main)
Muxing mode : Header stripping
Codec ID : A_AC3
Duration : 1h 14mn
Bit rate mode : Constant
Bit rate : 448 Kbps
Channel(s) : 2 channels
Channel positions : Front: L R
Sampling rate : 48.0 KHz
Bit depth : 16 bits
Compression mode : Lossy
Stream size : 239 MiB (6%)
Language : Italian
Audio #3
ID : 3
Format : DTS
Format/Info : Digital Theater Systems
Muxing mode : Header stripping
Codec ID : A_DTS
Duration : 1h 14mn
Bit rate mode : Constant
Bit rate : 1 510 Kbps
Channel(s) : 6 channels
Channel positions : Front: L C R, Side: L R, LFE
Sampling rate : 48.0 KHz
Bit depth : 24 bits
Compression mode : Lossy
Stream size : 806 MiB (19%)
Language : Italian
Text #4
ID : 4
Format : UTF-8
Codec ID : S_TEXT/UTF8
Codec ID/Info : UTF-8 Plain Text
Title : Russian
Language : Russian
Text #5
ID : 5
Format : PGS
Muxing mode : zlib
Codec ID : S_HDMV/PGS
Codec ID/Info : The same subtitle format used on BDs/HD-DVDs
Title : Italian
Language : Italian
Text #6
ID : 6
Format : PGS
Muxing mode : zlib
Codec ID : S_HDMV/PGS
Codec ID/Info : The same subtitle format used on BDs/HD-DVDs
Title : English
Language : English
Text #7
ID : 7
Format : PGS
Muxing mode : zlib
Codec ID : S_HDMV/PGS
Codec ID/Info : The same subtitle format used on BDs/HD-DVDs
Title : German
Language : German
Text #8
ID : 8
Format : PGS
Muxing mode : zlib
Codec ID : S_HDMV/PGS
Codec ID/Info : The same subtitle format used on BDs/HD-DVDs
Title : French
Language : French
Text #9
ID : 9
Format : PGS
Muxing mode : zlib
Codec ID : S_HDMV/PGS
Codec ID/Info : The same subtitle format used on BDs/HD-DVDs
Title : Spanish
Language : Spanish
12.04.2012. Внимание, перезалил торрент. Проблема была с "Паяцами", перекодировал заново. Сейчас всё должно быть в порядке. Рип "Сельской чести" не менял.
Правила, инструкции, FAQ!!!
Торрент  Добавлен [05 июн 2020, 23:13] Скачать торрент Магнет ссылка
Скачать торрент
[ Размер 21.49 КБ / Просмотров 7 ]

Статус
Проверен 
 
Размер  8.33 ГБ
Приватный: Нет (DHT включён)
.torrent скачан  0
 


     Отправить личное сообщение
   
Страница 1 из 1
Показать сообщения за:  Поле сортировки  
Начать новую тему Ответить на тему


Сейчас этот форум просматривают: нет зарегистрированных пользователей и гости: 0


Вы не можете начинать темы
Вы не можете отвечать на сообщения
Вы не можете редактировать свои сообщения
Вы не можете удалять свои сообщения
Вы не можете добавлять вложения

Перейти:  
cron