Начать новую тему Ответить на тему
Статистика раздачи
Размер: 274.89 МБ | Добавлен: 28 июн 2020, 21:10 | Скачали: 0
Сидеров: 1  [0 байт/сек]    Личеров: 0  [0 байт/сек]
Пред. тема | След. тема 

Автор
Сообщение

СообщениеДобавлено: 28 июн 2020, 21:10 

Ответить с цитатой 

The Don Stiernberg Quartet - Straight Ahead
Жанр: Mainstream Jazz, Swing, Mandolin
Носитель: CD
Страна-производитель диска (релиза): США
Год издания: 2020
Издатель (лейбл): Woodside Avenue Music
Аудиокодек: FLAC (*.flac)
Тип рипа: tracks+.cue
Продолжительность: 00:48:53
Источник: mandof5
Наличие сканов в содержимом раздачи: нет
Треклист:
01. I Want to Be Happy (Youmans-Caesar) - 3:44
02. Witchcraft (Coleman-Leigh) - 5:30
03. Anouman (Reinhardt) - 6:28
04. I'm Old Fashioned (Kern-Mercer) - 6:01
05. Estamos ai (Einhorn-Ferreira-Wernek) - 3:59
06. Pick Yourself Up (Kern-Fields) - 4:26
07. Almost Like Being in Love (Lerner-Loewe) - 4:30
08. The Touch of Your Lips (Noble) - 3:31
09. Vibracoes (Bandolim) - 6:23
10. It's You or No One (Styne-Cahn) - 4:21
Состав:
Don Stiernberg - mandolin
Andy Brown - guitar
Jim Cox - bass
Phil Gratteau - drums
Код:
Exact Audio Copy V1.3 from 2. September 2016
EAC extraction logfile from 13. June 2020, 21:32
The Don Stiernberg Quartet / Straight Ahead
Used drive  : HL-DT-STBDDVDRW UH12LS28   Adapter: 1  ID: 0
Read mode               : Secure
Utilize accurate stream : Yes
Defeat audio cache      : Yes
Make use of C2 pointers : No
Read offset correction                      : 667
Overread into Lead-In and Lead-Out          : No
Fill up missing offset samples with silence : Yes
Delete leading and trailing silent blocks   : No
Null samples used in CRC calculations       : Yes
Normalize to                                : 98 %
Used interface                              : Native Win32 interface for Win NT & 2000
Gap handling                                : Appended to previous track
Used output format              : User Defined Encoder
Selected bitrate                : 1024 kBit/s
Quality                         : High
Add ID3 tag                     : No
Command line compressor         : K:\Program Files (x86)\Exact Audio Copy\Flac\flac.exe
Additional command line options : -8 -V -T "ARTIST=%artist%" -T "TITLE=%title%" -T "ALBUM=%albumtitle%" -T "DATE=%year%" -T "TRACKNUMBER=%tracknr%" -T "GENRE=%genre%" -T "PERFORMER=%albuminterpret%" -T "COMPOSER=%composer%" %haslyrics%--tag-from-file=LYRICS="%lyricsfile%"%haslyrics% -T "ALBUMARTIST=%albumartist%" -T "DISCNUMBER=%cdnumber%" -T "TOTALDISCS=%totalcds%" -T "TOTALTRACKS=%numtracks%" -T "COMMENT=%comment%" %source% -o %dest%
TOC of the extracted CD
     Track |   Start  |  Length  | Start sector | End sector
    ---------------------------------------------------------
        1  |  0:00.00 |  3:44.25 |         0    |    16824
        2  |  3:44.25 |  5:30.29 |     16825    |    41603
        3  |  9:14.54 |  6:27.48 |     41604    |    70676
        4  | 15:42.27 |  6:01.34 |     70677    |    97785
        5  | 21:43.61 |  3:59.18 |     97786    |   115728
        6  | 25:43.04 |  4:25.39 |    115729    |   135642
        7  | 30:08.43 |  4:29.42 |    135643    |   155859
        8  | 34:38.10 |  3:31.01 |    155860    |   171685
        9  | 38:09.11 |  6:23.23 |    171686    |   200433
       10  | 44:32.34 |  4:21.32 |    200434    |   220040
Track  1
     Filename E:\EAC music folders\The Don Stiernberg Quartet - traight Ahead (2020) [FLAC] {Woodside Avenue Music}\01 I Want To Be Happy.wav
     Pre-gap length  0:00:02.00
     Peak level 98.2 %
     Extraction speed 1.2 X
     Track quality 100.0 %
     Test CRC 4B54A421
     Copy CRC 4B54A421
     Track not present in AccurateRip database
     Copy OK
Track  2
     Filename E:\EAC music folders\The Don Stiernberg Quartet - traight Ahead (2020) [FLAC] {Woodside Avenue Music}\02 Witchcraft.wav
     Pre-gap length  0:00:01.00
     Peak level 98.2 %
     Extraction speed 1.4 X
     Track quality 100.0 %
     Test CRC 4CDC2A5A
     Copy CRC 4CDC2A5A
     Track not present in AccurateRip database
     Copy OK
Track  3
     Filename E:\EAC music folders\The Don Stiernberg Quartet - traight Ahead (2020) [FLAC] {Woodside Avenue Music}\03 Anouman.wav
     Pre-gap length  0:00:01.00
     Peak level 98.2 %
     Extraction speed 1.6 X
     Track quality 100.0 %
     Test CRC FD8103F2
     Copy CRC FD8103F2
     Track not present in AccurateRip database
     Copy OK
Track  4
     Filename E:\EAC music folders\The Don Stiernberg Quartet - traight Ahead (2020) [FLAC] {Woodside Avenue Music}\04 I'm Old Fashioned.wav
     Pre-gap length  0:00:01.00
     Peak level 98.2 %
     Extraction speed 1.8 X
     Track quality 100.0 %
     Test CRC 80642C9E
     Copy CRC 80642C9E
     Track not present in AccurateRip database
     Copy OK
Track  5
     Filename E:\EAC music folders\The Don Stiernberg Quartet - traight Ahead (2020) [FLAC] {Woodside Avenue Music}\05 Estamos.wav
     Pre-gap length  0:00:01.00
     Peak level 98.2 %
     Extraction speed 1.8 X
     Track quality 100.0 %
     Test CRC 12FFB1A5
     Copy CRC 12FFB1A5
     Track not present in AccurateRip database
     Copy OK
Track  6
     Filename E:\EAC music folders\The Don Stiernberg Quartet - traight Ahead (2020) [FLAC] {Woodside Avenue Music}\06 Pick Yourself Up.wav
     Pre-gap length  0:00:01.00
     Peak level 98.2 %
     Extraction speed 2.0 X
     Track quality 100.0 %
     Test CRC 6BA883B1
     Copy CRC 6BA883B1
     Track not present in AccurateRip database
     Copy OK
Track  7
     Filename E:\EAC music folders\The Don Stiernberg Quartet - traight Ahead (2020) [FLAC] {Woodside Avenue Music}\07 Almost Like Being In Love.wav
     Pre-gap length  0:00:01.00
     Peak level 98.2 %
     Extraction speed 1.8 X
     Track quality 99.9 %
     Test CRC B4F079B4
     Copy CRC B4F079B4
     Track not present in AccurateRip database
     Copy OK
Track  8
     Filename E:\EAC music folders\The Don Stiernberg Quartet - traight Ahead (2020) [FLAC] {Woodside Avenue Music}\08 The Touch Of Your Lips.wav
     Pre-gap length  0:00:01.00
     Peak level 98.2 %
     Extraction speed 2.1 X
     Track quality 100.0 %
     Test CRC C026CEC7
     Copy CRC C026CEC7
     Track not present in AccurateRip database
     Copy OK
Track  9
     Filename E:\EAC music folders\The Don Stiernberg Quartet - traight Ahead (2020) [FLAC] {Woodside Avenue Music}\09 Vibracoes.wav
     Pre-gap length  0:00:01.00
     Peak level 98.2 %
     Extraction speed 2.3 X
     Track quality 100.0 %
     Test CRC C9DF27ED
     Copy CRC C9DF27ED
     Track not present in AccurateRip database
     Copy OK
Track 10
     Filename E:\EAC music folders\The Don Stiernberg Quartet - traight Ahead (2020) [FLAC] {Woodside Avenue Music}\10 It's You Or No One.wav
     Pre-gap length  0:00:01.00
     Peak level 98.2 %
     Extraction speed 2.3 X
     Track quality 100.0 %
     Test CRC 502C6FED
     Copy CRC 502C6FED
     Track not present in AccurateRip database
     Copy OK
None of the tracks are present in the AccurateRip database
No errors occurred
End of status report
---- CUETools DB Plugin V2.1.6
[CTDB TOCID: 734jSi_pbQU6UdmmZBNch1ZXD1A-] disk not present in database
Submit result: 734jSi_pbQU6UdmmZBNch1ZXD1A- has been uploaded
==== Log checksum C56B1ABA9D171F4AAB2BE6573ABDBCAA7BB77E6CAD5A93E894BA33DDD73DE6B3 ====
Код:
REM GENRE Jazz
REM DATE 2020
REM DISCID 7A0B750A
REM COMMENT "ExactAudioCopy v1.3"
PERFORMER "Don Stiernberg"
TITLE "Straight Ahead"
FILE "01 - I Want to Be Happy.wav" WAVE
  TRACK 01 AUDIO
    TITLE "I Want to Be Happy"
    PERFORMER "Don Stiernberg"
    ISRC QMAAK2046349
    INDEX 01 00:00:00
  TRACK 02 AUDIO
    TITLE "Witchcraft"
    PERFORMER "Don Stiernberg"
    ISRC QMAAK2046350
    INDEX 00 03:43:25
FILE "02 - Witchcraft.wav" WAVE
    INDEX 01 00:00:00
  TRACK 03 AUDIO
    TITLE "Anouman"
    PERFORMER "Don Stiernberg"
    ISRC QMAAK2046351
    INDEX 00 05:29:29
FILE "03 - Anouman.wav" WAVE
    INDEX 01 00:00:00
  TRACK 04 AUDIO
    TITLE "I'm Old Fashioned"
    PERFORMER "Don Stiernberg"
    ISRC QMAAK2046352
    INDEX 00 06:26:48
FILE "04 - I'm Old Fashioned.wav" WAVE
    INDEX 01 00:00:00
  TRACK 05 AUDIO
    TITLE "Estamos ai"
    PERFORMER "Don Stiernberg"
    ISRC QMAAK2046353
    INDEX 00 06:00:34
FILE "05 - Estamos ai.wav" WAVE
    INDEX 01 00:00:00
  TRACK 06 AUDIO
    TITLE "Pick Yourself Up"
    PERFORMER "Don Stiernberg"
    ISRC QMAAK2046354
    INDEX 00 03:58:18
FILE "06 - Pick Yourself Up.wav" WAVE
    INDEX 01 00:00:00
  TRACK 07 AUDIO
    TITLE "Almost Like Being in Love"
    PERFORMER "Don Stiernberg"
    ISRC QMAAK2046355
    INDEX 00 04:24:39
FILE "07 - Almost Like Being in Love.wav" WAVE
    INDEX 01 00:00:00
  TRACK 08 AUDIO
    TITLE "The Touch of Your Lips"
    PERFORMER "Don Stiernberg"
    ISRC QMAAK2046356
    INDEX 00 04:28:42
FILE "08 - The Touch of Your Lips.wav" WAVE
    INDEX 01 00:00:00
  TRACK 09 AUDIO
    TITLE "Vibracoes"
    PERFORMER "Don Stiernberg"
    ISRC QMAAK2046357
    INDEX 00 03:30:01
FILE "09 - Vibracoes.wav" WAVE
    INDEX 01 00:00:00
  TRACK 10 AUDIO
    TITLE "It's You or No One"
    PERFORMER "Don Stiernberg"
    ISRC QMAAK2046358
    INDEX 00 06:22:23
FILE "10 - It's You or No One.wav" WAVE
    INDEX 01 00:00:00
Правила, инструкции, FAQ!!!
Торрент  Добавлен [28 июн 2020, 21:10] Скачать торрент Магнет ссылка
Скачать торрент
[ Размер 12.09 КБ / Просмотров 4 ]

Статус
Проверен 
 
Размер  274.89 МБ
Приватный: Нет (DHT включён)
.torrent скачан  0
 


     Отправить личное сообщение
   
Страница 1 из 1
Показать сообщения за:  Поле сортировки  
Начать новую тему Ответить на тему


Сейчас этот форум просматривают: нет зарегистрированных пользователей и гости: 0


Вы не можете начинать темы
Вы не можете отвечать на сообщения
Вы не можете редактировать свои сообщения
Вы не можете удалять свои сообщения
Вы не можете добавлять вложения

Перейти:  
cron