Начать новую тему Ответить на тему
Статистика раздачи
Размер: 224.84 МБ | Добавлен: 01 янв 2020, 22:45 | Скачали: 0
Сидеров: 0  [0 байт/сек]    Личеров: 0  [0 байт/сек]
Пред. тема | След. тема 

Автор
Сообщение

СообщениеДобавлено: 01 янв 2020, 22:45 

Ответить с цитатой 

Fred Timm / Was macht eigentlich... Fred Timm?
Жанр: Liedermacher
Страна-производитель диска: Germany
Год издания диска: 2002
Издатель (лейбл): Fred Timm
Номер по каталогу: n/a
Страна: Germany
Аудиокодек: APE (*.ape)
Тип рипа: image+.cue
Битрейт аудио: lossless
Продолжительность: 41:14
Источник (релизер): avax
Наличие сканов в содержимом раздачи: да
Треклист:
01 Nicht So Gut
02 Scheiß' Auf Deine Ex
03 Spaßbremsenfete Bei Jörg 2002
04 Herzblatt-Hubschrauber
05 Nummer 2
06 Carola
07 Heute Sag' Ich Nein
08 Montag
09 Nadine Hat Fachabitur
10 Französische Kleinstadt
11 Pärchen
12 Morgenlatte
Код:
Exact Audio Copy V1.0 beta 2 from 29. April 2011
EAC extraction logfile from 23. October 2011, 21:39
Fred Timm / Was macht eigentlich... Fred Timm?
Used drive  : HL-DT-STDVDRAM GSA-H12L   Adapter: 0  ID: 0
Read mode               : Secure
Utilize accurate stream : Yes
Defeat audio cache      : Yes
Make use of C2 pointers : No
Read offset correction                      : 667
Overread into Lead-In and Lead-Out          : No
Fill up missing offset samples with silence : Yes
Delete leading and trailing silent blocks   : No
Null samples used in CRC calculations       : Yes
Used interface                              : Native Win32 interface for Win NT & 2000
Used output format              : User Defined Encoder
Selected bitrate                : 896 kBit/s
Quality                         : High
Add ID3 tag                     : No
Command line compressor         : C:\Program Files\FLAC\flac.exe
Additional command line options : -5 -T "Artist=%artist%" -T "Title=%title%" -T "Album=%albumtitle%" -T "Date=%year%" -T "Tracknumber=%tracknr%" -T "Genre=%genre%" %source% -o %dest%
TOC of the extracted CD
     Track |   Start  |  Length  | Start sector | End sector
    ---------------------------------------------------------
        1  |  0:00.00 |  3:09.15 |         0    |    14189
        2  |  3:09.15 |  2:25.69 |     14190    |    25133
        3  |  5:35.09 |  3:49.15 |     25134    |    42323
        4  |  9:24.24 |  3:18.46 |     42324    |    57219
        5  | 12:42.70 |  3:23.03 |     57220    |    72447
        6  | 16:05.73 |  4:13.73 |     72448    |    91495
        7  | 20:19.71 |  3:22.71 |     91496    |   106716
        8  | 23:42.67 |  3:16.37 |    106717    |   121453
        9  | 26:59.29 |  2:58.74 |    121454    |   134877
       10  | 29:58.28 |  3:17.10 |    134878    |   149662
       11  | 33:15.38 |  4:00.59 |    149663    |   167721
       12  | 37:16.22 |  3:58.02 |    167722    |   185573
Range status and errors
Selected range
     Filename I:\=== VINYL RIPS ===\=== EAC===\Fred Timm - Was macht eigentlich... Fred Timm.wav
     Peak level 92.4 %
     Extraction speed 7.2 X
     Range quality 100.0 %
     Test CRC 68D46A3F
     Copy CRC 68D46A3F
     Copy OK
No errors occurred
AccurateRip summary
Track  1  not present in database
Track  2  not present in database
Track  3  not present in database
Track  4  not present in database
Track  5  not present in database
Track  6  not present in database
Track  7  not present in database
Track  8  not present in database
Track  9  not present in database
Track 10  not present in database
Track 11  not present in database
Track 12  not present in database
None of the tracks are present in the AccurateRip database
End of status report
==== Log checksum ECE69C55F4BD5B89042A558176F1FF6F952473A354D45D17FD57729B8A9D8EC8 ====
Код:
AUDIOCHECKER v2.0 beta (build 457) - by Dester - opdester@freemail.hu
~~~~~~~~~~~~~~~~~~~~~~~~~~~~~~~~~~
-=== DO NOT EDIT THIS FILE! ===-
Path: ...\Fred Timm - Was macht eigentlich... Fred Timm {Germany 2002}
1 -=- Fred Timm - Was macht eigentlich... Fred Timm.wav -=- CDDA (100%)
196688228
Правила, инструкции, FAQ!!!
Торрент  Добавлен [01 янв 2020, 22:45] Скачать торрент Магнет ссылка
Скачать торрент
[ Размер 18.49 КБ / Просмотров 2 ]

Статус
Проверен 
 
Размер  224.84 МБ
Приватный: Нет (DHT включён)
.torrent скачан  0
 


     Отправить личное сообщение
   
Страница 1 из 1
Показать сообщения за:  Поле сортировки  
Начать новую тему Ответить на тему


Сейчас этот форум просматривают: нет зарегистрированных пользователей и гости: 0


Вы не можете начинать темы
Вы не можете отвечать на сообщения
Вы не можете редактировать свои сообщения
Вы не можете удалять свои сообщения
Вы не можете добавлять вложения

Перейти:  
cron