Начать новую тему Ответить на тему
Статистика раздачи
Размер: 40.69 ГБ | Добавлен: 05 июн 2020, 23:15 | Скачали: 0
Сидеров: 0  [0 байт/сек]    Личеров: 0  [0 байт/сек]
Пред. тема | След. тема 

Автор
Сообщение

СообщениеДобавлено: 05 июн 2020, 23:15 

Ответить с цитатой 

Леош Яначек - Енуфа (Ее падчерица) / Leoš Janáček - Jenufa
Год выпуска: 2009
Лейбл: Opus Arte, Teatro Real Madrid
Страна-производитель: США, Испания
Жанр: Opera
Продолжительность: 02:47:07
Язык: Чешский
Субтитры: Английские, французские, немецкие, испанские, русские (отдельным файлом)
Режиссер: Stéphane Braunschweig (Стефан Брауншвейг), Ángel Luis Ramírez (Анхель Луис Рамирес)
Дирижер: Ivor Bolton (Айвор Болтон)
Исполнители:
Amanda Roocroft (Аманда Рукрофт) - Jenůfa (Енуфа, падчерица бабушки Бурыйи),
Deborah Polaski (Дебора Поласки) - Kostelnička (Дьячиха (церковная сторожиха), вдова, невестка Бурыйи),
Miroslav Dvorský (Мирослав Дворски) - Laca Klemen (Лаца Клемень, внук бабушки Бурыйи),
Nikolai Schukoff (Николай Шукофф) - Števa Buryja (Штева Бурыйа, внук бабушки Бурыйи),
Mette Ejsing (Метте Эйсинг) - Grandmother Buryjovka (Бабушка Бурыйа, хозяйка мельницы),
Károly Szemerédy (Кароль Семереди) - Foreman of the mill (Старик-работник на мельнице),
Sandra Ferrández (Сандра Феррандез) - Barena (Барена, служанка),
Miguel Sola (Мигель Сола) - The Mayor (Староста),
Marta Mathéu (Марта Матеу) - His wife (Старостиха),
Marta Ubieta (Марта Убьета) - Karolka (Каролка, их дочь),
María José Suárez (Мария Хосе Суарез) - Herdswoman (Пастушка),
Elena Poesina (Елена Песина) - Jano (Янек, пастушок),
Marina Makhmoutova (Марина Махмутова) - Aunt (Кума)
Orchestra and Chorus of the Teatro Real (оркестр и хор Королевского театра Мадрида)
Описание: «Енуфа» стоит в ряду женских оперных портретов, которыми увлеклись композиторы ещё в XIX веке, поняв, что в них они смогут воплотить ту чувственность, которую не всегда можно было встретить в реальной жизни. Страсть набирала обороты, неуклонно двигаясь к своей кульминации, доходя до мыслимого, а чаще — немыслимого предела. Немногим раньше премьеры «Енуфы» в 1904 году в Брно, в Риме была показана «Тоска» Пуччини, в том же году в Милане — его «Мадам Баттерфлай». В 1905-м Европа содрогнулась от шокирующих разрушительных откровений «Саломеи» Рихарда Штрауса. Леош Яначек взял за основу либретто пьесу чешской писательницы Габриэлы Прейссовой «Её падчерица». «Жизненная драма из крестьянского быта, обличающая косность и жестокость нравов в отдалённых заброшенных деревнях Моравии» впечатлила его неизгладимо. Енуфа — заложница обстоятельств, существо зависимое и страдающее. Хотя природу её не назовёшь слабой: неслучайно её партия отдана драматическому сопрано. И в убийстве своего внебрачного ребенка, в общем-то, виновата не она, а укрывающая её от позора Дьячиха, втайне решившая его утопить. Младенец, не успевший прожить и месяца, — единственная жертва этой драмы. Все остальные, включая главную героиню и хлопотунью-убийцу, продолжают жить, что нетипично для этого жанра: Тоска с Баттерфлай закалывались, Джильду убивали, даже Снегурочка таяла. Яначек вслед за Прейссовой оставляет жизнь и Енуфе, и её бестолковому возлюбленному Лаце, вероятнее всего, бессмысленную и тупиковую, с неизбывным чувством вины.
The vulnerable young woman at the heart of Janáček's breakthrough opera is a signature role for the English soprano Amanda Roocroft. Here, in Stéphane Braunschweig's clear but deeply affecting production, she is partnered by the Slovak tenor Miroslav Dvorský, as the man through whom she finds redemption, love and hope. The complex figure of the Kostelnička becomes both tormentor and tormented in this fearless interpretation by the great dramatic soprano Deborah Polaski.
Recorded live at the the Teatro Real, Madrid, 22 December 2009.
Бонусы:
Synopsis (6:01), 1080i
Cast gallery (0:54)
Об опере
Качество видео: Blu-ray
Формат/Контейнер: M2TS
Видео кодек: MPEG4
Аудио кодек: LPCM, DTS
Видео поток: MPEG-4 Video, 1920x1080, 32940 kbps, 29.970 fps
Аудио поток 1: LPCM, 2 ch, 48 kHz, 24-bit, 2304 kbps
Аудио поток 2: DTS-HD MA, 5.1 ch, 48 kHz, 24-bit, 4143 kbps (DTS Core: 5.1 / 48 kHz / 1509 kbps / 24-bit)
Аудио поток 3 (в бонусах): English, LPCM, 2 ch, 48 kHz, 16-bit, 1536 kbps
Disc Title: Яначек Леош - Енуфа (Teatro Real, Madrid) (2009) (Blu-ray 1080i, AVC, DTS-HD 5.1)
Disc Size: 43 694 365 755 bytes
Protection: AACS
BD-Java: No
BDInfo: 0.5.8
Notes:
BDINFO HOME:
Cinema Squid
http://www.cinemasquid.com/blu-ray/tools/bdinfo
INCLUDES FORUMS REPORT FOR:
AVS Forum Blu-ray Audio and Video Specifications Thread
http://www.avsforum.com/avs-vb/showthread.php?t=1155731
********************
PLAYLIST: 00002.MPLS
********************
<--- BEGIN FORUMS PASTE --->Код:
Код:
                                                                                Total   Video
Title                                                           Codec   Length  Movie Size      Disc Size       Bitrate Bitrate Main Audio Track                          Secondary Audio Track
-----                                                           ------  ------- --------------  --------------  ------- ------- ------------------                        ---------------------
00002.MPLS                                                      AVC     2:16:25 42 544 533 504  43 694 365 755  41,58   32,94   DTS-HD Master 5.1 4143Kbps (48kHz/24-bit) LPCM 2.0 2304Kbps (48kHz/24-bit)

Код:
Код:
DISC INFO:
Disc Title:     Яначек Леош - Енуфа (Teatro Real, Madrid) (2009) (Blu-ray 1080i, AVC, DTS-HD 5.1)
Disc Size:      43 694 365 755 bytes
Protection:     AACS
BD-Java:        No
BDInfo:         0.5.8
PLAYLIST REPORT:
Name:                   00002.MPLS
Length:                 2:16:25.210 (h:m:s.ms)
Size:                   42 544 533 504 bytes
Total Bitrate:          41,58 Mbps
VIDEO:
Codec                   Bitrate             Description
-----                   -------             -----------
MPEG-4 AVC Video        32940 kbps          1080i / 29,970 fps / 16:9 / High Profile 4.1
AUDIO:
Codec                           Language        Bitrate         Description
-----                           --------        -------         -----------
DTS-HD Master Audio             Czech           4143 kbps       5.1 / 48 kHz / 4143 kbps / 24-bit (DTS Core: 5.1 / 48 kHz / 1509 kbps / 24-bit)
LPCM Audio                      Czech           2304 kbps       2.0 / 48 kHz / 2304 kbps / 24-bit
SUBTITLES:
Codec                           Language        Bitrate         Description
-----                           --------        -------         -----------
Presentation Graphics           English         21,259 kbps
Presentation Graphics           French          18,988 kbps
Presentation Graphics           German          22,183 kbps
Presentation Graphics           Spanish         17,415 kbps
FILES:
Name            Time In         Length          Size            Total Bitrate
----            -------         ------          ----            -------------
00007.M2TS      0:00:00.000     2:16:25.210     42 544 533 504  41 582
CHAPTERS:
Number          Time In         Length          Avg Video Rate  Max 1-Sec Rate  Max 1-Sec Time  Max 5-Sec Rate  Max 5-Sec Time  Max 10Sec Rate  Max 10Sec Time  Avg Frame Size  Max Frame Size  Max Frame Time
------          -------         ------          --------------  --------------  --------------  --------------  --------------  --------------  --------------  --------------  --------------  --------------
1               0:00:00.000     0:02:33.153     31 470 kbps     54 118 kbps     00:00:01.201    34 882 kbps     00:00:01.034    32 882 kbps     00:02:06.292    131 227 bytes   421 722 bytes   00:01:10.570
2               0:02:33.153     0:02:14.134     32 524 kbps     40 940 kbps     00:03:43.957    37 193 kbps     00:03:48.561    36 945 kbps     00:03:43.523    135 651 bytes   424 372 bytes   00:02:57.243
3               0:04:47.287     0:01:57.617     33 670 kbps     38 520 kbps     00:06:42.301    35 274 kbps     00:05:06.439    34 761 kbps     00:05:04.537    140 431 bytes   343 857 bytes   00:06:11.371
4               0:06:44.904     0:03:59.239     33 648 kbps     40 871 kbps     00:06:47.640    36 494 kbps     00:06:47.640    35 546 kbps     00:09:07.280    140 339 bytes   352 392 bytes   00:07:51.771
5               0:10:44.143     0:04:16.756     32 510 kbps     43 680 kbps     00:11:27.620    35 274 kbps     00:11:27.620    34 255 kbps     00:14:28.067    135 594 bytes   393 110 bytes   00:14:38.043
6               0:15:00.900     0:05:05.805     33 282 kbps     38 615 kbps     00:18:03.816    35 954 kbps     00:17:59.912    35 577 kbps     00:17:54.907    138 813 bytes   379 646 bytes   00:15:29.895
7               0:20:06.705     0:02:28.648     33 554 kbps     40 614 kbps     00:21:27.019    37 378 kbps     00:22:13.999    36 745 kbps     00:22:13.598    139 949 bytes   366 942 bytes   00:22:14.866
8               0:22:35.354     0:04:30.770     34 780 kbps     42 555 kbps     00:25:00.398    38 061 kbps     00:24:12.317    37 740 kbps     00:24:07.879    145 060 bytes   423 737 bytes   00:24:52.290
9               0:27:06.124     0:06:45.405     32 842 kbps     39 040 kbps     00:30:10.875    35 593 kbps     00:32:30.114    35 312 kbps     00:32:25.109    136 980 bytes   363 252 bytes   00:30:19.450
10              0:33:51.529     0:02:40.660     32 354 kbps     37 524 kbps     00:35:00.398    33 853 kbps     00:34:43.314    33 465 kbps     00:34:38.309    134 944 bytes   331 416 bytes   00:34:33.538
11              0:36:32.190     0:03:04.684     32 065 kbps     38 802 kbps     00:39:07.645    35 821 kbps     00:39:07.578    35 133 kbps     00:39:07.511    133 740 bytes   371 238 bytes   00:39:10.381
12              0:39:36.874     0:02:41.661     30 693 kbps     38 328 kbps     00:40:25.356    34 167 kbps     00:39:39.610    33 252 kbps     00:39:37.274    128 015 bytes   349 856 bytes   00:40:26.090
13              0:42:18.536     0:06:25.384     31 313 kbps     48 795 kbps     00:48:15.092    36 449 kbps     00:45:53.250    35 525 kbps     00:45:48.278    130 600 bytes   378 119 bytes   00:48:32.342
14              0:48:43.921     0:01:32.092     30 249 kbps     34 725 kbps     00:49:02.973    33 468 kbps     00:49:01.772    32 817 kbps     00:49:00.904    126 162 bytes   277 399 bytes   00:49:44.147
15              0:50:16.013     0:02:05.625     31 871 kbps     38 547 kbps     00:52:14.297    34 854 kbps     00:52:14.131    33 491 kbps     00:52:09.092    132 928 bytes   319 059 bytes   00:52:15.065
16              0:52:21.638     0:05:08.308     33 733 kbps     42 369 kbps     00:54:35.505    37 089 kbps     00:53:52.829    36 431 kbps     00:53:52.729    140 696 bytes   371 265 bytes   00:53:07.717
17              0:57:29.946     0:02:04.624     34 161 kbps     39 220 kbps     00:59:14.350    37 055 kbps     00:58:47.056    36 265 kbps     00:58:46.689    142 480 bytes   329 541 bytes   00:58:22.799
18              0:59:34.571     0:06:14.874     34 012 kbps     41 180 kbps     01:00:14.077    36 993 kbps     01:00:36.933    36 279 kbps     01:00:21.951    141 860 bytes   346 093 bytes   01:00:14.177
19              1:05:49.445     0:04:25.765     33 767 kbps     46 074 kbps     01:09:21.190    38 060 kbps     01:06:15.972    37 135 kbps     01:06:12.335    140 838 bytes   482 980 bytes   01:09:21.257
20              1:10:15.211     0:01:59.118     33 829 kbps     45 562 kbps     01:10:42.471    37 491 kbps     01:10:38.934    35 475 kbps     01:10:24.887    141 093 bytes   411 395 bytes   01:11:00.623
21              1:12:14.330     0:04:07.914     34 528 kbps     39 601 kbps     01:16:10.632    37 063 kbps     01:13:30.572    35 878 kbps     01:15:58.487    144 009 bytes   366 333 bytes   01:14:36.872
22              1:16:22.244     0:05:46.679     34 420 kbps     39 954 kbps     01:20:28.490    36 611 kbps     01:20:40.335    36 188 kbps     01:20:38.967    143 561 bytes   389 007 bytes   01:19:48.183
23              1:22:08.924     0:02:41.060     34 113 kbps     36 515 kbps     01:24:35.070    34 975 kbps     01:23:37.012    34 700 kbps     01:24:33.368    142 282 bytes   336 456 bytes   01:24:35.103
24              1:24:49.984     0:01:28.188     33 954 kbps     39 062 kbps     01:24:52.253    35 614 kbps     01:25:29.224    35 223 kbps     01:25:29.224    141 617 bytes   378 248 bytes   01:25:02.464
25              1:26:18.173     0:03:23.703     33 897 kbps     38 376 kbps     01:28:34.809    35 050 kbps     01:28:34.609    34 666 kbps     01:28:34.342    141 378 bytes   424 331 bytes   01:29:12.914
26              1:29:41.876     0:08:14.493     32 842 kbps     44 216 kbps     01:33:18.392    35 486 kbps     01:31:37.525    35 042 kbps     01:33:45.486    136 979 bytes   479 778 bytes   01:32:31.145
27              1:37:56.370     0:01:53.613     31 459 kbps     43 987 kbps     01:37:57.871    36 160 kbps     01:37:57.671    35 190 kbps     01:37:57.638    131 210 bytes   305 079 bytes   01:38:42.483
28              1:39:49.984     0:04:52.291     33 708 kbps     42 800 kbps     01:41:47.968    38 603 kbps     01:41:47.668    36 726 kbps     01:42:07.187    140 589 bytes   373 932 bytes   01:43:33.607
29              1:44:42.276     0:03:56.235     34 248 kbps     40 966 kbps     01:48:27.634    36 932 kbps     01:48:23.430    36 359 kbps     01:48:18.625    142 844 bytes   402 482 bytes   01:46:15.736
30              1:48:38.512     0:01:03.396     32 788 kbps     40 001 kbps     01:48:52.359    35 530 kbps     01:48:52.359    34 471 kbps     01:48:48.889    136 751 bytes   351 327 bytes   01:48:52.959
31              1:49:41.908     0:03:57.403     32 956 kbps     44 038 kbps     01:50:25.418    36 725 kbps     01:52:40.687    36 141 kbps     01:52:39.586    137 455 bytes   471 838 bytes   01:50:25.518
32              1:53:39.312     0:04:04.744     31 471 kbps     48 294 kbps     01:55:14.173    37 280 kbps     01:56:58.311    36 911 kbps     01:56:58.344    131 260 bytes   507 274 bytes   01:55:14.240
33              1:57:44.057     0:03:30.210     31 923 kbps     36 633 kbps     02:00:39.632    34 071 kbps     02:00:51.277    33 262 kbps     02:00:30.623    133 144 bytes   392 742 bytes   02:00:47.440
34              2:01:14.267     0:04:09.248     31 005 kbps     37 240 kbps     02:02:23.969    33 867 kbps     02:01:19.472    33 302 kbps     02:01:19.472    129 318 bytes   363 206 bytes   02:01:29.415
35              2:05:23.516     0:03:31.878     30 523 kbps     34 979 kbps     02:08:54.393    31 204 kbps     02:07:41.487    30 985 kbps     02:07:06.318    127 308 bytes   337 465 bytes   02:05:29.154
36              2:08:55.394     0:07:29.816     32 627 kbps     43 491 kbps     02:14:11.410    37 071 kbps     02:14:10.742    35 844 kbps     02:14:05.737    136 093 bytes   507 948 bytes   02:12:41.920
STREAM DIAGNOSTICS:
File            PID             Type            Codec           Language                Seconds                 Bitrate                 Bytes           Packets
----            ---             ----            -----           --------                --------------          --------------          -------------   -----
00007.M2TS      4113 (0x1011)   0x1B            AVC                                     8185,144                32 940                  33 702 236 467  183 430 487
00007.M2TS      4352 (0x1100)   0x86            DTS-HD MA       ces (Czech)             8185,144                4 143                   4 239 215 140   24 314 849
00007.M2TS      4353 (0x1101)   0x80            LPCM            ces (Czech)             8185,144                2 310                   2 363 890 092   13 096 344
00007.M2TS      4608 (0x1200)   0x90            PGS             eng (English)           8185,144                21                      21 750 972      124 765
00007.M2TS      4609 (0x1201)   0x90            PGS             fra (French)            8185,144                19                      19 427 791      112 138
00007.M2TS      4610 (0x1202)   0x90            PGS             deu (German)            8185,144                22                      22 696 175      129 896
00007.M2TS      4611 (0x1203)   0x90            PGS             spa (Spanish)           8185,144                17                      17 818 257      103 399

<---- END FORUMS PASTE ---->
QUICK SUMMARY:
Disc Title: Яначек Леош - Енуфа (Teatro Real, Madrid) (2009) (Blu-ray 1080i, AVC, DTS-HD 5.1)
Disc Size: 43 694 365 755 bytes
Protection: AACS
BD-Java: No
Playlist: 00002.MPLS
Size: 42 544 533 504 bytes
Length: 2:16:25.210
Total Bitrate: 41,58 Mbps
Video: MPEG-4 AVC Video / 32940 kbps / 1080i / 29,970 fps / 16:9 / High Profile 4.1
Audio: Czech / DTS-HD Master Audio / 5.1 / 48 kHz / 4143 kbps / 24-bit (DTS Core: 5.1 / 48 kHz / 1509 kbps / 24-bit)
Audio: Czech / LPCM Audio / 2.0 / 48 kHz / 2304 kbps / 24-bit
Subtitle: English / 21,259 kbps
Subtitle: French / 18,988 kbps
Subtitle: German / 22,183 kbps
Subtitle: Spanish / 17,415 kbps
********************
PLAYLIST: 00004.MPLS
********************
<--- BEGIN FORUMS PASTE --->Код:
Код:
                                                                                Total   Video
Title                                                           Codec   Length  Movie Size      Disc Size       Bitrate Bitrate Main Audio Track                          Secondary Audio Track
-----                                                           ------  ------- --------------  --------------  ------- ------- ------------------                        ---------------------
00004.MPLS                                                      AVC     0:06:01 1 012 592 640   43 694 365 755  22,38   19,39   LPCM 2.0 1536Kbps (48kHz/16-bit)

Код:
Код:
DISC INFO:
Disc Title:     Яначек Леош - Енуфа (Teatro Real, Madrid) (2009) (Blu-ray 1080i, AVC, DTS-HD 5.1)
Disc Size:      43 694 365 755 bytes
Protection:     AACS
BD-Java:        No
BDInfo:         0.5.8
PLAYLIST REPORT:
Name:                   00004.MPLS
Length:                 0:06:01.961 (h:m:s.ms)
Size:                   1 012 592 640 bytes
Total Bitrate:          22,38 Mbps
VIDEO:
Codec                   Bitrate             Description
-----                   -------             -----------
MPEG-4 AVC Video        19391 kbps          1080i / 29,970 fps / 16:9 / High Profile 4.1
AUDIO:
Codec                           Language        Bitrate         Description
-----                           --------        -------         -----------
LPCM Audio                      English         1536 kbps       2.0 / 48 kHz / 1536 kbps / 16-bit
SUBTITLES:
Codec                           Language        Bitrate         Description
-----                           --------        -------         -----------
Presentation Graphics           English         0,004 kbps
Presentation Graphics           French          60,022 kbps
Presentation Graphics           German          64,070 kbps
Presentation Graphics           Spanish         61,621 kbps
FILES:
Name            Time In         Length          Size            Total Bitrate
----            -------         ------          ----            -------------
00005.M2TS      0:00:00.000     0:06:01.961     1 012 592 640   22 380
CHAPTERS:
Number          Time In         Length          Avg Video Rate  Max 1-Sec Rate  Max 1-Sec Time  Max 5-Sec Rate  Max 5-Sec Time  Max 10Sec Rate  Max 10Sec Time  Avg Frame Size  Max Frame Size  Max Frame Time
------          -------         ------          --------------  --------------  --------------  --------------  --------------  --------------  --------------  --------------  --------------  --------------
1               0:00:00.000     0:06:01.961     19 391 kbps     52 688 kbps     00:01:56.115    28 588 kbps     00:00:09.442    25 328 kbps     00:03:51.998    80 878 bytes    586 483 bytes   00:02:35.655
STREAM DIAGNOSTICS:
File            PID             Type            Codec           Language                Seconds                 Bitrate                 Bytes           Packets
----            ---             ----            -----           --------                --------------          --------------          -------------   -----
00005.M2TS      4113 (0x1011)   0x1B            AVC                                     361,828                 19 398                  877 361 557     4 779 853
00005.M2TS      4352 (0x1100)   0x80            LPCM            eng (English)           361,828                 1 543                   69 786 852      434 358
00005.M2TS      4608 (0x1200)   0x90            PGS             eng (English)           361,828                 0                       165             8
00005.M2TS      4609 (0x1201)   0x90            PGS             fra (French)            361,828                 60                      2 715 693       15 392
00005.M2TS      4610 (0x1202)   0x90            PGS             deu (German)            361,828                 64                      2 898 858       16 386
00005.M2TS      4611 (0x1203)   0x90            PGS             spa (Spanish)           361,828                 62                      2 788 049       15 786

<---- END FORUMS PASTE ---->
QUICK SUMMARY:
Disc Title: Яначек Леош - Енуфа (Teatro Real, Madrid) (2009) (Blu-ray 1080i, AVC, DTS-HD 5.1)
Disc Size: 43 694 365 755 bytes
Protection: AACS
BD-Java: No
Playlist: 00004.MPLS
Size: 1 012 592 640 bytes
Length: 0:06:01.961
Total Bitrate: 22,38 Mbps
Video: MPEG-4 AVC Video / 19391 kbps / 1080i / 29,970 fps / 16:9 / High Profile 4.1
Audio: English / LPCM Audio / 2.0 / 48 kHz / 1536 kbps / 16-bit
Subtitle: English / 0,004 kbps
Subtitle: French / 60,022 kbps
Subtitle: German / 64,070 kbps
Subtitle: Spanish / 61,621 kbps
********************
PLAYLIST: 00003.MPLS
********************
<--- BEGIN FORUMS PASTE --->Код:
Код:
                                                                                Total   Video
Title                                                           Codec   Length  Movie Size      Disc Size       Bitrate Bitrate Main Audio Track                          Secondary Audio Track
-----                                                           ------  ------- --------------  --------------  ------- ------- ------------------                        ---------------------
00003.MPLS                                                      AVC     0:00:54 32 194 560      43 694 365 755  4,76    4,49

Код:
Код:
DISC INFO:
Disc Title:     Яначек Леош - Енуфа (Teatro Real, Madrid) (2009) (Blu-ray 1080i, AVC, DTS-HD 5.1)
Disc Size:      43 694 365 755 bytes
Protection:     AACS
BD-Java:        No
BDInfo:         0.5.8
PLAYLIST REPORT:
Name:                   00003.MPLS
Length:                 0:00:54.087 (h:m:s.ms)
Size:                   32 194 560 bytes
Total Bitrate:          4,76 Mbps
VIDEO:
Codec                   Bitrate             Description
-----                   -------             -----------
MPEG-4 AVC Video        4489 kbps           1080i / 29,970 fps / 16:9 / High Profile 4.1
FILES:
Name            Time In         Length          Size            Total Bitrate
----            -------         ------          ----            -------------
00006.M2TS      0:00:00.000     0:00:54.087     32 194 560      4 762
CHAPTERS:
Number          Time In         Length          Avg Video Rate  Max 1-Sec Rate  Max 1-Sec Time  Max 5-Sec Rate  Max 5-Sec Time  Max 10Sec Rate  Max 10Sec Time  Avg Frame Size  Max Frame Size  Max Frame Time
------          -------         ------          --------------  --------------  --------------  --------------  --------------  --------------  --------------  --------------  --------------  --------------
1               0:00:00.000     0:00:09.175     5 362 kbps      18 028 kbps     00:00:07.974    5 804 kbps      00:00:04.170    0 kbps          00:00:00.000    22 283 bytes    281 550 bytes   00:00:09.175
2               0:00:09.175     0:00:09.009     5 162 kbps      14 376 kbps     00:00:15.982    7 232 kbps      00:00:13.146    0 kbps          00:00:00.000    21 528 bytes    281 551 bytes   00:00:14.180
3               0:00:18.184     0:00:09.009     4 990 kbps      14 161 kbps     00:00:24.991    6 798 kbps      00:00:22.155    0 kbps          00:00:00.000    20 814 bytes    282 158 bytes   00:00:25.191
4               0:00:27.193     0:00:09.009     4 552 kbps      12 053 kbps     00:00:34.000    6 050 kbps      00:00:31.097    0 kbps          00:00:00.000    18 986 bytes    276 068 bytes   00:00:32.198
5               0:00:36.202     0:00:09.008     4 240 kbps      12 054 kbps     00:00:44.210    5 827 kbps      00:00:40.173    0 kbps          00:00:00.000    17 686 bytes    251 680 bytes   00:00:40.206
6               0:00:45.211     0:00:08.875     2 582 kbps      10 433 kbps     00:00:52.018    3 706 kbps      00:00:48.081    0 kbps          00:00:00.000    10 808 bytes    224 742 bytes   00:00:48.214
STREAM DIAGNOSTICS:
File            PID             Type            Codec           Language                Seconds                 Bitrate                 Bytes           Packets
----            ---             ----            -----           --------                --------------          --------------          -------------   -----
00006.M2TS      4113 (0x1011)   0x1B            AVC                                     54,021                  4 494                   30 347 864      165 836

<---- END FORUMS PASTE ---->
QUICK SUMMARY:
Disc Title: Яначек Леош - Енуфа (Teatro Real, Madrid) (2009) (Blu-ray 1080i, AVC, DTS-HD 5.1)
Disc Size: 43 694 365 755 bytes
Protection: AACS
BD-Java: No
Playlist: 00003.MPLS
Size: 32 194 560 bytes
Length: 0:00:54.087
Total Bitrate: 4,76 Mbps
Video: MPEG-4 AVC Video / 4489 kbps / 1080i / 29,970 fps / 16:9 / High Profile 4.1
Семпл

Правила, инструкции, FAQ!!!
Торрент  Добавлен [05 июн 2020, 23:15] Скачать торрент Магнет ссылка
Скачать торрент
[ Размер 104.55 КБ / Просмотров 2 ]

Статус
Проверен 
 
Размер  40.69 ГБ
Приватный: Нет (DHT включён)
.torrent скачан  0
 


     Отправить личное сообщение
   
Страница 1 из 1
Показать сообщения за:  Поле сортировки  
Начать новую тему Ответить на тему


Сейчас этот форум просматривают: нет зарегистрированных пользователей и гости: 0


Вы не можете начинать темы
Вы не можете отвечать на сообщения
Вы не можете редактировать свои сообщения
Вы не можете удалять свои сообщения
Вы не можете добавлять вложения

Перейти:  
cron