Начать новую тему Ответить на тему
Статистика раздачи
Размер: 11.52 ГБ | Добавлен: 05 июн 2020, 22:41 | Скачали: 0
Сидеров: 0  [0 байт/сек]    Личеров: 0  [0 байт/сек]
Пред. тема | След. тема 

Автор
Сообщение

СообщениеДобавлено: 05 июн 2020, 22:41 

Ответить с цитатой 

Leonardo Vinci - Artaserse, dramma per musica in tre atti

Libretto di Pietro Metastasio
Prima esecuzione: Teatro delle Dame di Roma il 4 febbraio 1730Год выпуска: 10 Nov 2012 20:00
en direct de l'Opéra de Nancy
Лейбл: Mezzo Live HD
Страна-производитель: France
Жанр: Opera/Baroque
Продолжительность: 4h 8m 16s
Язык: Italiano
в перерывах интервью: Français
Перевод: Отсутствует
Субтитры: французские, неотключаемые
Исполнители:
Philippe Jaroussky (Artaserse)
Max Emanuel Cencic (Mandane)
Juan Sancho (Artabano)
Franco Fagioli (Arbace)
Valer Barna Sabadus (Semira)
Yuriy Mynenko (Megabise)
Concerto Köln
Diego Fasolis (direction)
Качество видео: HDTV
Формат/Контейнер: TS
Видео кодек: H.264
Аудио кодек: MP2
Видео поток: AVC, 1920×1080i, 6645 Kbps, 25 fps
Аудио поток: MP2, 192 Kbps, 48.0 KHz, 2 channels
Sinfonia
01. I. Allegro
02. II. Grave
03. III. Minuetto
Atto primo
04. Recitativo: Addio, Sentimi Arbace
05. Aria: Conservati fedele
06. Recitativo: Figlio, Arbace. Signor
07. Aria: Fra cento affanni
08. Recitativo: Coraggio o miei pensieri
09. Aria: Su le sponde del torbido Lete
10. Recitativo: Qual vittima si svena! - Dove, principe, dove?
11. Aria: Per pieta, bell'idol mio
12. Recitativo: Gran cose io temo
13. Aria: Sogna il guerrier le schiere
14. Recitativo: voi della Persia
15. Aria: Bramar di perdere
16. Recitativo: Ah, Mandane... Artaserse - Signore. Amico
17. Recitativo: Artaserse respira
18. Recitativo: Arbace e il reo
19. Aria: Deh respirar lasciatemi
20. Recitativo: E innocente dovrai traggi soffrir
21. Aria: Non ti son padre
22. Recitativo: Ma per qual fallo mai
23. Aria: Torna innocente e poi
24. Mio ben, mia vita...
25. Aria: Dimmi che un empio sei
26. Recitativo accompagnato: No che non ha
27. Aria: Vo un mar crudele
Atto secondo
01. Recitativo: Dal carcere o custodi
02. Aria: Rendimi il caro amico
03. Recitativo: Son quasi in porto
04. Aria: Mi scacci sdegnato!
05. Recitativo: I tuoi deboli affetti - Figlia, e questi il tuo sposo
06. Aria: Amalo e se al tuo sguardo
07. Recitativo: Ascolta o Megabise
08. Aria: Non temer ch'io mai ti dica
09. Recitativo: Qual serie di sventure
10. Aria: Se d'un amor tiranno
11. Recitativo: A qual di tanti mali
12. Aria: Se del fiume altera l'onda
13. Recitativo: Mio re, chiedono a gara - Artaserse pieta - E vana la tua, la mia pieta
14. Recitativo: Tanto in odio alla Persia
15. Aria: Per quel paterno amplesso
16. Recitativo: A pezzo del mio sangue
17. Aria: Va' tra le selve ircane
18. Recitativo: Quanto, amata Semira
19. Aria: Per quell'affetto
20. Recitativo: Dell'ingrata Semira
21. Aria: Non conosco in tal momento
22. Recitativo: Son pur solo una volta
23. Aria: Cosi stupisce e cade
Atto terzo
01. Arioso: Perche tarda e mai la morte
02. Recitativo: Arbace. Oh dei, che miro!
03. Aria: L'onda dal mar divisa
04. Recitativo: Quella fronte sicura e quel sembiante
05. Aria: Nuvoletta opposta al sole
06. Recitativo: Figlio, Arbace, ove sei?
07. Aria: Ardito ti renda
08. Recitativo: Trovaste avversi dei
09. Aria: Figlio se piu non vivi
10. Recitativo: Alfin potrai consolarti Mandane
11. Aria: Mi credi spietata?
12. Recitativo: Forsennata, che feci!
13. Aria: Non e ver che sia contento
14. Recitativo: Ne pur qui la ritrovo
15. Duetto: Tu vuoi ch'io viva o cara
16. Recitativo: A voi popoli io m'offro
17. Recitativo accompagnato: 'Lucido dio per cui l'april fiorisce'
18. Recitativo: Al riparo signor - Ferma o germano
19. Recitativo: Ecco Arbace, o monarca, a' piedi tuoi
20. Recitativo accompagnato: 'Lucido dio per cui l'april fiorisce'
21. Recitativo: Ferma; e veleno
22. Coro: Giusto re, la Persia adora
Код:
General
ID                             : 1 (0x1)
Complete name                  : E:\Video\Vinci - Artaserse (Jaroussky, l'Opera de Nancy) 2012-11-10.ts
Format                         : MPEG-TS
File size                      : 11.5 GiB
Duration                       : 4h 8mn
Overall bit rate               : 6 645 Kbps
Maximum Overall bit rate       : 35.5 Mbps
Video
ID                             : 4113 (0x1011)
Menu ID                        : 1 (0x1)
Format                         : AVC
Format/Info                    : Advanced Video Codec
Format profile                 : High@L4.0
Format settings, CABAC         : Yes
Format settings, ReFrames      : 3 frames
Codec ID                       : 27
Duration                       : 4h 8mn
Bit rate                       : 6 123 Kbps
Width                          : 1 920 pixels
Height                         : 1 080 pixels
Display aspect ratio           : 16:9
Frame rate                     : 25.000 fps
Standard                       : Component
Color space                    : YUV
Chroma subsampling             : 4:2:0
Bit depth                      : 8 bits
Scan type                      : Interlaced
Scan order                     : Top Field First
Bits/(Pixel*Frame)             : 0.118
Stream size                    : 10.6 GiB (92%)
Color primaries                : BT.709-5, BT.1361, IEC 61966-2-4, SMPTE RP177
Transfer characteristics       : BT.709-5, BT.1361
Matrix coefficients            : BT.709-5, BT.1361, IEC 61966-2-4 709, SMPTE RP177
Audio
ID                             : 4352 (0x1100)
Menu ID                        : 1 (0x1)
Format                         : MPEG Audio
Format version                 : Version 1
Format profile                 : Layer 2
Codec ID                       : 4
Duration                       : 4h 8mn
Bit rate mode                  : Constant
Bit rate                       : 192 Kbps
Channel(s)                     : 2 channels
Sampling rate                  : 48.0 KHz
Compression mode               : Lossy
Delay relative to video        : 13ms
Stream size                    : 341 MiB (3%)
Language                       : French


Правила, инструкции, FAQ!!!
Торрент  Добавлен [05 июн 2020, 22:41] Скачать торрент Магнет ссылка
Скачать торрент
[ Размер 58.25 КБ / Просмотров 4 ]

Статус
Проверен 
 
Размер  11.52 ГБ
Приватный: Нет (DHT включён)
.torrent скачан  0
 


     Отправить личное сообщение
   
Страница 1 из 1
Показать сообщения за:  Поле сортировки  
Начать новую тему Ответить на тему


Сейчас этот форум просматривают: нет зарегистрированных пользователей и гости: 0


Вы не можете начинать темы
Вы не можете отвечать на сообщения
Вы не можете редактировать свои сообщения
Вы не можете удалять свои сообщения
Вы не можете добавлять вложения

Перейти:  
cron