Начать новую тему Ответить на тему
Статистика раздачи
Размер: 324.33 МБ | Добавлен: 26 мар 2019, 19:57 | Скачали: 1
Сидеров: 1  [0 байт/сек]    Личеров: 0  [0 байт/сек]
Пред. тема | След. тема 

Автор
Сообщение

СообщениеДобавлено: 26 мар 2019, 19:57 

Ответить с цитатой 

Zoé / Prográmaton: Revisitado
Жанр: Latin, Electronic, Alternative, Rock
Носитель: CD
Год издания: 2015
Страна исполнителя (группы): Mexico
Аудиокодек: FLAC (*.flac)
Тип рипа: image+.cue
Битрейт аудио: lossless
Продолжительность: 00:52:39
Источник (релизер): Mixup
Наличие сканов в содержимом раздачи: нет
Треклист:
01. Fin de Semana (RAC Remix)
02. Dos Mil Trece (Astro Remix)
03. Andrómeda (Poolside Remix)
04. Sedantes (Rey Pila)
05. Cámara Lenta (AJ Dávila Remix)
06. 10 A.M. (Bosco Delrey Remix)
07. Game Over Shanghai (Babasónica Electronic Remix)
08. Ciudades Invisibles (Little Dragon Remix)
09. Panoramas (El Columpio Asesino Remix)
10. Altamar (Detras de tus Ojos) [UN Remix]
11. SOS (Tricky vs. Zoé Remix)
12. Arrullo de Estrellas (Daniel Melero Remix)
Код:
Exact Audio Copy V1.1 from 23. June 2015
EAC extraction logfile from 15. November 2015, 9:36
Zoé / Prográmaton: Revisitado
Used drive  : HL-DT-STDVDRAM GSA-H40N   Adapter: 1  ID: 0
Read mode               : Secure
Utilize accurate stream : Yes
Defeat audio cache      : Yes
Make use of C2 pointers : No
Read offset correction                      : 667
Overread into Lead-In and Lead-Out          : No
Fill up missing offset samples with silence : Yes
Delete leading and trailing silent blocks   : No
Null samples used in CRC calculations       : Yes
Used interface                              : Native Win32 interface for Win NT & 2000
Used output format              : User Defined Encoder
Selected bitrate                : 1024 kBit/s
Quality                         : High
Add ID3 tag                     : No
Command line compressor         : C:\Program Files (x86)\Exact Audio Copy\Flac\flac.exe
Additional command line options : -8 -V -T "ARTIST=%artist%" -T "TITLE=%title%" -T "ALBUM=%albumtitle%" -T "DATE=%year%" -T "TRACKNUMBER=%tracknr%" -T "GENRE=%genre%" -T "PERFORMER=%albuminterpret%" -T "COMPOSER=%composer%" %haslyrics%--tag-from-file=LYRICS="%lyricsfile%"%haslyrics% -T "ALBUMARTIST=%albumartist%" -T "DISCNUMBER=%cdnumber%" -T "TOTALDISCS=%totalcds%" -T "TOTALTRACKS=%numtracks%" -T "COMMENT=%comment%" %source% -o %dest%
TOC of the extracted CD
     Track |   Start  |  Length  | Start sector | End sector
    ---------------------------------------------------------
        1  |  0:00.00 |  3:38.61 |         0    |    16410
        2  |  3:38.61 |  3:20.52 |     16411    |    31462
        3  |  6:59.38 |  5:02.46 |     31463    |    54158
        4  | 12:02.09 |  5:08.64 |     54159    |    77322
        5  | 17:10.73 |  4:22.29 |     77323    |    97001
        6  | 21:33.27 |  3:38.71 |     97002    |   113422
        7  | 25:12.23 |  4:52.74 |    113423    |   135396
        8  | 30:05.22 |  5:53.30 |    135397    |   161901
        9  | 35:58.52 |  4:55.71 |    161902    |   184097
       10  | 40:54.48 |  3:00.06 |    184098    |   197603
       11  | 43:54.54 |  3:30.50 |    197604    |   213403
       12  | 47:25.29 |  5:14.21 |    213404    |   236974
Range status and errors
Selected range
     Filename C:\Users\Alex-Pc\Desktop\New folder\Zoé - Prográmaton- Revisitado.wav
     Peak level 99.9 %
     Extraction speed 6.8 X
     Range quality 99.9 %
     Test CRC AF5F6742
     Copy CRC AF5F6742
     Copy OK
No errors occurred
AccurateRip summary
Track  1  not present in database
Track  2  not present in database
Track  3  not present in database
Track  4  not present in database
Track  5  not present in database
Track  6  not present in database
Track  7  not present in database
Track  8  not present in database
Track  9  not present in database
Track 10  not present in database
Track 11  not present in database
Track 12  not present in database
None of the tracks are present in the AccurateRip database
End of status report
---- CUETools DB Plugin V2.1.6
[CTDB TOCID: sKiquTFk3.yV9nw1wLgv_lbtZhM-] found
Submit result: sKiquTFk3.yV9nw1wLgv_lbtZhM- has been confirmed
Track | CTDB Status
  1   | (1/1) Accurately ripped
  2   | (1/1) Accurately ripped
  3   | (1/1) Accurately ripped
  4   | (1/1) Accurately ripped
  5   | (1/1) Accurately ripped
  6   | (1/1) Accurately ripped
  7   | (1/1) Accurately ripped
  8   | (1/1) Accurately ripped
  9   | (1/1) Accurately ripped
 10   | (1/1) Accurately ripped
 11   | (1/1) Accurately ripped
 12   | (1/1) Accurately ripped
==== Log checksum F2755E12FC2E74B99F1E77D48CB62BE36C3E0B52B0DC21690823E3F320672626 ====
Код:
-----------------------
DON'T MODIFY THIS FILE
-----------------------
PERFORMER: auCDtect Task Manager, ver. 1.6.0 RC1 build 1.6.0.1
Copyright (c) 2008-2010 y-soft. All rights reserved
[url=http://y-soft.org]http://y-soft.org[/url]
ANALYZER: auCDtect: CD records authenticity detector, version 0.8.2
Copyright (c) 2004 Oleg Berngardt. All rights reserved.
Copyright (c) 2004 Alexander Djourik. All rights reserved.
FILE: Zoé - Prográmaton- Revisitado.flac
  Size: 339467346 Hash: C465255773258249AA03519ABB97F22E Accuracy: -m0
  Conclusion: CDDA 100%
  Signature: 1E1D5813FEBDE156F864F1998B4066E5F1002441
Правила, инструкции, FAQ!!!
Торрент  Добавлен [26 мар 2019, 19:57] Скачать торрент Магнет ссылка
Скачать торрент
[ Размер 13.49 КБ / Просмотров 6 ]

Статус
Проверен 
 
Размер  324.33 МБ
Приватный: Нет (DHT включён)
.torrent скачан  1
 


     Отправить личное сообщение
   
Страница 1 из 1
Показать сообщения за:  Поле сортировки  
Начать новую тему Ответить на тему


Сейчас этот форум просматривают: нет зарегистрированных пользователей и гости: 0


Вы не можете начинать темы
Вы не можете отвечать на сообщения
Вы не можете редактировать свои сообщения
Вы не можете удалять свои сообщения
Вы не можете добавлять вложения

Перейти:  
cron